Subcategories
Tags
Language
Tags

VA - 101 Hits: Long Hot Summer (5CD, 2018)

Posted By: ciklon5
VA - 101 Hits: Long Hot Summer (5CD, 2018)

VA - 101 Hits: Long Hot Summer (5CD, 2018)
FLAC (tracks+.cue,log,scans) / MP3 CBR 320 kbps | 05:58:48 | 831 Mb / 2,5 Gb
Genre: Soul, Funk, R&B, Pop, Disco / Label: Universal Music

• 101 summer hits carefully compiled across 5 CDs, presenting some of the finest repertoire ever available at this price. Featuring 5 CDs packed full of smash hits to help soundtrack your summer. Including the likes of Michael Jackson, AVICII and many more! UMC stands for Universal Music Catalogue •

Track List:
CD1:
01. Sergio Mendes Feat. The Black Eyed Peas - Mas Que Nada 3:34
02. Shaft - (Mucho Mambo) Sway 3:27
03. Luis Fonsi - Despacito 3:48
04. Sean Paul Feat. Dua Lipa - No Lie 2:53
05. Shaggy Feat. Rayvon - In The Summertime 3:44
06. Aswad - Shine 3:38
07. 10cc - Dreadlock Holiday 4:25
08. Chaka Demus & Pliers - Tease Me 4:03
09. Axwell & Ingrosso - Sun Is Shining 3:10
10. Bellini - Samba De Janeiro 2:48
11. Jennifer Lopez - On The Floor 3:39
12. Lana Del Rey Vs. Cedric Gervais - Summertime Sadness 3:35
13. Bastille - Pompeii 3:33
14. Duke Dumont Feat. Jax Jones - I Got U 4:46
15. Swedish House Mafia Feat. Tinie Tempah - Miami 2 Ibiza 2:49
16. Avicii - Wake Me Up 4:05
17. Gorgon City Feat. Mnek - Ready For Your Love 3:18
18. Beats International - Dub Be Good To Me 3:58
19. Groove Terminator - One More Time 3:22
20. Kool & The Gang - Too Hot 3:47

CD2:
21. Abba - Summer Night City 3:36
22. The Mamas & The Papas - California Dreamin' 2:38
23. The Style Council - Long Hot Summer 3:49
24. Ub40 - Red Red Wine 3:01
25. Third World - Now That We've Found Love 3:49
26. Prince Buster - Whine & Grine 3:34
27. Lynyrd Skynyrd - Sweet Home Alabama 4:41
28. Lighthouse Family - Lifted 4:19
29. York - On The Beach 3:15
30. Kt Tunstall - Suddenly I See 3:19
31. Melanie C - Turn To You 4:10
32. Girls Aloud - Long Hot Summer 3:52
33. Martha And The Muffins - Echo Beach 3:32
34. Culture Club - Karma Chameleon 3:57
35. The Human League - (Keep Feeling) Fascination 3:42
36. Hanson - Mmmbop 3:58
37. Shanice - I Love Your Smile 4:17
38. Omc - How Bizarre 3:45
39. Status Quo - Marguerita Time 3:27
40. Bobby Hebb - Sunny 2:45

CD3:
41. Incognito Feat. Jocelyn Brown - Always There 3:34
42. Nuyorican Soul - I Am The Black Gold Of The Sun 6:30
43. Marlena Shaw - California Soul 2:56
44. Kool & The Gang - Summer Madness 4:15
45. The Blackbyrds - Walking In Rhythm 4:10
46. Four Tops - L.A. (My Town) 3:08
47. Frank Wilson - Do I Love You (Indeed I Do) 2:24
48. James Brown - I Got You (I Feel Good) 2:46
49. Jean Knight - Mr. Big Stuff 2:41
50. Jermaine Stewart - We Don't Have To Take Our Clothes Off 4:03
51. Jimmy Cliff - Wonderful World, Beautiful People 3:11
52. Martha Reeves & The Vandellas - Heatwave 2:43
53. Stevie Wonder - Signed, Sealed, Delivered (I'm Yours) 2:37
54. The Temptations - My Girl 2:48
55. Marvin Gaye - I Heard It Through The Grapevine 3:13
56. Michael Jackson - Farewell My Summer Love 3:37
57. Ohio Players - Fire 3:29
58. Parliament - Give Up The Funk (Tear The Roof Off The Sucker) 3:42
59. Omar - There's Nothing Like This 3:56
60. Felix Da Housecat Feat. Nina Simone - Sinnerman 4:35
61. Tensnake Feat. Nile Rodgers & Fiora - Love Sublime 4:00

CD4:
62. Stereophonics - Have A Nice Day 3:24
63. The Bees - Chicken Payback 3:12
64. The Thrills - Big Sur 3:07
65. Dodgy - Staying Out For The Summer 3:12
66. Empire Of The Sun - Walking On A Dream 3:15
67. Womack & Womack - Teardrops 3:49
68. The Style Council - You're The Best Thing 4:24
69. Freak Power - Turn On, Tune In, Cop Out 4:24
70. Crystal Waters - Gypsy Woman (La Da Dee La Da Da) 3:45
71. Yuri Buenaventura - Salsa 4:27
72. Stealers Wheel - Stuck In The Middle With You 3:24
73. James - Sit Down 4:04
74. Professor Green Feat. Ed Drewett - I Need You Tonight 3:42
75. Roll Deep Feat. Jodie Connor - Good Times 3:42
76. Safri Duo - Played-A-Live (The Bongo Song) 3:02
77. Klangkarussell Feat. Will Heard - Sonnentanz (Sun Don't Shine) 3:41
78. Kelis - Milkshake 3:05
79. Lighthouse Family - Ocean Drive 3:59
80. Incognito - Don't You Worry 'bout A Thing 4:07
81. Gabrielle - Sunshine 4:11

CD5:
82. Nina Simone - Feeling Good 2:55
83. Dinah Washington - Blue Skies 2:43
84. Anita O'day - Indian Summer 3:14
85. Chet Baker - Summertime 4:12
86. Dorothy Ashby - Little Sunflower 3:45
87. Dusty Springfield - Son For A Preacher Man 2:25
88. Ella Fitzgerald - Too Darn Hot 3:50
89. George Benson - Sunny 2:52
90. Antonio Carlos Jobim - Caribe 2:42
91. J.J. Johnson & Kai Winding - Moonglow (Theme From Picnic) 4:06
92. Jack Teagarden - Guess I'll Go Back Home This Summer 3:36
93. Johnny Hartman - A Slow Hot Wind 3:21
94. Roy Ayers Ubiquity - Everybody Loves The Sunshine 3:58
95. Sarah Vaughan - The Boy From Ipanema 2:30
96. Wynton Kelly Trio - South Seas 4:11
97. Quincy Jones - Soul Bossa Nova 2:44
98. Paul Desmond - From The Hot Afternoon 3:40
99. The Tams - Be Young, Be Foolish, Be Happy 2:07
100. Sergio Mendes & Brasil '66 - Mais Que Nada 2:43
101. Stan Getz - The Shining Sea 3:12

Exact Audio Copy V1.3 from 2. September 2016

EAC extraction logfile from 23. September 2018, 12:10

Various / 101 Hits - Long Hot Summer - CD1

Used drive : ATAPI iHAS124 Y Adapter: 1 ID: 0

Read mode : Secure
Utilize accurate stream : Yes
Defeat audio cache : No
Make use of C2 pointers : Yes

Read offset correction : 48
Overread into Lead-In and Lead-Out : No
Fill up missing offset samples with silence : Yes
Delete leading and trailing silent blocks : No
Null samples used in CRC calculations : Yes
Used interface : Native Win32 interface for Win NT & 2000
Gap handling : Not detected, thus appended to previous track

Used output format : User Defined Encoder
Selected bitrate : 896 kBit/s
Quality : High
Add ID3 tag : No
Command line compressor : C:\Program Files (x86)\Exact Audio Copy\FLAC\FLAC.EXE
Additional command line options : -6 -V -T "ARTIST=%artist%" -T "TITLE=%title%" -T "ALBUM=%albumtitle%" -T "DATE=%year%" -T "TRACKNUMBER=%tracknr%" -T "GENRE=%genre%" -T "COMMENT=%comment%" -T "BAND=%albuminterpret%" -T "ALBUMARTIST=%albuminterpret%" -T "COMPOSER=%composer%" %haslyrics%–tag-from-file=LYRICS="%lyricsfile%"%haslyrics% -T "DISCNUMBER=%cdnumber%" -T "TOTALDISCS=%totalcds%" -T "TOTALTRACKS=%numtracks%" %hascover%–picture="%coverfile%"%hascover% %source% -o %dest%


TOC of the extracted CD

Track | Start | Length | Start sector | End sector
––––––––––––––––––––––––––––-
1 | 0:00.00 | 3:33.62 | 0 | 16036
2 | 3:33.62 | 3:27.00 | 16037 | 31561
3 | 7:00.62 | 3:47.59 | 31562 | 48645
4 | 10:48.46 | 2:52.42 | 48646 | 61587
5 | 13:41.13 | 3:44.16 | 61588 | 78403
6 | 17:25.29 | 3:37.66 | 78404 | 94744
7 | 21:03.20 | 4:25.10 | 94745 | 114629
8 | 25:28.30 | 4:02.74 | 114630 | 132853
9 | 29:31.29 | 3:10.05 | 132854 | 147108
10 | 32:41.34 | 2:47.73 | 147109 | 159706
11 | 35:29.32 | 3:38.46 | 159707 | 176102
12 | 39:08.03 | 3:34.58 | 176103 | 192210
13 | 42:42.61 | 3:33.10 | 192211 | 208195
14 | 46:15.71 | 4:45.44 | 208196 | 229614
15 | 51:01.40 | 2:48.67 | 229615 | 242281
16 | 53:50.32 | 4:04.53 | 242282 | 260634
17 | 57:55.10 | 3:17.42 | 260635 | 275451
18 | 61:12.52 | 3:57.70 | 275452 | 293296
19 | 65:10.47 | 3:22.02 | 293297 | 308448
20 | 68:32.49 | 3:47.04 | 308449 | 325477


Track 1

Filename A:\PsPBuRnOuT's MUSIC\SORTED BY YEAR\2000 PLUS\101 HITS - LONG HOT SUMMER\101 HITS - LONG HOT SUMMER - CD1\01.Sergio Mendes Feat. The Black Eyed Peas - Mas Que Nada.wav

Peak level 100.0 %
Extraction speed 13.3 X
Track quality 99.9 %
Copy CRC FF20877F
Track not present in AccurateRip database
Copy OK

Track 2

Filename A:\PsPBuRnOuT's MUSIC\SORTED BY YEAR\2000 PLUS\101 HITS - LONG HOT SUMMER\101 HITS - LONG HOT SUMMER - CD1\02.Shaft - (Mucho Mambo) Sway.wav

Peak level 100.0 %
Extraction speed 15.9 X
Track quality 100.0 %
Copy CRC 694ECB29
Track not present in AccurateRip database
Copy OK

Track 3

Filename A:\PsPBuRnOuT's MUSIC\SORTED BY YEAR\2000 PLUS\101 HITS - LONG HOT SUMMER\101 HITS - LONG HOT SUMMER - CD1\03.Luis Fonsi - Despacito.wav

Peak level 100.0 %
Extraction speed 21.7 X
Track quality 100.0 %
Copy CRC 81572C78
Track not present in AccurateRip database
Copy OK

Track 4

Filename A:\PsPBuRnOuT's MUSIC\SORTED BY YEAR\2000 PLUS\101 HITS - LONG HOT SUMMER\101 HITS - LONG HOT SUMMER - CD1\04.Sean Paul Feat. Dua Lipa - No Lie.wav

Peak level 98.8 %
Extraction speed 22.4 X
Track quality 100.0 %
Copy CRC 86A0A005
Track not present in AccurateRip database
Copy OK

Track 5

Filename A:\PsPBuRnOuT's MUSIC\SORTED BY YEAR\2000 PLUS\101 HITS - LONG HOT SUMMER\101 HITS - LONG HOT SUMMER - CD1\05.Shaggy Feat. Rayvon - In The Summertime.wav

Peak level 99.8 %
Extraction speed 24.2 X
Track quality 100.0 %
Copy CRC 89E41BEE
Track not present in AccurateRip database
Copy OK

Track 6

Filename A:\PsPBuRnOuT's MUSIC\SORTED BY YEAR\2000 PLUS\101 HITS - LONG HOT SUMMER\101 HITS - LONG HOT SUMMER - CD1\06.Aswad - Shine.wav

Peak level 96.2 %
Extraction speed 25.5 X
Track quality 100.0 %
Copy CRC 934565FB
Track not present in AccurateRip database
Copy OK

Track 7

Filename A:\PsPBuRnOuT's MUSIC\SORTED BY YEAR\2000 PLUS\101 HITS - LONG HOT SUMMER\101 HITS - LONG HOT SUMMER - CD1\07.10cc - Dreadlock Holiday.wav

Peak level 96.2 %
Extraction speed 22.8 X
Track quality 99.9 %
Copy CRC C701CC62
Track not present in AccurateRip database
Copy OK

Track 8

Filename A:\PsPBuRnOuT's MUSIC\SORTED BY YEAR\2000 PLUS\101 HITS - LONG HOT SUMMER\101 HITS - LONG HOT SUMMER - CD1\08.Chaka Demus & Pliers - Tease Me.wav

Peak level 98.8 %
Extraction speed 23.4 X
Track quality 100.0 %
Copy CRC 71F11A98
Track not present in AccurateRip database
Copy OK

Track 9

Filename A:\PsPBuRnOuT's MUSIC\SORTED BY YEAR\2000 PLUS\101 HITS - LONG HOT SUMMER\101 HITS - LONG HOT SUMMER - CD1\09.Axwell & Ingrosso - Sun Is Shining.wav

Peak level 98.8 %
Extraction speed 30.8 X
Track quality 100.0 %
Copy CRC FE5024A2
Track not present in AccurateRip database
Copy OK

Track 10

Filename A:\PsPBuRnOuT's MUSIC\SORTED BY YEAR\2000 PLUS\101 HITS - LONG HOT SUMMER\101 HITS - LONG HOT SUMMER - CD1\10.Bellini - Samba De Janeiro.wav

Peak level 99.4 %
Extraction speed 30.7 X
Track quality 100.0 %
Copy CRC 54855958
Track not present in AccurateRip database
Copy OK

Track 11

Filename A:\PsPBuRnOuT's MUSIC\SORTED BY YEAR\2000 PLUS\101 HITS - LONG HOT SUMMER\101 HITS - LONG HOT SUMMER - CD1\11.Jennifer Lopez - On The Floor.wav

Peak level 96.6 %
Extraction speed 25.9 X
Track quality 99.9 %
Copy CRC 5C62EC04
Track not present in AccurateRip database
Copy OK

Track 12

Filename A:\PsPBuRnOuT's MUSIC\SORTED BY YEAR\2000 PLUS\101 HITS - LONG HOT SUMMER\101 HITS - LONG HOT SUMMER - CD1\12.Lana Del Rey Vs. Cedric Gervais - Summertime Sadness.wav

Peak level 89.8 %
Extraction speed 22.1 X
Track quality 99.9 %
Copy CRC 80D32BF4
Track not present in AccurateRip database
Copy OK

Track 13

Filename A:\PsPBuRnOuT's MUSIC\SORTED BY YEAR\2000 PLUS\101 HITS - LONG HOT SUMMER\101 HITS - LONG HOT SUMMER - CD1\13.Bastille - Pompeii.wav

Peak level 98.9 %
Extraction speed 25.6 X
Track quality 100.0 %
Copy CRC 03FCF8E4
Track not present in AccurateRip database
Copy OK

Track 14

Filename A:\PsPBuRnOuT's MUSIC\SORTED BY YEAR\2000 PLUS\101 HITS - LONG HOT SUMMER\101 HITS - LONG HOT SUMMER - CD1\14.Duke Dumont Feat. Jax Jones - I Got U.wav

Peak level 99.4 %
Extraction speed 34.9 X
Track quality 100.0 %
Copy CRC E89887CC
Track not present in AccurateRip database
Copy OK

Track 15

Filename A:\PsPBuRnOuT's MUSIC\SORTED BY YEAR\2000 PLUS\101 HITS - LONG HOT SUMMER\101 HITS - LONG HOT SUMMER - CD1\15.Swedish House Mafia Feat. Tinie Tempah - Miami 2 Ibiza.wav

Peak level 96.2 %
Extraction speed 26.5 X
Track quality 99.8 %
Copy CRC 5838C439
Track not present in AccurateRip database
Copy OK

Track 16

Filename A:\PsPBuRnOuT's MUSIC\SORTED BY YEAR\2000 PLUS\101 HITS - LONG HOT SUMMER\101 HITS - LONG HOT SUMMER - CD1\16.Avicii - Wake Me Up.wav

Peak level 100.0 %
Extraction speed 24.6 X
Track quality 99.9 %
Copy CRC 1E3B07AF
Track not present in AccurateRip database
Copy OK

Track 17

Filename A:\PsPBuRnOuT's MUSIC\SORTED BY YEAR\2000 PLUS\101 HITS - LONG HOT SUMMER\101 HITS - LONG HOT SUMMER - CD1\17.Gorgon City Feat. MNEK - Ready For Your Love.wav

Peak level 99.0 %
Extraction speed 23.3 X
Track quality 99.8 %
Copy CRC 5A6051A9
Track not present in AccurateRip database
Copy OK

Track 18

Filename A:\PsPBuRnOuT's MUSIC\SORTED BY YEAR\2000 PLUS\101 HITS - LONG HOT SUMMER\101 HITS - LONG HOT SUMMER - CD1\18.Beats International - Dub Be Good To Me.wav

Peak level 96.2 %
Extraction speed 29.3 X
Track quality 100.0 %
Copy CRC 46036A21
Track not present in AccurateRip database
Copy OK

Track 19

Filename A:\PsPBuRnOuT's MUSIC\SORTED BY YEAR\2000 PLUS\101 HITS - LONG HOT SUMMER\101 HITS - LONG HOT SUMMER - CD1\19.Groove Terminator - One More Time.wav

Peak level 100.0 %
Extraction speed 30.7 X
Track quality 99.8 %
Copy CRC 26804F6E
Track not present in AccurateRip database
Copy OK

Track 20

Filename A:\PsPBuRnOuT's MUSIC\SORTED BY YEAR\2000 PLUS\101 HITS - LONG HOT SUMMER\101 HITS - LONG HOT SUMMER - CD1\20.Kool & The Gang - Too Hot.wav

Peak level 96.2 %
Extraction speed 30.8 X
Track quality 100.0 %
Copy CRC 09DF6962
Track not present in AccurateRip database
Copy OK


None of the tracks are present in the AccurateRip database

No errors occurred

End of status report

–– CUETools DB Plugin V2.1.6

[CTDB TOCID: Fjap5qvSBhMCps0L2M4sHzYJj0s-] disk not present in database
Submit result: Fjap5qvSBhMCps0L2M4sHzYJj0s- has been uploaded

Exact Audio Copy V1.3 from 2. September 2016

EAC extraction logfile from 23. September 2018, 20:39

Various / 101 Hits - Long Hot Summer - CD2

Used drive : ATAPI iHAS124 Y Adapter: 1 ID: 0

Read mode : Secure
Utilize accurate stream : Yes
Defeat audio cache : No
Make use of C2 pointers : Yes

Read offset correction : 48
Overread into Lead-In and Lead-Out : No
Fill up missing offset samples with silence : Yes
Delete leading and trailing silent blocks : No
Null samples used in CRC calculations : Yes
Used interface : Native Win32 interface for Win NT & 2000
Gap handling : Not detected, thus appended to previous track

Used output format : User Defined Encoder
Selected bitrate : 896 kBit/s
Quality : High
Add ID3 tag : No
Command line compressor : C:\Program Files (x86)\Exact Audio Copy\FLAC\FLAC.EXE
Additional command line options : -6 -V -T "ARTIST=%artist%" -T "TITLE=%title%" -T "ALBUM=%albumtitle%" -T "DATE=%year%" -T "TRACKNUMBER=%tracknr%" -T "GENRE=%genre%" -T "COMMENT=%comment%" -T "BAND=%albuminterpret%" -T "ALBUMARTIST=%albuminterpret%" -T "COMPOSER=%composer%" %haslyrics%–tag-from-file=LYRICS="%lyricsfile%"%haslyrics% -T "DISCNUMBER=%cdnumber%" -T "TOTALDISCS=%totalcds%" -T "TOTALTRACKS=%numtracks%" %hascover%–picture="%coverfile%"%hascover% %source% -o %dest%


TOC of the extracted CD

Track | Start | Length | Start sector | End sector
––––––––––––––––––––––––––––-
1 | 0:00.00 | 3:35.43 | 0 | 16167
2 | 3:35.43 | 2:38.11 | 16168 | 28028
3 | 6:13.54 | 3:48.38 | 28029 | 45166
4 | 10:02.17 | 3:01.18 | 45167 | 58759
5 | 13:03.35 | 3:49.05 | 58760 | 75939
6 | 16:52.40 | 3:33.40 | 75940 | 91954
7 | 20:26.05 | 4:41.14 | 91955 | 113043
8 | 25:07.19 | 4:19.18 | 113044 | 132486
9 | 29:26.37 | 3:14.39 | 132487 | 147075
10 | 32:41.01 | 3:19.33 | 147076 | 162033
11 | 36:00.34 | 4:10.23 | 162034 | 180806
12 | 40:10.57 | 3:51.46 | 180807 | 198177
13 | 44:02.28 | 3:32.23 | 198178 | 214100
14 | 47:34.51 | 3:56.51 | 214101 | 231851
15 | 51:31.27 | 3:42.07 | 231852 | 248508
16 | 55:13.34 | 3:58.16 | 248509 | 266374
17 | 59:11.50 | 4:16.48 | 266375 | 285622
18 | 63:28.23 | 3:44.61 | 285623 | 302483
19 | 67:13.09 | 3:26.43 | 302484 | 317976
20 | 70:39.52 | 2:44.71 | 317977 | 330347


Track 1

Filename A:\PsPBuRnOuT's MUSIC\SORTED BY YEAR\2000 PLUS\101 HITS - LONG HOT SUMMER\101 HITS - LONG HOT SUMMER - CD2\01.Abba - Summer Night City.wav

Peak level 97.1 %
Extraction speed 9.5 X
Track quality 100.0 %
Copy CRC DFB0F7E8
Track not present in AccurateRip database
Copy OK

Track 2

Filename A:\PsPBuRnOuT's MUSIC\SORTED BY YEAR\2000 PLUS\101 HITS - LONG HOT SUMMER\101 HITS - LONG HOT SUMMER - CD2\02.The Mamas & The Papas - California Dreamin'.wav

Peak level 96.2 %
Extraction speed 10.9 X
Track quality 100.0 %
Copy CRC D6D2B4A8
Track not present in AccurateRip database
Copy OK

Track 3

Filename A:\PsPBuRnOuT's MUSIC\SORTED BY YEAR\2000 PLUS\101 HITS - LONG HOT SUMMER\101 HITS - LONG HOT SUMMER - CD2\03.The Style Council - Long Hot Summer.wav

Peak level 98.8 %
Extraction speed 11.0 X
Track quality 99.9 %
Copy CRC 632F7106
Track not present in AccurateRip database
Copy OK

Track 4

Filename A:\PsPBuRnOuT's MUSIC\SORTED BY YEAR\2000 PLUS\101 HITS - LONG HOT SUMMER\101 HITS - LONG HOT SUMMER - CD2\04.UB40 - Red Red Wine.wav

Peak level 96.6 %
Extraction speed 11.7 X
Track quality 100.0 %
Copy CRC 71934078
Track not present in AccurateRip database
Copy OK

Track 5

Filename A:\PsPBuRnOuT's MUSIC\SORTED BY YEAR\2000 PLUS\101 HITS - LONG HOT SUMMER\101 HITS - LONG HOT SUMMER - CD2\05.Third World - Now That We've Found Love.wav

Peak level 93.3 %
Extraction speed 12.4 X
Track quality 100.0 %
Copy CRC 7ECBF9CB
Track not present in AccurateRip database
Copy OK

Track 6

Filename A:\PsPBuRnOuT's MUSIC\SORTED BY YEAR\2000 PLUS\101 HITS - LONG HOT SUMMER\101 HITS - LONG HOT SUMMER - CD2\06.Prince Buster - Whine & Grine.wav

Peak level 96.2 %
Extraction speed 13.7 X
Track quality 100.0 %
Copy CRC 39CAD387
Track not present in AccurateRip database
Copy OK

Track 7

Filename A:\PsPBuRnOuT's MUSIC\SORTED BY YEAR\2000 PLUS\101 HITS - LONG HOT SUMMER\101 HITS - LONG HOT SUMMER - CD2\07.Lynyrd Skynyrd - Sweet Home Alabama.wav

Peak level 96.2 %
Extraction speed 14.4 X
Track quality 100.0 %
Copy CRC 92E9CE63
Track not present in AccurateRip database
Copy OK

Track 8

Filename A:\PsPBuRnOuT's MUSIC\SORTED BY YEAR\2000 PLUS\101 HITS - LONG HOT SUMMER\101 HITS - LONG HOT SUMMER - CD2\08.Lighthouse Family - Lifted.wav

Peak level 100.0 %
Extraction speed 14.7 X
Track quality 100.0 %
Copy CRC 4F4E6E91
Track not present in AccurateRip database
Copy OK

Track 9

Filename A:\PsPBuRnOuT's MUSIC\SORTED BY YEAR\2000 PLUS\101 HITS - LONG HOT SUMMER\101 HITS - LONG HOT SUMMER - CD2\09.York - On The Beach.wav

Peak level 98.8 %
Extraction speed 16.0 X
Track quality 100.0 %
Copy CRC 78312424
Track not present in AccurateRip database
Copy OK

Track 10

Filename A:\PsPBuRnOuT's MUSIC\SORTED BY YEAR\2000 PLUS\101 HITS - LONG HOT SUMMER\101 HITS - LONG HOT SUMMER - CD2\10.KT Tunstall - Suddenly I See.wav

Peak level 98.8 %
Extraction speed 15.7 X
Track quality 100.0 %
Copy CRC D3EB24C2
Track not present in AccurateRip database
Copy OK

Track 11

Filename A:\PsPBuRnOuT's MUSIC\SORTED BY YEAR\2000 PLUS\101 HITS - LONG HOT SUMMER\101 HITS - LONG HOT SUMMER - CD2\11.Melanie C - Turn To You.wav

Peak level 96.2 %
Extraction speed 16.3 X
Track quality 100.0 %
Copy CRC AEE0045E
Track not present in AccurateRip database
Copy OK

Track 12

Filename A:\PsPBuRnOuT's MUSIC\SORTED BY YEAR\2000 PLUS\101 HITS - LONG HOT SUMMER\101 HITS - LONG HOT SUMMER - CD2\12.Girls Aloud - Long Hot Summer.wav

Peak level 98.7 %
Extraction speed 16.8 X
Track quality 100.0 %
Copy CRC 3970A6F5
Track not present in AccurateRip database
Copy OK

Track 13

Filename A:\PsPBuRnOuT's MUSIC\SORTED BY YEAR\2000 PLUS\101 HITS - LONG HOT SUMMER\101 HITS - LONG HOT SUMMER - CD2\13.Martha And The Muffins - Echo Beach.wav

Peak level 98.8 %
Extraction speed 18.2 X
Track quality 100.0 %
Copy CRC EE9C3AAA
Track not present in AccurateRip database
Copy OK

Track 14

Filename A:\PsPBuRnOuT's MUSIC\SORTED BY YEAR\2000 PLUS\101 HITS - LONG HOT SUMMER\101 HITS - LONG HOT SUMMER - CD2\14.Culture Club - Karma Chameleon.wav

Peak level 96.2 %
Extraction speed 17.8 X
Track quality 100.0 %
Copy CRC E025B865
Track not present in AccurateRip database
Copy OK

Track 15

Filename A:\PsPBuRnOuT's MUSIC\SORTED BY YEAR\2000 PLUS\101 HITS - LONG HOT SUMMER\101 HITS - LONG HOT SUMMER - CD2\15.The Human League - (Keep Feeling) Fascination.wav

Peak level 96.2 %
Extraction speed 18.2 X
Track quality 99.9 %
Copy CRC 832C7ABE
Track not present in AccurateRip database
Copy OK

Track 16

Filename A:\PsPBuRnOuT's MUSIC\SORTED BY YEAR\2000 PLUS\101 HITS - LONG HOT SUMMER\101 HITS - LONG HOT SUMMER - CD2\16.Hanson - MmmBop.wav

Peak level 100.0 %
Extraction speed 19.1 X
Track quality 100.0 %
Copy CRC 6C460D00
Track not present in AccurateRip database
Copy OK

Track 17

Filename A:\PsPBuRnOuT's MUSIC\SORTED BY YEAR\2000 PLUS\101 HITS - LONG HOT SUMMER\101 HITS - LONG HOT SUMMER - CD2\17.Shanice - I Love Your Smile.wav

Peak level 96.2 %
Extraction speed 20.2 X
Track quality 100.0 %
Copy CRC 5D925717
Track not present in AccurateRip database
Copy OK

Track 18

Filename A:\PsPBuRnOuT's MUSIC\SORTED BY YEAR\2000 PLUS\101 HITS - LONG HOT SUMMER\101 HITS - LONG HOT SUMMER - CD2\18.OMC - How Bizarre.wav

Peak level 96.2 %
Extraction speed 20.0 X
Track quality 100.0 %
Copy CRC 94C2357D
Track not present in AccurateRip database
Copy OK

Track 19

Filename A:\PsPBuRnOuT's MUSIC\SORTED BY YEAR\2000 PLUS\101 HITS - LONG HOT SUMMER\101 HITS - LONG HOT SUMMER - CD2\19.Status Quo - Marguerita Time.wav

Peak level 96.2 %
Extraction speed 21.3 X
Track quality 100.0 %
Copy CRC AD3DD407
Track not present in AccurateRip database
Copy OK

Track 20

Filename A:\PsPBuRnOuT's MUSIC\SORTED BY YEAR\2000 PLUS\101 HITS - LONG HOT SUMMER\101 HITS - LONG HOT SUMMER - CD2\20.Bobby Hebb - Sunny.wav

Peak level 96.2 %
Extraction speed 20.7 X
Track quality 100.0 %
Copy CRC 1929D0BB
Track not present in AccurateRip database
Copy OK


None of the tracks are present in the AccurateRip database

No errors occurred

End of status report

–– CUETools DB Plugin V2.1.6

[CTDB TOCID: tpol6N.z1hgyqsVuh6X74bUuZ8Q-] disk not present in database
Submit result: tpol6N.z1hgyqsVuh6X74bUuZ8Q- has been uploaded

Exact Audio Copy V1.3 from 2. September 2016

EAC extraction logfile from 25. September 2018, 10:24

Various / 101 Hits - Long Hot Summer - CD3

Used drive : ATAPI iHAS124 Y Adapter: 1 ID: 0

Read mode : Secure
Utilize accurate stream : Yes
Defeat audio cache : No
Make use of C2 pointers : Yes

Read offset correction : 48
Overread into Lead-In and Lead-Out : No
Fill up missing offset samples with silence : Yes
Delete leading and trailing silent blocks : No
Null samples used in CRC calculations : Yes
Used interface : Native Win32 interface for Win NT & 2000
Gap handling : Not detected, thus appended to previous track

Used output format : User Defined Encoder
Selected bitrate : 896 kBit/s
Quality : High
Add ID3 tag : No
Command line compressor : C:\Program Files (x86)\Exact Audio Copy\FLAC\FLAC.EXE
Additional command line options : -6 -V -T "ARTIST=%artist%" -T "TITLE=%title%" -T "ALBUM=%albumtitle%" -T "DATE=%year%" -T "TRACKNUMBER=%tracknr%" -T "GENRE=%genre%" -T "COMMENT=%comment%" -T "BAND=%albuminterpret%" -T "ALBUMARTIST=%albuminterpret%" -T "COMPOSER=%composer%" %haslyrics%–tag-from-file=LYRICS="%lyricsfile%"%haslyrics% -T "DISCNUMBER=%cdnumber%" -T "TOTALDISCS=%totalcds%" -T "TOTALTRACKS=%numtracks%" %hascover%–picture="%coverfile%"%hascover% %source% -o %dest%


TOC of the extracted CD

Track | Start | Length | Start sector | End sector
––––––––––––––––––––––––––––-
1 | 0:00.00 | 3:33.39 | 0 | 16013
2 | 3:33.39 | 6:29.74 | 16014 | 45262
3 | 10:03.38 | 2:56.09 | 45263 | 58471
4 | 12:59.47 | 4:14.39 | 58472 | 77560
5 | 17:14.11 | 4:09.67 | 77561 | 96302
6 | 21:24.03 | 3:08.32 | 96303 | 110434
7 | 24:32.35 | 2:23.47 | 110435 | 121206
8 | 26:56.07 | 2:45.40 | 121207 | 133621
9 | 29:41.47 | 2:40.55 | 133622 | 145676
10 | 32:22.27 | 4:02.44 | 145677 | 163870
11 | 36:24.71 | 3:11.14 | 163871 | 178209
12 | 39:36.10 | 2:43.12 | 178210 | 190446
13 | 42:19.22 | 2:37.15 | 190447 | 202236
14 | 44:56.37 | 2:48.23 | 202237 | 214859
15 | 47:44.60 | 3:13.13 | 214860 | 229347
16 | 50:57.73 | 3:36.57 | 229348 | 245604
17 | 54:34.55 | 3:28.67 | 245605 | 261271
18 | 58:03.47 | 3:41.38 | 261272 | 277884
19 | 61:45.10 | 3:55.38 | 277885 | 295547
20 | 65:40.48 | 4:34.67 | 295548 | 316164
21 | 70:15.40 | 4:00.09 | 316165 | 334173


Track 1

Filename A:\PsPBuRnOuT's MUSIC\SORTED BY YEAR\2000 PLUS\101 HITS - LONG HOT SUMMER\101 HITS - LONG HOT SUMMER - CD3\01.Incognito Feat. Jocelyn Brown - Always There.wav

Peak level 96.2 %
Extraction speed 13.0 X
Track quality 99.9 %
Copy CRC 59609AA1
Track not present in AccurateRip database
Copy OK

Track 2

Filename A:\PsPBuRnOuT's MUSIC\SORTED BY YEAR\2000 PLUS\101 HITS - LONG HOT SUMMER\101 HITS - LONG HOT SUMMER - CD3\02.Nuyorican Soul - I Am The Black Gold Of The Sun.wav

Peak level 94.1 %
Extraction speed 18.1 X
Track quality 100.0 %
Copy CRC 2A6ECEAA
Track not present in AccurateRip database
Copy OK

Track 3

Filename A:\PsPBuRnOuT's MUSIC\SORTED BY YEAR\2000 PLUS\101 HITS - LONG HOT SUMMER\101 HITS - LONG HOT SUMMER - CD3\03.Marlena Shaw - California Soul.wav

Peak level 98.8 %
Extraction speed 22.6 X
Track quality 100.0 %
Copy CRC 5C1FB6FD
Track not present in AccurateRip database
Copy OK

Track 4

Filename A:\PsPBuRnOuT's MUSIC\SORTED BY YEAR\2000 PLUS\101 HITS - LONG HOT SUMMER\101 HITS - LONG HOT SUMMER - CD3\04.Kool & The Gang - Summer Madness.wav

Peak level 96.2 %
Extraction speed 24.1 X
Track quality 100.0 %
Copy CRC 714CB86C
Track not present in AccurateRip database
Copy OK

Track 5

Filename A:\PsPBuRnOuT's MUSIC\SORTED BY YEAR\2000 PLUS\101 HITS - LONG HOT SUMMER\101 HITS - LONG HOT SUMMER - CD3\05.The Blackbyrds - Walking In Rhythm.wav

Peak level 96.2 %
Extraction speed 26.7 X
Track quality 100.0 %
Copy CRC 7FA9EBA8
Track not present in AccurateRip database
Copy OK

Track 6

Filename A:\PsPBuRnOuT's MUSIC\SORTED BY YEAR\2000 PLUS\101 HITS - LONG HOT SUMMER\101 HITS - LONG HOT SUMMER - CD3\06.Four Tops - L.A. (My Town).wav

Peak level 96.2 %
Extraction speed 28.1 X
Track quality 100.0 %
Copy CRC BC4943E3
Track not present in AccurateRip database
Copy OK

Track 7

Filename A:\PsPBuRnOuT's MUSIC\SORTED BY YEAR\2000 PLUS\101 HITS - LONG HOT SUMMER\101 HITS - LONG HOT SUMMER - CD3\07.Frank Wilson - Do I Love You (Indeed I Do).wav

Peak level 96.2 %
Extraction speed 27.1 X
Track quality 100.0 %
Copy CRC 9CB13BDF
Track not present in AccurateRip database
Copy OK

Track 8

Filename A:\PsPBuRnOuT's MUSIC\SORTED BY YEAR\2000 PLUS\101 HITS - LONG HOT SUMMER\101 HITS - LONG HOT SUMMER - CD3\08.James Brown - I Got You (I Feel Good).wav

Peak level 96.2 %
Extraction speed 29.3 X
Track quality 100.0 %
Copy CRC 43102854
Track not present in AccurateRip database
Copy OK

Track 9

Filename A:\PsPBuRnOuT's MUSIC\SORTED BY YEAR\2000 PLUS\101 HITS - LONG HOT SUMMER\101 HITS - LONG HOT SUMMER - CD3\09.Jean Knight - Mr. Big Stuff.wav

Peak level 96.2 %
Extraction speed 30.9 X
Track quality 100.0 %
Copy CRC 35795FD1
Track not present in AccurateRip database
Copy OK

Track 10

Filename A:\PsPBuRnOuT's MUSIC\SORTED BY YEAR\2000 PLUS\101 HITS - LONG HOT SUMMER\101 HITS - LONG HOT SUMMER - CD3\10.Jermaine Stewart - We Don't Have To Take Our Clothes Off.wav

Peak level 99.8 %
Extraction speed 31.5 X
Track quality 100.0 %
Copy CRC 95B44257
Track not present in AccurateRip database
Copy OK

Track 11

Filename A:\PsPBuRnOuT's MUSIC\SORTED BY YEAR\2000 PLUS\101 HITS - LONG HOT SUMMER\101 HITS - LONG HOT SUMMER - CD3\11.Jimmy Cliff - Wonderful World, Beautiful People.wav

Peak level 96.2 %
Extraction speed 25.7 X
Track quality 99.8 %
Copy CRC 14F7F92A
Track not present in AccurateRip database
Copy OK

Track 12

Filename A:\PsPBuRnOuT's MUSIC\SORTED BY YEAR\2000 PLUS\101 HITS - LONG HOT SUMMER\101 HITS - LONG HOT SUMMER - CD3\12.Martha Reeves & The Vandellas - Heatwave.wav

Peak level 96.2 %
Extraction speed 19.9 X
Track quality 99.8 %
Copy CRC 034B9ECA
Track not present in AccurateRip database
Copy OK

Track 13

Filename A:\PsPBuRnOuT's MUSIC\SORTED BY YEAR\2000 PLUS\101 HITS - LONG HOT SUMMER\101 HITS - LONG HOT SUMMER - CD3\13.Stevie Wonder - Signed, Sealed, Delivered (I'm Yours).wav

Peak level 96.2 %
Extraction speed 25.0 X
Track quality 100.0 %
Copy CRC D3B98734
Track not present in AccurateRip database
Copy OK

Track 14

Filename A:\PsPBuRnOuT's MUSIC\SORTED BY YEAR\2000 PLUS\101 HITS - LONG HOT SUMMER\101 HITS - LONG HOT SUMMER - CD3\14.The Temptations - My Girl.wav

Peak level 99.5 %
Extraction speed 34.5 X
Track quality 100.0 %
Copy CRC 02674A62
Track not present in AccurateRip database
Copy OK

Track 15

Filename A:\PsPBuRnOuT's MUSIC\SORTED BY YEAR\2000 PLUS\101 HITS - LONG HOT SUMMER\101 HITS - LONG HOT SUMMER - CD3\15.Marvin Gaye - I Heard It Through The Grapevine.wav

Peak level 96.2 %
Extraction speed 35.3 X
Track quality 100.0 %
Copy CRC 277A889D
Track not present in AccurateRip database
Copy OK

Track 16

Filename A:\PsPBuRnOuT's MUSIC\SORTED BY YEAR\2000 PLUS\101 HITS - LONG HOT SUMMER\101 HITS - LONG HOT SUMMER - CD3\16.Michael Jackson - Farewell My Summer Love.wav

Peak level 96.2 %
Extraction speed 35.6 X
Track quality 100.0 %
Copy CRC 264B1CD8
Track not present in AccurateRip database
Copy OK

Track 17

Filename A:\PsPBuRnOuT's MUSIC\SORTED BY YEAR\2000 PLUS\101 HITS - LONG HOT SUMMER\101 HITS - LONG HOT SUMMER - CD3\17.Ohio Players - Fire.wav

Peak level 96.2 %
Extraction speed 35.7 X
Track quality 100.0 %
Copy CRC D1D13967
Track not present in AccurateRip database
Copy OK

Track 18

Filename A:\PsPBuRnOuT's MUSIC\SORTED BY YEAR\2000 PLUS\101 HITS - LONG HOT SUMMER\101 HITS - LONG HOT SUMMER - CD3\18.Parliament - Give Up The Funk (Tear The Roof Off The Sucker).wav

Peak level 96.2 %
Extraction speed 37.5 X
Track quality 100.0 %
Copy CRC 09BAA129
Track not present in AccurateRip database
Copy OK

Track 19

Filename A:\PsPBuRnOuT's MUSIC\SORTED BY YEAR\2000 PLUS\101 HITS - LONG HOT SUMMER\101 HITS - LONG HOT SUMMER - CD3\19.Omar - There's Nothing Like This.wav

Peak level 100.0 %
Extraction speed 31.1 X
Track quality 99.9 %
Copy CRC 2E4AB564
Track not present in AccurateRip database
Copy OK

Track 20

Filename A:\PsPBuRnOuT's MUSIC\SORTED BY YEAR\2000 PLUS\101 HITS - LONG HOT SUMMER\101 HITS - LONG HOT SUMMER - CD3\20.Felix Da Housecat Feat. Nina Simone - Sinnerman.wav

Peak level 97.7 %
Extraction speed 30.6 X
Track quality 100.0 %
Copy CRC 92125264
Track not present in AccurateRip database
Copy OK

Track 21

Filename A:\PsPBuRnOuT's MUSIC\SORTED BY YEAR\2000 PLUS\101 HITS - LONG HOT SUMMER\101 HITS - LONG HOT SUMMER - CD3\21.Tensnake Feat. Nile Rodgers & Fiora - Love Sublime.wav

Peak level 96.7 %
Extraction speed 40.4 X
Track quality 100.0 %
Copy CRC 5CD7441F
Track not present in AccurateRip database
Copy OK


None of the tracks are present in the AccurateRip database

No errors occurred

End of status report

–– CUETools DB Plugin V2.1.6

[CTDB TOCID: OQwioPFYA6FZ4V0wD7w3N0R9FzA-] disk not present in database
Submit result: OQwioPFYA6FZ4V0wD7w3N0R9FzA- has been uploaded

Exact Audio Copy V1.3 from 2. September 2016

EAC extraction logfile from 25. September 2018, 11:48

Various / 101 Hits - Long Hot Summer - CD4

Used drive : ATAPI iHAS124 Y Adapter: 1 ID: 0

Read mode : Secure
Utilize accurate stream : Yes
Defeat audio cache : No
Make use of C2 pointers : Yes

Read offset correction : 48
Overread into Lead-In and Lead-Out : No
Fill up missing offset samples with silence : Yes
Delete leading and trailing silent blocks : No
Null samples used in CRC calculations : Yes
Used interface : Native Win32 interface for Win NT & 2000
Gap handling : Not detected, thus appended to previous track

Used output format : User Defined Encoder
Selected bitrate : 896 kBit/s
Quality : High
Add ID3 tag : No
Command line compressor : C:\Program Files (x86)\Exact Audio Copy\FLAC\FLAC.EXE
Additional command line options : -6 -V -T "ARTIST=%artist%" -T "TITLE=%title%" -T "ALBUM=%albumtitle%" -T "DATE=%year%" -T "TRACKNUMBER=%tracknr%" -T "GENRE=%genre%" -T "COMMENT=%comment%" -T "BAND=%albuminterpret%" -T "ALBUMARTIST=%albuminterpret%" -T "COMPOSER=%composer%" %haslyrics%–tag-from-file=LYRICS="%lyricsfile%"%haslyrics% -T "DISCNUMBER=%cdnumber%" -T "TOTALDISCS=%totalcds%" -T "TOTALTRACKS=%numtracks%" %hascover%–picture="%coverfile%"%hascover% %source% -o %dest%


TOC of the extracted CD

Track | Start | Length | Start sector | End sector
––––––––––––––––––––––––––––-
1 | 0:00.00 | 3:23.56 | 0 | 15280
2 | 3:23.56 | 3:12.32 | 15281 | 29712
3 | 6:36.13 | 3:06.70 | 29713 | 43732
4 | 9:43.08 | 3:12.05 | 43733 | 58137
5 | 12:55.13 | 3:15.21 | 58138 | 72783
6 | 16:10.34 | 3:49.23 | 72784 | 89981
7 | 19:59.57 | 4:23.51 | 89982 | 109757
8 | 24:23.33 | 4:23.70 | 109758 | 129552
9 | 28:47.28 | 3:45.00 | 129553 | 146427
10 | 32:32.28 | 4:27.02 | 146428 | 166454
11 | 36:59.30 | 3:23.41 | 166455 | 181720
12 | 40:22.71 | 4:04.21 | 181721 | 200041
13 | 44:27.17 | 3:41.54 | 200042 | 216670
14 | 48:08.71 | 3:41.59 | 216671 | 233304
15 | 51:50.55 | 3:01.34 | 233305 | 246913
16 | 54:52.14 | 3:40.47 | 246914 | 263460
17 | 58:32.61 | 3:05.09 | 263461 | 277344
18 | 61:37.70 | 3:58.52 | 277345 | 295246
19 | 65:36.47 | 4:07.19 | 295247 | 313790
20 | 69:43.66 | 4:10.54 | 313791 | 332594


Track 1

Filename A:\PsPBuRnOuT's MUSIC\SORTED BY YEAR\2000 PLUS\101 HITS - LONG HOT SUMMER\101 HITS - LONG HOT SUMMER - CD4\01.Stereophonics - Have A Nice Day.wav

Peak level 87.1 %
Extraction speed 14.9 X
Track quality 100.0 %
Copy CRC 7C8F33A4
Track not present in AccurateRip database
Copy OK

Track 2

Filename A:\PsPBuRnOuT's MUSIC\SORTED BY YEAR\2000 PLUS\101 HITS - LONG HOT SUMMER\101 HITS - LONG HOT SUMMER - CD4\02.The Bees - Chicken Payback.wav

Peak level 98.6 %
Extraction speed 19.9 X
Track quality 100.0 %
Copy CRC 4F805073
Track not present in AccurateRip database
Copy OK

Track 3

Filename A:\PsPBuRnOuT's MUSIC\SORTED BY YEAR\2000 PLUS\101 HITS - LONG HOT SUMMER\101 HITS - LONG HOT SUMMER - CD4\03.The Thrills - Big Sur.wav

Peak level 100.0 %
Extraction speed 21.4 X
Track quality 100.0 %
Copy CRC 3C2BF131
Track not present in AccurateRip database
Copy OK

Track 4

Filename A:\PsPBuRnOuT's MUSIC\SORTED BY YEAR\2000 PLUS\101 HITS - LONG HOT SUMMER\101 HITS - LONG HOT SUMMER - CD4\04.Dodgy - Staying Out For The Summer.wav

Peak level 95.3 %
Extraction speed 22.5 X
Track quality 100.0 %
Copy CRC 8B88A498
Track not present in AccurateRip database
Copy OK

Track 5

Filename A:\PsPBuRnOuT's MUSIC\SORTED BY YEAR\2000 PLUS\101 HITS - LONG HOT SUMMER\101 HITS - LONG HOT SUMMER - CD4\05.Empire Of The Sun - Walking On A Dream.wav

Peak level 88.7 %
Extraction speed 23.5 X
Track quality 100.0 %
Copy CRC E63193CA
Track not present in AccurateRip database
Copy OK

Track 6

Filename A:\PsPBuRnOuT's MUSIC\SORTED BY YEAR\2000 PLUS\101 HITS - LONG HOT SUMMER\101 HITS - LONG HOT SUMMER - CD4\06.Womack & Womack - Teardrops.wav

Peak level 96.2 %
Extraction speed 23.1 X
Track quality 100.0 %
Copy CRC 99126929
Track not present in AccurateRip database
Copy OK

Track 7

Filename A:\PsPBuRnOuT's MUSIC\SORTED BY YEAR\2000 PLUS\101 HITS - LONG HOT SUMMER\101 HITS - LONG HOT SUMMER - CD4\07.The Style Council - You're The Best Thing.wav

Peak level 96.2 %
Extraction speed 27.0 X
Track quality 100.0 %
Copy CRC 29E85EE6
Track not present in AccurateRip database
Copy OK

Track 8

Filename A:\PsPBuRnOuT's MUSIC\SORTED BY YEAR\2000 PLUS\101 HITS - LONG HOT SUMMER\101 HITS - LONG HOT SUMMER - CD4\08.Freak Power - Turn On, Tune In, Cop Out.wav

Peak level 97.7 %
Extraction speed 29.2 X
Track quality 100.0 %
Copy CRC F2FA4383
Track not present in AccurateRip database
Copy OK

Track 9

Filename A:\PsPBuRnOuT's MUSIC\SORTED BY YEAR\2000 PLUS\101 HITS - LONG HOT SUMMER\101 HITS - LONG HOT SUMMER - CD4\09.Crystal Waters - Gypsy Woman (La Da Dee La Da Da).wav

Peak level 100.0 %
Extraction speed 29.4 X
Track quality 100.0 %
Copy CRC AF0296E4
Track not present in AccurateRip database
Copy OK

Track 10

Filename A:\PsPBuRnOuT's MUSIC\SORTED BY YEAR\2000 PLUS\101 HITS - LONG HOT SUMMER\101 HITS - LONG HOT SUMMER - CD4\10.Yuri Buenaventura - Salsa.wav

Peak level 99.9 %
Extraction speed 26.5 X
Track quality 99.9 %
Copy CRC 4A2809D8
Track not present in AccurateRip database
Copy OK

Track 11

Filename A:\PsPBuRnOuT's MUSIC\SORTED BY YEAR\2000 PLUS\101 HITS - LONG HOT SUMMER\101 HITS - LONG HOT SUMMER - CD4\11.Stealers Wheel - Stuck In The Middle With You.wav

Peak level 96.2 %
Extraction speed 23.3 X
Track quality 100.0 %
Copy CRC E8B4BC7E
Track not present in AccurateRip database
Copy OK

Track 12

Filename A:\PsPBuRnOuT's MUSIC\SORTED BY YEAR\2000 PLUS\101 HITS - LONG HOT SUMMER\101 HITS - LONG HOT SUMMER - CD4\12.James - Sit Down.wav

Peak level 96.2 %
Extraction speed 32.5 X
Track quality 100.0 %
Copy CRC 358E1149
Track not present in AccurateRip database
Copy OK

Track 13

Filename A:\PsPBuRnOuT's MUSIC\SORTED BY YEAR\2000 PLUS\101 HITS - LONG HOT SUMMER\101 HITS - LONG HOT SUMMER - CD4\13.Professor Green Feat. Ed Drewett - I Need You Tonight.wav

Peak level 90.2 %
Extraction speed 33.3 X
Track quality 100.0 %
Copy CRC 9D8017B5
Track not present in AccurateRip database
Copy OK

Track 14

Filename A:\PsPBuRnOuT's MUSIC\SORTED BY YEAR\2000 PLUS\101 HITS - LONG HOT SUMMER\101 HITS - LONG HOT SUMMER - CD4\14.Roll Deep Feat. Jodie Connor - Good Times.wav

Peak level 79.9 %
Extraction speed 28.6 X
Track quality 99.9 %
Copy CRC 247136C4
Track not present in AccurateRip database
Copy OK

Track 15

Filename A:\PsPBuRnOuT's MUSIC\SORTED BY YEAR\2000 PLUS\101 HITS - LONG HOT SUMMER\101 HITS - LONG HOT SUMMER - CD4\15.Safri Duo - Played-A-Live (The Bongo Song).wav

Peak level 97.9 %
Extraction speed 26.5 X
Track quality 100.0 %
Copy CRC 99CB9742
Track not present in AccurateRip database
Copy OK

Track 16

Filename A:\PsPBuRnOuT's MUSIC\SORTED BY YEAR\2000 PLUS\101 HITS - LONG HOT SUMMER\101 HITS - LONG HOT SUMMER - CD4\16.Klangkarussell Feat. Will Heard - Sonnentanz (Sun Don't Shine).wav

Peak level 99.0 %
Extraction speed 36.2 X
Track quality 100.0 %
Copy CRC C68D1C22
Track not present in AccurateRip database
Copy OK

Track 17

Filename A:\PsPBuRnOuT's MUSIC\SORTED BY YEAR\2000 PLUS\101 HITS - LONG HOT SUMMER\101 HITS - LONG HOT SUMMER - CD4\17.Kelis - Milkshake.wav

Peak level 100.0 %
Extraction speed 35.8 X
Track quality 100.0 %
Copy CRC 58CD20CB
Track not present in AccurateRip database
Copy OK

Track 18

Filename A:\PsPBuRnOuT's MUSIC\SORTED BY YEAR\2000 PLUS\101 HITS - LONG HOT SUMMER\101 HITS - LONG HOT SUMMER - CD4\18.Lighthouse Family - Ocean Drive.wav

Peak level 100.0 %
Extraction speed 31.2 X
Track quality 99.9 %
Copy CRC EDEF4F5D
Track not present in AccurateRip database
Copy OK

Track 19

Filename A:\PsPBuRnOuT's MUSIC\SORTED BY YEAR\2000 PLUS\101 HITS - LONG HOT SUMMER\101 HITS - LONG HOT SUMMER - CD4\19.Incognito - Don't You Worry 'Bout A Thing.wav

Peak level 88.3 %
Extraction speed 29.8 X
Track quality 100.0 %
Copy CRC 756316A4
Track not present in AccurateRip database
Copy OK

Track 20

Filename A:\PsPBuRnOuT's MUSIC\SORTED BY YEAR\2000 PLUS\101 HITS - LONG HOT SUMMER\101 HITS - LONG HOT SUMMER - CD4\20.Gabrielle - Sunshine.wav

Peak level 98.8 %
Extraction speed 38.4 X
Track quality 100.0 %
Copy CRC F355CAC1
Track not present in AccurateRip database
Copy OK


None of the tracks are present in the AccurateRip database

No errors occurred

End of status report

–– CUETools DB Plugin V2.1.6

[CTDB TOCID: NDGfLtdzmU53CHYPZallezYxqw4-] disk not present in database
Submit result: NDGfLtdzmU53CHYPZallezYxqw4- has been uploaded

Exact Audio Copy V1.3 from 2. September 2016

EAC extraction logfile from 25. September 2018, 12:33

Various / 101 Hits - Long Hot Summer - CD5

Used drive : ATAPI iHAS124 Y Adapter: 1 ID: 0

Read mode : Secure
Utilize accurate stream : Yes
Defeat audio cache : No
Make use of C2 pointers : Yes

Read offset correction : 48
Overread into Lead-In and Lead-Out : No
Fill up missing offset samples with silence : Yes
Delete leading and trailing silent blocks : No
Null samples used in CRC calculations : Yes
Used interface : Native Win32 interface for Win NT & 2000
Gap handling : Not detected, thus appended to previous track

Used output format : User Defined Encoder
Selected bitrate : 896 kBit/s
Quality : High
Add ID3 tag : No
Command line compressor : C:\Program Files (x86)\Exact Audio Copy\FLAC\FLAC.EXE
Additional command line options : -6 -V -T "ARTIST=%artist%" -T "TITLE=%title%" -T "ALBUM=%albumtitle%" -T "DATE=%year%" -T "TRACKNUMBER=%tracknr%" -T "GENRE=%genre%" -T "COMMENT=%comment%" -T "BAND=%albuminterpret%" -T "ALBUMARTIST=%albuminterpret%" -T "COMPOSER=%composer%" %haslyrics%–tag-from-file=LYRICS="%lyricsfile%"%haslyrics% -T "DISCNUMBER=%cdnumber%" -T "TOTALDISCS=%totalcds%" -T "TOTALTRACKS=%numtracks%" %hascover%–picture="%coverfile%"%hascover% %source% -o %dest%


TOC of the extracted CD

Track | Start | Length | Start sector | End sector
––––––––––––––––––––––––––––-
1 | 0:00.00 | 2:55.27 | 0 | 13151
2 | 2:55.27 | 2:43.13 | 13152 | 25389
3 | 5:38.40 | 3:14.20 | 25390 | 39959
4 | 8:52.60 | 4:12.20 | 39960 | 58879
5 | 13:05.05 | 3:45.22 | 58880 | 75776
6 | 16:50.27 | 2:24.62 | 75777 | 86638
7 | 19:15.14 | 3:50.12 | 86639 | 103900
8 | 23:05.26 | 2:51.46 | 103901 | 116771
9 | 25:56.72 | 2:41.40 | 116772 | 128886
10 | 28:38.37 | 4:05.43 | 128887 | 147304
11 | 32:44.05 | 3:36.10 | 147305 | 163514
12 | 36:20.15 | 3:21.12 | 163515 | 178601
13 | 39:41.27 | 3:58.28 | 178602 | 196479
14 | 43:39.55 | 2:30.13 | 196480 | 207742
15 | 46:09.68 | 4:11.06 | 207743 | 226573
16 | 50:20.74 | 2:44.14 | 226574 | 238887
17 | 53:05.13 | 3:40.08 | 238888 | 255395
18 | 56:45.21 | 2:06.53 | 255396 | 264898
19 | 58:51.74 | 2:42.33 | 264899 | 277081
20 | 61:34.32 | 3:12.22 | 277082 | 291503


Track 1

Filename A:\PsPBuRnOuT's MUSIC\SORTED BY YEAR\2000 PLUS\101 HITS - LONG HOT SUMMER\101 HITS - LONG HOT SUMMER - CD5\01.Nina Simone - Feeling Good.wav

Peak level 83.8 %
Extraction speed 13.2 X
Track quality 100.0 %
Copy CRC 0140B495
Track not present in AccurateRip database
Copy OK

Track 2

Filename A:\PsPBuRnOuT's MUSIC\SORTED BY YEAR\2000 PLUS\101 HITS - LONG HOT SUMMER\101 HITS - LONG HOT SUMMER - CD5\02.Dinah Washington - Blue Skies.wav

Peak level 97.7 %
Extraction speed 15.7 X
Track quality 99.8 %
Copy CRC D8982C9D
Track not present in AccurateRip database
Copy OK

Track 3

Filename A:\PsPBuRnOuT's MUSIC\SORTED BY YEAR\2000 PLUS\101 HITS - LONG HOT SUMMER\101 HITS - LONG HOT SUMMER - CD5\03.Anita O'Day - Indian Summer.wav

Peak level 88.8 %
Extraction speed 15.3 X
Track quality 100.0 %
Copy CRC DDE46DF0
Track not present in AccurateRip database
Copy OK

Track 4

Filename A:\PsPBuRnOuT's MUSIC\SORTED BY YEAR\2000 PLUS\101 HITS - LONG HOT SUMMER\101 HITS - LONG HOT SUMMER - CD5\04.Chet Baker - Summertime.wav

Peak level 99.8 %
Extraction speed 21.3 X
Track quality 100.0 %
Copy CRC 47525515
Track not present in AccurateRip database
Copy OK

Track 5

Filename A:\PsPBuRnOuT's MUSIC\SORTED BY YEAR\2000 PLUS\101 HITS - LONG HOT SUMMER\101 HITS - LONG HOT SUMMER - CD5\05.Dorothy Ashby - Little Sunflower.wav

Peak level 100.0 %
Extraction speed 19.8 X
Track quality 99.9 %
Copy CRC 648E7446
Track not present in AccurateRip database
Copy OK

Track 6

Filename A:\PsPBuRnOuT's MUSIC\SORTED BY YEAR\2000 PLUS\101 HITS - LONG HOT SUMMER\101 HITS - LONG HOT SUMMER - CD5\06.Dusty Springfield - Son For A Preacher Man.wav

Peak level 97.7 %
Extraction speed 19.0 X
Track quality 100.0 %
Copy CRC 90BCB3B8
Track not present in AccurateRip database
Copy OK

Track 7

Filename A:\PsPBuRnOuT's MUSIC\SORTED BY YEAR\2000 PLUS\101 HITS - LONG HOT SUMMER\101 HITS - LONG HOT SUMMER - CD5\07.Ella Fitzgerald - Too Darn Hot.wav

Peak level 89.1 %
Extraction speed 25.7 X
Track quality 100.0 %
Copy CRC FA0B0C21
Track not present in AccurateRip database
Copy OK

Track 8

Filename A:\PsPBuRnOuT's MUSIC\SORTED BY YEAR\2000 PLUS\101 HITS - LONG HOT SUMMER\101 HITS - LONG HOT SUMMER - CD5\08.George Benson - Sunny.wav

Peak level 93.8 %
Extraction speed 25.8 X
Track quality 100.0 %
Copy CRC 85485DB7
Track not present in AccurateRip database
Copy OK

Track 9

Filename A:\PsPBuRnOuT's MUSIC\SORTED BY YEAR\2000 PLUS\101 HITS - LONG HOT SUMMER\101 HITS - LONG HOT SUMMER - CD5\09.Antonio Carlos Jobim - Caribe.wav

Peak level 94.3 %
Extraction speed 21.8 X
Track quality 99.8 %
Copy CRC F009E58A
Track not present in AccurateRip database
Copy OK

Track 10

Filename A:\PsPBuRnOuT's MUSIC\SORTED BY YEAR\2000 PLUS\101 HITS - LONG HOT SUMMER\101 HITS - LONG HOT SUMMER - CD5\10.J.J. Johnson & Kai Winding - Moonglow (Theme From Picnic).wav

Peak level 100.0 %
Extraction speed 23.1 X
Track quality 100.0 %
Copy CRC A8054D62
Track not present in AccurateRip database
Copy OK

Track 11

Filename A:\PsPBuRnOuT's MUSIC\SORTED BY YEAR\2000 PLUS\101 HITS - LONG HOT SUMMER\101 HITS - LONG HOT SUMMER - CD5\11.Jack Teagarden - Guess I'll Go Back Home This Summer.wav

Peak level 74.9 %
Extraction speed 30.2 X
Track quality 100.0 %
Copy CRC 096B04BF
Track not present in AccurateRip database
Copy OK

Track 12

Filename A:\PsPBuRnOuT's MUSIC\SORTED BY YEAR\2000 PLUS\101 HITS - LONG HOT SUMMER\101 HITS - LONG HOT SUMMER - CD5\12.Johnny Hartman - A Slow Hot Wind.wav

Peak level 91.8 %
Extraction speed 31.4 X
Track quality 100.0 %
Copy CRC D2E74547
Track not present in AccurateRip database
Copy OK

Track 13

Filename A:\PsPBuRnOuT's MUSIC\SORTED BY YEAR\2000 PLUS\101 HITS - LONG HOT SUMMER\101 HITS - LONG HOT SUMMER - CD5\13.Roy Ayers Ubiquity - Everybody Loves The Sunshine.wav

Peak level 69.8 %
Extraction speed 26.1 X
Track quality 99.9 %
Copy CRC 79A0938E
Track not present in AccurateRip database
Copy OK

Track 14

Filename A:\PsPBuRnOuT's MUSIC\SORTED BY YEAR\2000 PLUS\101 HITS - LONG HOT SUMMER\101 HITS - LONG HOT SUMMER - CD5\14.Sarah Vaughan - The Boy From Ipanema.wav

Peak level 87.4 %
Extraction speed 23.7 X
Track quality 100.0 %
Copy CRC 1D9E0CDA
Track not present in AccurateRip database
Copy OK

Track 15

Filename A:\PsPBuRnOuT's MUSIC\SORTED BY YEAR\2000 PLUS\101 HITS - LONG HOT SUMMER\101 HITS - LONG HOT SUMMER - CD5\15.Wynton Kelly Trio - South Seas.wav

Peak level 99.8 %
Extraction speed 27.7 X
Track quality 99.9 %
Copy CRC E10A45DF
Track not present in AccurateRip database
Copy OK

Track 16

Filename A:\PsPBuRnOuT's MUSIC\SORTED BY YEAR\2000 PLUS\101 HITS - LONG HOT SUMMER\101 HITS - LONG HOT SUMMER - CD5\16.Quincy Jones - Soul Bossa Nova.wav

Peak level 84.1 %
Extraction speed 25.1 X
Track quality 100.0 %
Copy CRC 8E3F8087
Track not present in AccurateRip database
Copy OK

Track 17

Filename A:\PsPBuRnOuT's MUSIC\SORTED BY YEAR\2000 PLUS\101 HITS - LONG HOT SUMMER\101 HITS - LONG HOT SUMMER - CD5\17.Paul Desmond - From The Hot Afternoon.wav

Peak level 98.8 %
Extraction speed 33.8 X
Track quality 100.0 %
Copy CRC A41885B4
Track not present in AccurateRip database
Copy OK

Track 18

Filename A:\PsPBuRnOuT's MUSIC\SORTED BY YEAR\2000 PLUS\101 HITS - LONG HOT SUMMER\101 HITS - LONG HOT SUMMER - CD5\18.The Tams - Be Young, Be Foolish, Be Happy.wav

Peak level 93.9 %
Extraction speed 33.6 X
Track quality 100.0 %
Copy CRC A4EF1334
Track not present in AccurateRip database
Copy OK

Track 19

Filename A:\PsPBuRnOuT's MUSIC\SORTED BY YEAR\2000 PLUS\101 HITS - LONG HOT SUMMER\101 HITS - LONG HOT SUMMER - CD5\19.Sergio Mendes & Brasil '66 - Mais Que Nada.wav

Peak level 77.5 %
Extraction speed 34.0 X
Track quality 100.0 %
Copy CRC ED6A598A
Track not present in AccurateRip database
Copy OK

Track 20

Filename A:\PsPBuRnOuT's MUSIC\SORTED BY YEAR\2000 PLUS\101 HITS - LONG HOT SUMMER\101 HITS - LONG HOT SUMMER - CD5\20.Stan Getz - The Shining Sea.wav

Peak level 94.3 %
Extraction speed 37.4 X
Track quality 100.0 %
Copy CRC D97E2E34
Track not present in AccurateRip database
Copy OK


None of the tracks are present in the AccurateRip database

No errors occurred

End of status report

–– CUETools DB Plugin V2.1.6

[CTDB TOCID: nHAySVTMOsMywK8tEEv7UXvogNM-] disk not present in database
Submit result: nHAySVTMOsMywK8tEEv7UXvogNM- has been uploaded