Tags
Language
Tags
April 2024
Su Mo Tu We Th Fr Sa
31 1 2 3 4 5 6
7 8 9 10 11 12 13
14 15 16 17 18 19 20
21 22 23 24 25 26 27
28 29 30 1 2 3 4

Various Artists - That's The Way I Feel Now: A Tribute To Thelonious Monk (1984) {A&M Records CD 6600}

Posted By: ruskaval
Various Artists - That's The Way I Feel Now: A Tribute To Thelonious Monk (1984) {A&M Records CD 6600}

Various Artists - That's The Way I Feel Now: A Tribute To Thelonious Monk (1984) {A&M Records CD 6600}
EAC rip (secure mode) | FLAC (tracks)+CUE+LOG -> 359 Mb | MP3 @320 -> 162 Mb
Full Artwork @ 300 dpi (jpg) -> 25 Mb | 5% repair rar
© 1984, 1991 A&M Records | CD 6600 | Audio Master Plus Series
Jazz / Post Bop / Progressive Jazz / Modern Jazz / Jazz Funk / Prog Rock / Soul / Soft Rock

Two years after the death of pianist-composer Thelonious Monk, this very unusual and quite memorable double-LP tribute was put together. Producer Hal Willner's most successful project, the 23 interpretations of Monk originals all feature a different group of all-star players and stretch beyond jazz. Some of the performances are fairly straightforward while others are quite eccentric; certainly the crazy duet on "Four in One" by altoist Gary Windo and Todd Rundgren (on synthesizers and drum machines) and the version of "Shuffle Boil" featuring John Zorn on game calls (imitating the sound of ducks) are quite unique. There are many colorful moments throughout the project and the roster of musicians is remarkable: Bobby McFerrin with Bob Dorough, Peter Frampton, Joe Jackson, Steve Lacy, Dr. John, Gil Evans, Randy Weston, Roswell Rudd, Eugene Chadbourne and Shockabilly, the Fowler Brothers, NRBQ, Steve Khan, Carla Bley, Barry Harris, Was (Not Was) and many others. There is not a slow moment or uninteresting selection on this highly recommended set.
Various Artists - That's The Way I Feel Now: A Tribute To Thelonious Monk (1984) {A&M Records CD 6600}


Musicians
Arrangements, Trombone Bruce Fowler
Trombone Phil Teele
Bass Tom Fowler
Drums Chester Thompson
Guitar Al Anderson
Piano Terry Adams
Bass Joey Spampinato
Drums Tom Ardolino
Trombone Donn Adams
Saxophone Keith Spring
Arrangements, Guitar Steve Khan
Arrangements, Synthesizer Donald Fagen
Arrangements, Piano Dr. John
Arrangements, Saxophone Steve Lacy
Arrangements, Saxophone Charlie Rouse
Arrangements, Guitar Mark Bingham
Guitar Brenden Harkein
Guitar John Scofield
Bass Steve Swallow
Drums Joey Baron
Arrangements, Celeste, Conductor, Horn Sharon Freeman
Horn Willie Ruff
Horn Vincent Chancey
Horn Bill Warnick
Piano Kenny Barron
Bass Buster Williams
Drums, Percussion Victor Lewis
Arrangements, Tack Piano Barry Harris
Arrangements (Brass), Guitar, Synthesizer Don Was
Flute David Was
Vocals Sheila Jordan
Trumpet Marcus Belgrave
Trombone Jervonny Collier
Saxophone Dave McMurray
Saxophone Michael Ward (saxophonist)
Percussion Larry Fratangelo
Vocals Sweet Pea Atkinson
Vocals Sir Harry Bowens
Vocals Carol Hall
Vocals Donald Ray Mitchell
Arrangements, Drum Machine, Guitar, Keyboards, Synthesizer Todd Rundgren
Arrangements, Saxophone Gary Windo
Arrangements, Piano Joe Jackson
Violin Jerry Little
Violin Melanie Baker
Violin Sandra Billingsles
Violin Karen Gilbert
Violin Cheryl Hong
Violin Stan Hunt
Viola Crystal Garner
Viola Maxine Roach
Cello Muneer Abdul Fataah
Cello Enrique Orango
Clarinet Lawrence Feldman
Clarinet Steve Slagle
Bass Clarinet Ken McIntyre
Bass Bob Cranshaw
Drums Ira "Buddy" Williams
Drums Elvin Jones
Arrangements, Guitar Chris Spedding
Guitar Peter Frampton
Bass Marcus Miller
Drums Anton Fig
Arrangements, Piano Randy Weston
Arrangements, Organ Carla Bley
Saxophone Johnny Griffin
Trumpet Michael Mantler
Trombone Gary Valente
Tuba Bob Stewart
Guitar Hiram Bullock
Piano Kenny Kirkland
Percussion Manolo Badrena
Vocals Hal Wilner
Arrangements, Electric Piano, Piano Gil Evans

Various Artists - That's The Way I Feel Now: A Tribute To Thelonious Monk (1984) {A&M Records CD 6600}


tracklist:
01 - Bruce Fowler - Thelonious
02 - NRBQ - Little Rootie Tootie
03 - Donald Fagen–Steve Khan - Reflections
04 - Dr John - Blue Monk
05 - Steve Lacy–Charlie Rouse - Ask Me Now
06 - Mark Bingham - Brilliant Corners
07 - Sharon Freeman - Monk's Mood
08 - Barry Harris - Pannonica
09 - Was (Not Was) - Ba-Lue-Bolivar-Ba-Lues-Are
10 - Todd Rundgren–Gary Windo - Four In One
11 - Joe Jackson - 'Round Midnight
12 - Steve Lacy–Elvin Jones - Evidence
13 - Chris Spedding–Peter Frampton - Work
14 - Randy Weston - Functional
15 - Carla Bley - Misterioso
16 - Steve Lacy–Gil Evans - Bemsha Swing

Exact Audio Copy V1.0 beta 3 from 29. August 2011

EAC extraction logfile from 21. June 2014, 17:16

Various Artists / That's The Way I Feel Now

Used drive : SONY DVD RW DRU-810A Adapter: 1 ID: 0

Read mode : Secure
Utilize accurate stream : Yes
Defeat audio cache : Yes
Make use of C2 pointers : No

Read offset correction : 618
Overread into Lead-In and Lead-Out : No
Fill up missing offset samples with silence : Yes
Delete leading and trailing silent blocks : No
Null samples used in CRC calculations : Yes
Used interface : Native Win32 interface for Win NT & 2000
Gap handling : Appended to previous track

Used output format : User Defined Encoder
Selected bitrate : 128 kBit/s
Quality : High
Add ID3 tag : No
Command line compressor : C:\Program Files (x86)\Exact Audio Copy\Flac\flac.exe
Additional command line options : -8 -V -T "ARTIST=%artist%" -T "TITLE=%title%" -T "ALBUM=%albumtitle%" -T "DATE=%year%" -T "TRACKNUMBER=%tracknr%" -T "TOTALTRACKS=%numtracks%" -T "GENRE=%genre%" -T "ALBUMARTIST=%albumartist%" -T "ALBUM ARTIST=%albumartist%" -T "COMMENT=EAC Secure Mode, Test & Copy, AccurateRip, FLAC -8" %source%


TOC of the extracted CD

Track | Start | Length | Start sector | End sector
––––––––––––––––––––––––––––-
1 | 0:00.32 | 0:46.58 | 32 | 3539
2 | 0:47.15 | 4:07.22 | 3540 | 22086
3 | 4:54.37 | 6:21.55 | 22087 | 50716
4 | 11:16.17 | 3:22.25 | 50717 | 65891
5 | 14:38.42 | 7:56.05 | 65892 | 101596
6 | 22:34.47 | 2:27.25 | 101597 | 112646
7 | 25:01.72 | 3:41.58 | 112647 | 129279
8 | 28:43.55 | 6:05.25 | 129280 | 156679
9 | 34:49.05 | 2:00.20 | 156680 | 165699
10 | 36:49.25 | 3:04.05 | 165700 | 179504
11 | 39:53.30 | 6:46.55 | 179505 | 210009
12 | 46:40.10 | 3:31.35 | 210010 | 225869
13 | 50:11.45 | 3:28.12 | 225870 | 241481
14 | 53:39.57 | 3:34.55 | 241482 | 257586
15 | 57:14.37 | 8:43.65 | 257587 | 296876
16 | 65:58.27 | 3:04.18 | 296877 | 310694


Track 1

Filename F:\New Rips\Various Artists - That's The Way I Feel Now (1984) [FLAC]\01 - Bruce Fowler - Thelonious.wav

Pre-gap length 0:00:02.32

Peak level 77.3 %
Extraction speed 3.0 X
Track quality 100.0 %
Test CRC 6BB15EA2
Copy CRC 6BB15EA2
Accurately ripped (confidence 6) [E9FCA54B] (AR v2)
Copy OK

Track 2

Filename F:\New Rips\Various Artists - That's The Way I Feel Now (1984) [FLAC]\02 - NRBQ - Little Rootie Tootie.wav

Peak level 100.0 %
Extraction speed 4.3 X
Track quality 99.9 %
Test CRC B3FA457C
Copy CRC B3FA457C
Accurately ripped (confidence 6) [9E8E9BAE] (AR v2)
Copy OK

Track 3

Filename F:\New Rips\Various Artists - That's The Way I Feel Now (1984) [FLAC]\03 - Donald Fagen–Steve Khan - Reflections.wav

Pre-gap length 0:00:00.40

Peak level 67.4 %
Extraction speed 5.9 X
Track quality 100.0 %
Test CRC 83C36D69
Copy CRC 83C36D69
Accurately ripped (confidence 6) [D9973EB6] (AR v2)
Copy OK

Track 4

Filename F:\New Rips\Various Artists - That's The Way I Feel Now (1984) [FLAC]\04 - Dr John - Blue Monk.wav

Pre-gap length 0:00:00.62

Peak level 65.9 %
Extraction speed 5.9 X
Track quality 100.0 %
Test CRC 229DDEAF
Copy CRC 229DDEAF
Accurately ripped (confidence 6) [5D2E9A5B] (AR v2)
Copy OK

Track 5

Filename F:\New Rips\Various Artists - That's The Way I Feel Now (1984) [FLAC]\05 - Steve Lacy–Charlie Rouse - Ask Me Now.wav

Pre-gap length 0:00:01.25

Peak level 67.5 %
Extraction speed 6.4 X
Track quality 99.9 %
Test CRC DB5B8AA9
Copy CRC DB5B8AA9
Accurately ripped (confidence 6) [46EF8C70] (AR v2)
Copy OK

Track 6

Filename F:\New Rips\Various Artists - That's The Way I Feel Now (1984) [FLAC]\06 - Mark Bingham - Brilliant Corners.wav

Pre-gap length 0:00:00.62

Peak level 100.0 %
Extraction speed 6.4 X
Track quality 100.0 %
Test CRC F478B984
Copy CRC F478B984
Accurately ripped (confidence 6) [F9E35997] (AR v2)
Copy OK

Track 7

Filename F:\New Rips\Various Artists - That's The Way I Feel Now (1984) [FLAC]\07 - Sharon Freeman - Monk's Mood.wav

Pre-gap length 0:00:01.27

Peak level 48.7 %
Extraction speed 5.9 X
Track quality 99.9 %
Test CRC FFEB14EF
Copy CRC FFEB14EF
Accurately ripped (confidence 6) [82BFC474] (AR v2)
Copy OK

Track 8

Filename F:\New Rips\Various Artists - That's The Way I Feel Now (1984) [FLAC]\08 - Barry Harris - Pannonica.wav

Pre-gap length 0:00:02.10

Peak level 69.2 %
Extraction speed 7.9 X
Track quality 100.0 %
Test CRC CC3365EA
Copy CRC CC3365EA
Accurately ripped (confidence 6) [8590B341] (AR v2)
Copy OK

Track 9

Filename F:\New Rips\Various Artists - That's The Way I Feel Now (1984) [FLAC]\09 - Was (Not Was) - Ba-Lue-Bolivar-Ba-Lues-Are.wav

Peak level 90.6 %
Extraction speed 6.8 X
Track quality 100.0 %
Test CRC 9C57A6F5
Copy CRC 9C57A6F5
Accurately ripped (confidence 6) [F281CB5A] (AR v2)
Copy OK

Track 10

Filename F:\New Rips\Various Artists - That's The Way I Feel Now (1984) [FLAC]\10 - Todd Rundgren–Gary Windo - Four In One.wav

Pre-gap length 0:00:00.25

Peak level 100.0 %
Extraction speed 7.6 X
Track quality 100.0 %
Test CRC 26D58A1F
Copy CRC 26D58A1F
Accurately ripped (confidence 6) [71DDEE24] (AR v2)
Copy OK

Track 11

Filename F:\New Rips\Various Artists - That's The Way I Feel Now (1984) [FLAC]\11 - Joe Jackson - 'Round Midnight.wav

Pre-gap length 0:00:01.38

Peak level 92.9 %
Extraction speed 8.7 X
Track quality 100.0 %
Test CRC 8E168DAD
Copy CRC 8E168DAD
Accurately ripped (confidence 6) [8FBBDD28] (AR v2)
Copy OK

Track 12

Filename F:\New Rips\Various Artists - That's The Way I Feel Now (1984) [FLAC]\12 - Steve Lacy–Elvin Jones - Evidence.wav

Peak level 88.0 %
Extraction speed 7.0 X
Track quality 99.9 %
Test CRC 3443E710
Copy CRC 3443E710
Accurately ripped (confidence 6) [675D2621] (AR v2)
Copy OK

Track 13

Filename F:\New Rips\Various Artists - That's The Way I Feel Now (1984) [FLAC]\13 - Chris Spedding–Peter Frampton - Work.wav

Peak level 100.0 %
Extraction speed 7.1 X
Track quality 99.9 %
Test CRC 1B761587
Copy CRC 1B761587
Accurately ripped (confidence 6) [F671FC55] (AR v2)
Copy OK

Track 14

Filename F:\New Rips\Various Artists - That's The Way I Feel Now (1984) [FLAC]\14 - Randy Weston - Functional.wav

Pre-gap length 0:00:01.37

Peak level 71.4 %
Extraction speed 8.8 X
Track quality 100.0 %
Test CRC D856C721
Copy CRC D856C721
Accurately ripped (confidence 6) [E88782B5] (AR v2)
Copy OK

Track 15

Filename F:\New Rips\Various Artists - That's The Way I Feel Now (1984) [FLAC]\15 - Carla Bley - Misterioso.wav

Peak level 100.0 %
Extraction speed 9.2 X
Track quality 99.9 %
Test CRC A7F32186
Copy CRC A7F32186
Accurately ripped (confidence 6) [8B0C68B1] (AR v2)
Copy OK

Track 16

Filename F:\New Rips\Various Artists - That's The Way I Feel Now (1984) [FLAC]\16 - Steve Lacy–Gil Evans - Bemsha Swing.wav

Pre-gap length 0:00:00.42

Peak level 55.0 %
Extraction speed 9.1 X
Track quality 100.0 %
Test CRC AC4FAF2C
Copy CRC AC4FAF2C
Accurately ripped (confidence 5) [A3A33778] (AR v2)
Copy OK


All tracks accurately ripped

No errors occurred

End of status report

==== Log checksum 729C0C49304C5AB4446AF338CD8AA3DF1D55C3665D263A0DCFAA81D0EE1EC6A1 ====


Various Artists - That's The Way I Feel Now: A Tribute To Thelonious Monk (1984) {A&M Records CD 6600}

Various Artists - That's The Way I Feel Now: A Tribute To Thelonious Monk (1984) {A&M Records CD 6600}



===