Subcategories
Tags
Language
Tags

Various Artists - Out Of Left Field: Where Soul Meets Country (2016) {Ace Records CDCHD 1464}

Posted By: ruskaval
Various Artists - Out Of Left Field: Where Soul Meets Country (2016) {Ace Records CDCHD 1464}

Various Artists - Out Of Left Field: Where Soul Meets Country (2016) {Ace Records CDCHD 1464}
EAC rip (secure mode) | FLAC (tracks) +CUE+LOG -> 421 Mb | MP3 @320 -> 168 Mb
Full Artwork @ 300 dpi (jpg) -> 49 Mb | 5% repair rar
© 2016 Ace Records | CDCHD 1464
Country / Soul

Not a set of country-styled soul music – as you might guess from the title – and instead a package that shows the undeniable influence that soul music songs had on the sound of country music in the 60s and 70s! The flipside of the scene has been well-documented on collections of western-tinged soul music we've stocked in the past – but this great set is the first we've ever heard to show the way that country singers were able to easily pick up hit soul songs of the time, then recraft them completely with a whole new sort of style!

The blue-tinged message of these tunes is universal – and has equally great power in the hands of these artists you might not identify with the tracks, but who really get their vibe, and go out of their way to rework the lyrics with different arrangements that help bring the music to a whole new audience. Titles include "Who's Making Love" by Daaron Lee, "He Made A Woman Out Of Me" by Jeanne C Riley, "Baby I'm Yours" by Tanya Tucker, "Only The Strong Survive" by Skeeter Davis, "I've Been Loving You Too Long" by Anita Carter, "You Don't Miss Your Water" by OB McClinton, "He Will Break Your Heart" by David Allen Coe, "Look At Them Beans" by Johnny Cash, "Pickin Wild Mountain Berries" by Loretta Lynn & Conway Twitty, "Dark End Of The Street" by The Kendalls, and "Scratch My Back" by Razzy Bailey.
Various Artists - Out Of Left Field: Where Soul Meets Country (2016) {Ace Records CDCHD 1464}

Ace spent three volumes chronicling country-soul, digging out the best country songs sung by soul singers. Their 2016 Out of Left Field: Where Soul Meets Country flips the equation, presenting 24 soul songs as sung by country singers. Compiler Tony Rounce doesn't limit himself to the '60s and '70s, commonly seen as the heyday of country-soul, which is to the collection's benefit; by having this extend all the way into 1993, it forces listeners to reckon with just how deeply the Southern sounds of country and soul are intertwined. Such an extensive time frame does mean that there's a great variety of production styles on display – Don Gibson's 1978 rendition of "Starting All Over Again" flirts with smooth soft rock, Chips Moman's precise '80s production takes the edge off of David Allan Coe, and Hank Jr.'s 1993 take on "Out of Left Field" has a digital gleam – but the strength of this collection is how the sensibility shines through the varying sounds. Throughout it all, these country singers – Bobby Bare, Waylon & Willie, Johnny Paycheck, Tanya Tucker, Jerry Reed, Conway & Loretta, and Johnny Cash are all featured – not only tackle R&B standards but are informed by soulful phrasing. While some of these singers always have shown a soulful edge – Ronnie Milsap is as good a blue-eyed soul singer as there is – the revelation of this wildly enjoyable collection is how both pure Nashville vocalists and outlaws drew lasting inspiration from soul.
Various Artists - Out Of Left Field: Where Soul Meets Country (2016) {Ace Records CDCHD 1464}


Ace Records INFO

Personnel & tracklist:
01 - Daaron Lee - Who's Making Love
02 - Jeannie C Riley - He Made A Woman Out Of Me
03 - Hank Williams Jr - Out Of Left Field
04 - Waylon Jennings & Willie Nelson - The Dock Of The Bay
05 - Anita Carter - I've Been Loving You Too Long
06 - Bobby Bare - Find Out What's Happening
07 - Skeeter Davis - Only The Strong Survive
08 - Jerry Reed - It Tears Me Up
09 - Linda Martell - Color Him Father
10 - Sonny James - When Something Is Wrong With My Baby
11 - Don Gibson - Starting All Over Again
12 - Johnny Paycheck - She's All I Got
13 - O. B. McClinton - You Don't Miss Your Water
14 - Freddy Fender - You'll Lose A Good Thing
15 - Archie Campbell & Lorene Mann - Warm And Tender Love
16 - Ronnie Milsap - Any Day Now
17 - Tanya Tucker - Baby I'm Yours
18 - Mel Street - I Found Someone Of My Own
19 - Conway Twitty & Loretta Lynn - Pickin' Wild Mountain Berries
20 - The Kendalls - Dark End Of The Street
21 - Razzy Bailey - Scratch My Back (And Whisper In My Ear)
22 - Billie Jo Spears - Do Right Woman Do Right Man
23 - David Allen Coe - He Will Break Your Heart
24 - Johnny Cash - Look At Them Beans

Exact Audio Copy V1.0 beta 6 from 9. April 2015

EAC extraction logfile from 27. February 2016, 22:56

Various Artists / Out Of Left Field: Where Soul Meets Country

Used drive : TSSTcorpCDDVDW SH-224BB Adapter: 1 ID: 0

Read mode : Secure
Utilize accurate stream : Yes
Defeat audio cache : Yes
Make use of C2 pointers : No

Read offset correction : 6
Overread into Lead-In and Lead-Out : No
Fill up missing offset samples with silence : Yes
Delete leading and trailing silent blocks : No
Null samples used in CRC calculations : Yes
Used interface : Native Win32 interface for Win NT & 2000
Gap handling : Appended to previous track

Used output format : User Defined Encoder
Selected bitrate : 768 kBit/s
Quality : High
Add ID3 tag : No
Command line compressor : C:\Program Files (x86)\Exact Audio Copy\Flac\flac.exe
Additional command line options : -8 -V -T "ARTIST=%artist%" -T "TITLE=%title%" -T "ALBUM=%albumtitle%" -T "DATE=%year%" -T "TRACKNUMBER=%tracknr%" -T "TOTALTRACKS=%numtracks%" -T "GENRE=%genre%" -T "ALBUMARTIST=%albumartist%" -T "ALBUM ARTIST=%albumartist%" -T "COMMENT=EAC Secure Mode, Test & Copy, AccurateRip, FLAC -8" %source%


TOC of the extracted CD

Track | Start | Length | Start sector | End sector
––––––––––––––––––––––––––––-
1 | 0:00.00 | 2:52.38 | 0 | 12937
2 | 2:52.38 | 2:15.57 | 12938 | 23119
3 | 5:08.20 | 3:50.45 | 23120 | 40414
4 | 8:58.65 | 3:23.64 | 40415 | 55703
5 | 12:22.54 | 2:21.39 | 55704 | 66317
6 | 14:44.18 | 2:14.66 | 66318 | 76433
7 | 16:59.09 | 2:35.10 | 76434 | 88068
8 | 19:34.19 | 2:45.30 | 88069 | 100473
9 | 22:19.49 | 2:40.48 | 100474 | 112521
10 | 25:00.22 | 3:03.32 | 112522 | 126278
11 | 28:03.54 | 2:55.45 | 126279 | 139448
12 | 30:59.24 | 2:55.29 | 139449 | 152602
13 | 33:54.53 | 2:48.01 | 152603 | 165203
14 | 36:42.54 | 2:52.63 | 165204 | 178166
15 | 39:35.42 | 3:09.29 | 178167 | 192370
16 | 42:44.71 | 3:41.07 | 192371 | 208952
17 | 46:26.03 | 3:35.49 | 208953 | 225126
18 | 50:01.52 | 3:02.08 | 225127 | 238784
19 | 53:03.60 | 2:36.53 | 238785 | 250537
20 | 55:40.38 | 2:57.22 | 250538 | 263834
21 | 58:37.60 | 3:23.46 | 263835 | 279105
22 | 62:01.31 | 2:35.35 | 279106 | 290765
23 | 64:36.66 | 4:01.41 | 290766 | 308881
24 | 68:38.32 | 2:59.16 | 308882 | 322322


Track 1

Filename C:\Rips\Various Artists - Out Of Left Field Where Soul Meets Country (2016) [FLAC]\Artwork\01 - Daaron Lee - Who's Making Love.wav

Pre-gap length 0:00:02.00

Peak level 95.1 %
Extraction speed 1.6 X
Track quality 100.0 %
Test CRC 8D9E6F12
Copy CRC 8D9E6F12
Track not present in AccurateRip database
Copy OK

Track 2

Filename C:\Rips\Various Artists - Out Of Left Field Where Soul Meets Country (2016) [FLAC]\Artwork\02 - Jeannie C Riley - He Made A Woman Out Of Me.wav

Pre-gap length 0:00:01.73

Peak level 95.2 %
Extraction speed 1.4 X
Track quality 99.9 %
Test CRC 3D7E1FC8
Copy CRC 3D7E1FC8
Track not present in AccurateRip database
Copy OK

Track 3

Filename C:\Rips\Various Artists - Out Of Left Field Where Soul Meets Country (2016) [FLAC]\Artwork\03 - Hank Williams Jr - Out Of Left Field.wav

Pre-gap length 0:00:02.47

Peak level 94.3 %
Extraction speed 2.0 X
Track quality 100.0 %
Test CRC C4049139
Copy CRC C4049139
Track not present in AccurateRip database
Copy OK

Track 4

Filename C:\Rips\Various Artists - Out Of Left Field Where Soul Meets Country (2016) [FLAC]\Artwork\04 - Waylon Jennings & Willie Nelson - The Dock Of The Bay.wav

Pre-gap length 0:00:03.04

Peak level 92.8 %
Extraction speed 1.7 X
Track quality 99.9 %
Test CRC FECE3B22
Copy CRC FECE3B22
Track not present in AccurateRip database
Copy OK

Track 5

Filename C:\Rips\Various Artists - Out Of Left Field Where Soul Meets Country (2016) [FLAC]\Artwork\05 - Anita Carter - I've Been Loving You Too Long.wav

Pre-gap length 0:00:02.32

Peak level 89.8 %
Extraction speed 2.0 X
Track quality 100.0 %
Test CRC 1F034AB6
Copy CRC 1F034AB6
Track not present in AccurateRip database
Copy OK

Track 6

Filename C:\Rips\Various Artists - Out Of Left Field Where Soul Meets Country (2016) [FLAC]\Artwork\06 - Bobby Bare - Find Out What's Happening.wav

Pre-gap length 0:00:02.48

Peak level 71.5 %
Extraction speed 2.0 X
Track quality 100.0 %
Test CRC 7B251516
Copy CRC 7B251516
Track not present in AccurateRip database
Copy OK

Track 7

Filename C:\Rips\Various Artists - Out Of Left Field Where Soul Meets Country (2016) [FLAC]\Artwork\07 - Skeeter Davis - Only The Strong Survive.wav

Pre-gap length 0:00:03.44

Peak level 86.9 %
Extraction speed 2.2 X
Track quality 100.0 %
Test CRC E7007F45
Copy CRC E7007F45
Track not present in AccurateRip database
Copy OK

Track 8

Filename C:\Rips\Various Artists - Out Of Left Field Where Soul Meets Country (2016) [FLAC]\Artwork\08 - Jerry Reed - It Tears Me Up.wav

Pre-gap length 0:00:02.11

Peak level 89.4 %
Extraction speed 2.3 X
Track quality 100.0 %
Test CRC 96969CEF
Copy CRC 96969CEF
Track not present in AccurateRip database
Copy OK

Track 9

Filename C:\Rips\Various Artists - Out Of Left Field Where Soul Meets Country (2016) [FLAC]\Artwork\09 - Linda Martell - Color Him Father.wav

Pre-gap length 0:00:01.14

Peak level 75.9 %
Extraction speed 1.5 X
Track quality 99.9 %
Test CRC 79D74A87
Copy CRC 79D74A87
Track not present in AccurateRip database
Copy OK

Track 10

Filename C:\Rips\Various Artists - Out Of Left Field Where Soul Meets Country (2016) [FLAC]\Artwork\10 - Sonny James - When Something Is Wrong With My Baby.wav

Pre-gap length 0:00:02.42

Peak level 96.6 %
Extraction speed 2.3 X
Track quality 100.0 %
Test CRC 2D60B7B2
Copy CRC 2D60B7B2
Track not present in AccurateRip database
Copy OK

Track 11

Filename C:\Rips\Various Artists - Out Of Left Field Where Soul Meets Country (2016) [FLAC]\Artwork\11 - Don Gibson - Starting All Over Again.wav

Pre-gap length 0:00:02.56

Peak level 91.2 %
Extraction speed 1.7 X
Track quality 99.9 %
Test CRC 51F9F32D
Copy CRC 51F9F32D
Track not present in AccurateRip database
Copy OK

Track 12

Filename C:\Rips\Various Artists - Out Of Left Field Where Soul Meets Country (2016) [FLAC]\Artwork\12 - Johnny Paycheck - She's All I Got.wav

Pre-gap length 0:00:02.24

Peak level 96.6 %
Extraction speed 2.6 X
Track quality 100.0 %
Test CRC C8FF8121
Copy CRC C8FF8121
Track not present in AccurateRip database
Copy OK

Track 13

Filename C:\Rips\Various Artists - Out Of Left Field Where Soul Meets Country (2016) [FLAC]\Artwork\13 - O. B. McClinton - You Don't Miss Your Water.wav

Pre-gap length 0:00:02.32

Peak level 96.6 %
Extraction speed 2.6 X
Track quality 100.0 %
Test CRC 2D86D84B
Copy CRC 2D86D84B
Track not present in AccurateRip database
Copy OK

Track 14

Filename C:\Rips\Various Artists - Out Of Left Field Where Soul Meets Country (2016) [FLAC]\Artwork\14 - Freddy Fender - You'll Lose A Good Thing.wav

Pre-gap length 0:00:02.19

Peak level 87.0 %
Extraction speed 2.8 X
Track quality 100.0 %
Test CRC 7CE6A87A
Copy CRC 7CE6A87A
Track not present in AccurateRip database
Copy OK

Track 15

Filename C:\Rips\Various Artists - Out Of Left Field Where Soul Meets Country (2016) [FLAC]\Artwork\15 - Archie Campbell & Lorene Mann - Warm And Tender Love.wav

Pre-gap length 0:00:02.73

Peak level 96.6 %
Extraction speed 2.9 X
Track quality 100.0 %
Test CRC 92D132C7
Copy CRC 92D132C7
Track not present in AccurateRip database
Copy OK

Track 16

Filename C:\Rips\Various Artists - Out Of Left Field Where Soul Meets Country (2016) [FLAC]\Artwork\16 - Ronnie Milsap - Any Day Now.wav

Pre-gap length 0:00:03.12

Peak level 96.6 %
Extraction speed 2.2 X
Track quality 99.9 %
Test CRC ED864645
Copy CRC ED864645
Track not present in AccurateRip database
Copy OK

Track 17

Filename C:\Rips\Various Artists - Out Of Left Field Where Soul Meets Country (2016) [FLAC]\Artwork\17 - Tanya Tucker - Baby I'm Yours.wav

Pre-gap length 0:00:02.17

Peak level 96.6 %
Extraction speed 3.1 X
Track quality 100.0 %
Test CRC 41AEC0E7
Copy CRC 41AEC0E7
Track not present in AccurateRip database
Copy OK

Track 18

Filename C:\Rips\Various Artists - Out Of Left Field Where Soul Meets Country (2016) [FLAC]\Artwork\18 - Mel Street - I Found Someone Of My Own.wav

Pre-gap length 0:00:03.19

Peak level 93.7 %
Extraction speed 3.1 X
Track quality 100.0 %
Test CRC B1F12B08
Copy CRC B1F12B08
Track not present in AccurateRip database
Copy OK

Track 19

Filename C:\Rips\Various Artists - Out Of Left Field Where Soul Meets Country (2016) [FLAC]\Artwork\19 - Conway Twitty & Loretta Lynn - Pickin' Wild Mountain Berries.wav

Pre-gap length 0:00:01.74

Peak level 96.6 %
Extraction speed 2.1 X
Track quality 99.9 %
Test CRC 86F87B6A
Copy CRC 86F87B6A
Track not present in AccurateRip database
Copy OK

Track 20

Filename C:\Rips\Various Artists - Out Of Left Field Where Soul Meets Country (2016) [FLAC]\Artwork\20 - The Kendalls - Dark End Of The Street.wav

Pre-gap length 0:00:02.74

Peak level 96.6 %
Extraction speed 2.2 X
Track quality 99.9 %
Test CRC 1DEA0F87
Copy CRC 1DEA0F87
Track not present in AccurateRip database
Copy OK

Track 21

Filename C:\Rips\Various Artists - Out Of Left Field Where Soul Meets Country (2016) [FLAC]\Artwork\21 - Razzy Bailey - Scratch My Back (And Whisper In My Ear).wav

Pre-gap length 0:00:03.39

Peak level 100.0 %
Extraction speed 3.4 X
Track quality 100.0 %
Test CRC A4ECAA4C
Copy CRC A4ECAA4C
Track not present in AccurateRip database
Copy OK

Track 22

Filename C:\Rips\Various Artists - Out Of Left Field Where Soul Meets Country (2016) [FLAC]\Artwork\22 - Billie Jo Spears - Do Right Woman Do Right Man.wav

Pre-gap length 0:00:02.48

Peak level 86.6 %
Extraction speed 3.3 X
Track quality 100.0 %
Test CRC A5CB9600
Copy CRC A5CB9600
Track not present in AccurateRip database
Copy OK

Track 23

Filename C:\Rips\Various Artists - Out Of Left Field Where Soul Meets Country (2016) [FLAC]\Artwork\23 - David Allen Coe - He Will Break Your Heart.wav

Pre-gap length 0:00:02.61

Peak level 99.9 %
Extraction speed 3.5 X
Track quality 100.0 %
Test CRC DA46315B
Copy CRC DA46315B
Track not present in AccurateRip database
Copy OK

Track 24

Filename C:\Rips\Various Artists - Out Of Left Field Where Soul Meets Country (2016) [FLAC]\Artwork\24 - Johnny Cash - Look At Them Beans.wav

Pre-gap length 0:00:03.21

Peak level 96.6 %
Extraction speed 3.5 X
Track quality 100.0 %
Test CRC 070502B3
Copy CRC 070502B3
Track not present in AccurateRip database
Copy OK


None of the tracks are present in the AccurateRip database

No errors occurred

End of status report

–– CUETools DB Plugin V2.1.6

[CTDB TOCID: FPTqpesryMHYMEpsymI7J6H0qIM-] disk not present in database
Submit result: FPTqpesryMHYMEpsymI7J6H0qIM- has been uploaded


==== Log checksum A2C8ABE5078B5BDB8EB7CBB51D0636664B860879AF807001E93B6DC520EDA6FD ====


Various Artists - Out Of Left Field: Where Soul Meets Country (2016) {Ace Records CDCHD 1464}

Various Artists - Out Of Left Field: Where Soul Meets Country (2016) {Ace Records CDCHD 1464}


see more Soul Meets Country Series…


===