Subcategories
Tags
Language
Tags

Tiken Jah Fakoly - Le Monde est chaud (2019)

Posted By: aasana
Tiken Jah Fakoly - Le Monde est chaud (2019)

Tiken Jah Fakoly - Le Monde est chaud (2019)
EAC Rip | FLAC (tracks+.cue+.log) & booklet | 44:34 min | 310 mb
World, Reggae | Label: Universal Music Division Barclay

Le reggaeman ivoirien Tiken Jah Fakoly publie un nouvel album, Le Monde est chaud enregistré cette fois-ci à Abidjan, comme un retour aux sources.

Avec Tiken Jah, on sait à quoi s’attendre : du reggae africain solide. Et quatre ans après Racines où il reprenait une dizaine de classiques du reggae, l’Ivoirien à la voix chaleureuse ouvre son nouvel album avec un duo, le second qu’il enregistre avec le rappeur marseillais Soprano après Ouvrez les frontières en 2007.

Le Monde est chaud donne son titre au disque, et le morceau dénonce l’inaction des gouvernements face à l’urgence de la situation mondiale. Une chanson ne changera pas le monde, mais ne vaut-il pas mieux dire les choses que de se laisser endormir par des ritournelles sans fond ?

Tiken Jah fait partie de ces artistes qui n’ont pas renoncé à utiliser la devise de Fela, "La musique est l’arme du futur". Tout au long des dix morceaux de ce disque engagé, il explore quelques sujets brûlants et termine par Écologie, histoire d’enfoncer le clou.

Tiken Jah a ouvert en 2017 le studio Radio libre à Abidjan dans le quartier de Yopougon, et c’est là, ainsi qu’à Dakar, au studio BNTH, qu’il a réalisé cet album, un retour sur le continent africain après Racines, enregistré à Kingston en Jamaïque. Le Monde est chaud est un disque puissant qui sait aussi être étonnant.

Ainsi Pourquoi nous fuyons, qui met en avant les désillusions attendant les candidats africains à l’exil dans les pays riches de la froide Europe. "Qui va mener la lutte à notre place ? (…) Tu vas chercher l’or, mais l’or est sous tes pieds (…) Là-bas c’est pas le paradis". Un discours éclairé par des cuivres scintillants et une rythmique forte, avec un fond de reggae roots mais de nombreuses traces de musique traditionnelle, dont un balafon proéminent sur Ça vole et Libya.

Kodjougou s’éloigne du modèle jamaïcain pour accélérer le tempo tandis que le final Écologie, avec ses guitares aériennes et ses chœurs féminins, est un dialogue avec la nature ("J’ai consulté le désert pour savoir ce qu’il en pensait, j’ai peur pour la nature, auriez-vous de bonnes nouvelles ?").

Loin des sirènes matérialistes, Tiken Jah ne se contente pas du mysticisme rasta. Quand il évoque le très haut sur Dieu nous attend, c’est pour ajouter "Nous, on attend Dieu". Si le duo avec Soprano permet d’envisager une ouverture vers le jeune public, cet album reste un disque à l’ancienne, avec des arrangements soignés et intemporels. Le disque d’un homme intègre, qui met son art au service de causes justes. Naïf ? Peut-être. Mais aussi salutaire.

01. Tiken Jah Fakoly - Le monde est chaud (3:29)
02. Tiken Jah Fakoly - Pourquoi nous fuyons (3:22)
03. Tiken Jah Fakoly - No no no (3:23)
04. Tiken Jah Fakoly - Libya (4:00)
05. Tiken Jah Fakoly - Ça vole (4:23)
06. Tiken Jah Fakoly - Dieu nous attend (4:05)
07. Tiken Jah Fakoly - Kungo (3:15)
08. Tiken Jah Fakoly - We Love Africa (3:29)
09. Tiken Jah Fakoly - Kodjougou (3:49)
10. Tiken Jah Fakoly - Ngomi (3:54)
11. Tiken Jah Fakoly - Rasta (3:34)
12. Tiken Jah Fakoly - Ecologie (3:51)

Exact Audio Copy V1.3 from 2. September 2016

EAC extraction logfile from 18. May 2019, 12:10

Unknown Artist / Unknown Title

Used drive : ASUS BW-16D1HT Adapter: 1 ID: 0

Read mode : Secure
Utilize accurate stream : Yes
Defeat audio cache : Yes
Make use of C2 pointers : No

Read offset correction : 6
Overread into Lead-In and Lead-Out : No
Fill up missing offset samples with silence : Yes
Delete leading and trailing silent blocks : No
Null samples used in CRC calculations : Yes
Used interface : Native Win32 interface for Win NT & 2000
Gap handling : Appended to previous track

Used output format : User Defined Encoder
Selected bitrate : 1024 kBit/s
Quality : High
Add ID3 tag : No
Command line compressor : C:\Program Files (x86)\Exact Audio Copy\Flac\flac.exe
Additional command line options : -8 -e -V -T "ARTIST=%artist%" -T "TITLE=%title%" -T "ALBUM=%albumtitle%" -T "DATE=%year%" -T "TRACKNUMBER=%tracknr%" -T "GENRE=%genre%" -T "PERFORMER=%albuminterpret%" -T "COMPOSER=%composer%" %haslyrics%–tag-from-file=LYRICS="%lyricsfile%"%haslyrics% -T "ALBUMARTIST=%albumartist%" -T "DISCNUMBER=%cdnumber%" -T "TOTALDISCS=%totalcds%" -T "TOTALTRACKS=%numtracks%" -T "COMMENT=%comment%" %source% -o %dest%


TOC of the extracted CD

Track | Start | Length | Start sector | End sector
––––––––––––––––––––––––––––-
1 | 0:00.00 | 3:30.10 | 0 | 15759
2 | 3:30.10 | 3:22.22 | 15760 | 30931
3 | 6:52.32 | 3:22.54 | 30932 | 46135
4 | 10:15.11 | 4:00.01 | 46136 | 64136
5 | 14:15.12 | 4:23.37 | 64137 | 83898
6 | 18:38.49 | 4:05.10 | 83899 | 102283
7 | 22:43.59 | 3:15.11 | 102284 | 116919
8 | 25:58.70 | 3:28.50 | 116920 | 132569
9 | 29:27.45 | 3:49.18 | 132570 | 149762
10 | 33:16.63 | 3:53.71 | 149763 | 167308
11 | 37:10.59 | 3:34.33 | 167309 | 183391
12 | 40:45.17 | 3:52.51 | 183392 | 200842


Track 1

Filename K:\Musique\Le Monde est chaud\01 - Track01.wav

Pre-gap length 0:00:02.00

Peak level 98.8 %
Extraction speed 3.6 X
Track quality 99.9 %
Test CRC 8E58D831
Copy CRC 8E58D831
Track not present in AccurateRip database
Copy OK

Track 2

Filename K:\Musique\Le Monde est chaud\02 - Track02.wav

Pre-gap length 0:00:01.94

Peak level 98.8 %
Extraction speed 4.8 X
Track quality 100.0 %
Test CRC 6A5624A5
Copy CRC 6A5624A5
Track not present in AccurateRip database
Copy OK

Track 3

Filename K:\Musique\Le Monde est chaud\03 - Track03.wav

Pre-gap length 0:00:01.32

Peak level 98.8 %
Extraction speed 5.2 X
Track quality 100.0 %
Test CRC EA2B594E
Copy CRC EA2B594E
Track not present in AccurateRip database
Copy OK

Track 4

Filename K:\Musique\Le Monde est chaud\04 - Track04.wav

Pre-gap length 0:00:01.16

Peak level 98.8 %
Extraction speed 4.7 X
Track quality 99.9 %
Test CRC 3BBABCA1
Copy CRC 3BBABCA1
Track not present in AccurateRip database
Copy OK

Track 5

Filename K:\Musique\Le Monde est chaud\05 - Track05.wav

Pre-gap length 0:00:01.73

Peak level 98.8 %
Extraction speed 6.2 X
Track quality 100.0 %
Test CRC 1A6A5679
Copy CRC 1A6A5679
Track not present in AccurateRip database
Copy OK

Track 6

Filename K:\Musique\Le Monde est chaud\06 - Track06.wav

Pre-gap length 0:00:02.73

Peak level 98.8 %
Extraction speed 6.6 X
Track quality 100.0 %
Test CRC C578F881
Copy CRC C578F881
Track not present in AccurateRip database
Copy OK

Track 7

Filename K:\Musique\Le Monde est chaud\07 - Track07.wav

Pre-gap length 0:00:01.93

Peak level 98.8 %
Extraction speed 6.6 X
Track quality 100.0 %
Test CRC EC161259
Copy CRC EC161259
Track not present in AccurateRip database
Copy OK

Track 8

Filename K:\Musique\Le Monde est chaud\08 - Track08.wav

Pre-gap length 0:00:01.41

Peak level 98.8 %
Extraction speed 7.0 X
Track quality 100.0 %
Test CRC 94059905
Copy CRC 94059905
Track not present in AccurateRip database
Copy OK

Track 9

Filename K:\Musique\Le Monde est chaud\09 - Track09.wav

Pre-gap length 0:00:02.82

Peak level 98.8 %
Extraction speed 7.4 X
Track quality 100.0 %
Test CRC 8B5DED68
Copy CRC 8B5DED68
Track not present in AccurateRip database
Copy OK

Track 10

Filename K:\Musique\Le Monde est chaud\10 - Track10.wav

Pre-gap length 0:00:01.97

Peak level 98.8 %
Extraction speed 7.6 X
Track quality 100.0 %
Test CRC 1FDDE41D
Copy CRC 1FDDE41D
Track not present in AccurateRip database
Copy OK

Track 11

Filename K:\Musique\Le Monde est chaud\11 - Track11.wav

Pre-gap length 0:00:03.38

Peak level 98.8 %
Extraction speed 6.3 X
Track quality 99.9 %
Test CRC 0D99C5E6
Copy CRC 0D99C5E6
Track not present in AccurateRip database
Copy OK

Track 12

Filename K:\Musique\Le Monde est chaud\12 - Track12.wav

Pre-gap length 0:00:00.62

Peak level 98.8 %
Extraction speed 8.0 X
Track quality 100.0 %
Test CRC 4E21BEA9
Copy CRC 4E21BEA9
Track not present in AccurateRip database
Copy OK


None of the tracks are present in the AccurateRip database

No errors occurred

End of status report

–– CUETools DB Plugin V2.1.6

[CTDB TOCID: nL6rF3Z6ACBGjxRCkF5ZJdooqBI-] disk not present in database
Submit result: nL6rF3Z6ACBGjxRCkF5ZJdooqBI- has been uploaded


==== Log checksum BA67C919C3BB375C25607C8DED0139BB4665B50D9967B59A1DD7017F45D25362 ====