Subcategories
Tags
Language
Tags

The Flaming Lips - Finally the Punk Rockers Are Taking Acid (2002)

Posted By: delpotro
The Flaming Lips - Finally the Punk Rockers Are Taking Acid (2002)

The Flaming Lips - Finally the Punk Rockers Are Taking Acid (2002)
EAC Rip | FLAC (tracks+log+.cue) - 1,5 Gb | MP3 CBR 320 kbps - 538 Mb | 03:54:50
Psychedelic Rock, Noise Rock | Label: Restless Records

Finally the Punk Rockers Are Taking Acid is a compilation album by The Flaming Lips, collecting their first three studio albums (Hear It Is, Oh My Gawd!!! and Telepathic Surgery) alongside their self-titled debut EP The Flaming Lips, and previously unreleased material and demo recordings. It is the first of two releases archiving the band's Restless Records releases, and is followed by The Day They Shot a Hole in the Jesus Egg.

Disc One contains all of the tracks from The Flaming Lips and Hear It Is (omitting the bonus track, "Summertime Blues," found on some releases of Hear It Is), plus four bonus tracks. The track list for this disc is misprinted, switching "Garden of Eyes/Forever is a Long Time" and "Scratchin' the Door."

Disc Two contains all of the tracks from Oh My Gawd!!! as well as five bonus tracks.

Disc Three contains all of the tracks from Telepathic Surgery as well as seven bonus tracks.
Tracklist:
Disc 1:
The Flaming Lips EP (1984)
01. Bag Full of Thoughts (5:39)
02. Out for a Walk (3:20)
03. Garden of Eyes/Forever Is a Long Time (5:29)
04. Scratchin' the Door (7:12)
05. My Own Planet (4:11)
Hear It Is (1986)
06. With You (3:39)
07. Unplugged (2:14)
08. Trains, Brains & Rain (3:39)
09. Jesus Shootin' Heroin (7:19)
10. Just Like Before (3:22)
11. She Is Death (4:05)]
12. Charlie Manson Blues (4:22)]
13. Man From Pakistan (3:59)
14. Godzilla Flick (4:06)]
15. Staring at Sound/With You (5:06)]
Bonus tracks
16. Killer on the Radio (2:57)
17. Batman Theme (1:46)
18. Anyway, Anyhow, Anywhere (2:30)
19. Handsome Johnny (2:57)
Total time: 1:17:52

Disc 2:
Oh My Gawd!!!… The Flaming Lips (1987)
01. Everything's Explodin' (4:44)
02. One Million Billionth of a Millisecond on a Sunday Morning (9:21)
03. Maximum Dream for Evil Knievel (2:51)
04. Can't Exist (2:48)
05. Ode to C.C. (Part I) (0:44)
06. The Ceiling Is Bendin' (3:45)
07. Prescription: Love (6:10)
08. Thanks to You (3:56)
09. Can't Stop the Spring (4:11)
10. Ode to C.C. (Part II) (1:50)
11. Love Yer Brain (7:43)
Bonus tracks
12. Groove Room (6:09)
13. Jesus Shootin' Heroin (7:05}
14. Trains, Brains & Rain (3:19)
15. Communication Breakdown (3:50)
16. One Million Billionth of a Millisecond on a Sunday Morning (Live) (9:12)
Total time: 1:17:38

Disc 3:
Telepathic Surgery (1989)
01. Drug Machine in Heaven (2:11)
02. Right Now (3:57)
03. Michael, Time to Wake Up (0:29)
04. Chrome Plated Suicide (5:43)
05. Hari-Krishna Stomp Wagon (3:47)
06. Miracle on 42nd St. (2:52)
07. Fryin' Up (2:44)
08. Hell's Angel's Cracker Factory (Edit) (3:02)
09. U.F.O. Story (6:39)
10. Redneck School of Technology (2:57)
11. Shaved Gorilla (2:56)
12. The Spontaneous Combustion of John (0:53)
13. Last Drop of Morning Dew (1:58)
14. Begs and Achin' (4:14)
Bonus tracks
15. Death Valley '69 (3:04)
16. Thank You (2:27)
17. Can't Stop the Spring (4:27)
18. Jesus Shooting Heroin (Live) (8:14)
19. My Own Planet (Live) (7:37)
20. After the Gold Rush (4:11)
21. Death Tripping at Sunrise (4:32)

Exact Audio Copy V1.1 from 23. June 2015

EAC extraction logfile from 30. November 2016, 20:11

The Flaming Lips / Finally the Punk Rockers Are Taking Acid

Used drive : HL-DT-STBDDVDRW GGC-H20L Adapter: 1 ID: 0

Read mode : Secure
Utilize accurate stream : Yes
Defeat audio cache : Yes
Make use of C2 pointers : No

Read offset correction : 667
Overread into Lead-In and Lead-Out : No
Fill up missing offset samples with silence : Yes
Delete leading and trailing silent blocks : No
Null samples used in CRC calculations : Yes
Used interface : Native Win32 interface for Win NT & 2000
Gap handling : Appended to previous track

Used output format : User Defined Encoder
Selected bitrate : 1024 kBit/s
Quality : High
Add ID3 tag : No
Command line compressor : C:\Program Files (x86)\Exact Audio Copy\Flac\flac.exe
Additional command line options : -8 -V -T "ARTIST=%artist%" -T "TITLE=%title%" -T "ALBUM=%albumtitle%" -T "DATE=%year%" -T "TRACKNUMBER=%tracknr%" -T "GENRE=%genre%" -T "PERFORMER=%albuminterpret%" -T "COMPOSER=%composer%" %haslyrics%–tag-from-file=LYRICS="%lyricsfile%"%haslyrics% -T "ALBUMARTIST=%albumartist%" -T "DISCNUMBER=%cdnumber%" -T "TOTALDISCS=%totalcds%" -T "TOTALTRACKS=%numtracks%" -T "COMMENT=%comment%" %source% -o %dest%


TOC of the extracted CD

Track | Start | Length | Start sector | End sector
––––––––––––––––––––––––––––-
1 | 0:00.00 | 5:39.53 | 0 | 25477
2 | 5:39.53 | 3:20.46 | 25478 | 40523
3 | 9:00.24 | 5:29.29 | 40524 | 65227
4 | 14:29.53 | 7:12.36 | 65228 | 97663
5 | 21:42.14 | 4:11.05 | 97664 | 116493
6 | 25:53.19 | 3:39.22 | 116494 | 132940
7 | 29:32.41 | 2:14.34 | 132941 | 143024
8 | 31:47.00 | 3:39.00 | 143025 | 159449
9 | 35:26.00 | 7:19.57 | 159450 | 192431
10 | 42:45.57 | 3:22.49 | 192432 | 207630
11 | 46:08.31 | 4:05.31 | 207631 | 226036
12 | 50:13.62 | 4:22.49 | 226037 | 245735
13 | 54:36.36 | 3:59.65 | 245736 | 263725
14 | 58:36.26 | 4:06.13 | 263726 | 282188
15 | 62:42.39 | 5:06.06 | 282189 | 305144
16 | 67:48.45 | 2:57.74 | 305145 | 318493
17 | 70:46.44 | 1:46.62 | 318494 | 326505
18 | 72:33.31 | 2:30.24 | 326506 | 337779
19 | 75:03.55 | 2:57.15 | 337780 | 351069


Track 1

Filename C:\audprojects\The Flaming Lips - Finally the Punk Rockers Are Taking Acid (2002) {REST73764}\The Flaming Lips - Finally the Punk Rockers Are Taking Acid (2002) [FLAC] {REST73764}\Disc 1\01 - Bag Full of Thoughts.wav

Pre-gap length 0:00:02.00

Peak level 84.2 %
Extraction speed 4.6 X
Track quality 100.0 %
Test CRC FD2FE7BE
Copy CRC FD2FE7BE
Accurately ripped (confidence 14) [1B7D0B04] (AR v2)
Copy OK

Track 2

Filename C:\audprojects\The Flaming Lips - Finally the Punk Rockers Are Taking Acid (2002) {REST73764}\The Flaming Lips - Finally the Punk Rockers Are Taking Acid (2002) [FLAC] {REST73764}\Disc 1\02 - Out for a Walk.wav

Peak level 83.4 %
Extraction speed 4.7 X
Track quality 100.0 %
Test CRC 559D14EB
Copy CRC 559D14EB
Accurately ripped (confidence 14) [1D68FFEC] (AR v2)
Copy OK

Track 3

Filename C:\audprojects\The Flaming Lips - Finally the Punk Rockers Are Taking Acid (2002) {REST73764}\The Flaming Lips - Finally the Punk Rockers Are Taking Acid (2002) [FLAC] {REST73764}\Disc 1\03 - Garden of Eyes-Forever Is a Long Time.wav

Peak level 82.6 %
Extraction speed 5.5 X
Track quality 100.0 %
Test CRC F881C5A7
Copy CRC F881C5A7
Accurately ripped (confidence 14) [0E60A0A0] (AR v2)
Copy OK

Track 4

Filename C:\audprojects\The Flaming Lips - Finally the Punk Rockers Are Taking Acid (2002) {REST73764}\The Flaming Lips - Finally the Punk Rockers Are Taking Acid (2002) [FLAC] {REST73764}\Disc 1\04 - Scratchin' the Door.wav

Peak level 83.5 %
Extraction speed 6.1 X
Track quality 100.0 %
Test CRC 3C570829
Copy CRC 3C570829
Accurately ripped (confidence 14) [55F55519] (AR v2)
Copy OK

Track 5

Filename C:\audprojects\The Flaming Lips - Finally the Punk Rockers Are Taking Acid (2002) {REST73764}\The Flaming Lips - Finally the Punk Rockers Are Taking Acid (2002) [FLAC] {REST73764}\Disc 1\05 - My Own Planet.wav

Peak level 90.0 %
Extraction speed 6.3 X
Track quality 100.0 %
Test CRC B64BC8FB
Copy CRC B64BC8FB
Accurately ripped (confidence 14) [8EC59501] (AR v2)
Copy OK

Track 6

Filename C:\audprojects\The Flaming Lips - Finally the Punk Rockers Are Taking Acid (2002) {REST73764}\The Flaming Lips - Finally the Punk Rockers Are Taking Acid (2002) [FLAC] {REST73764}\Disc 1\06 - With You.wav

Peak level 88.5 %
Extraction speed 6.4 X
Track quality 100.0 %
Test CRC B454A75C
Copy CRC B454A75C
Accurately ripped (confidence 14) [48CCE8A1] (AR v2)
Copy OK

Track 7

Filename C:\audprojects\The Flaming Lips - Finally the Punk Rockers Are Taking Acid (2002) {REST73764}\The Flaming Lips - Finally the Punk Rockers Are Taking Acid (2002) [FLAC] {REST73764}\Disc 1\07 - Unplugged.wav

Peak level 89.7 %
Extraction speed 4.5 X
Track quality 99.9 %
Test CRC 000BEC06
Copy CRC 000BEC06
Accurately ripped (confidence 14) [15000BED] (AR v2)
Copy OK

Track 8

Filename C:\audprojects\The Flaming Lips - Finally the Punk Rockers Are Taking Acid (2002) {REST73764}\The Flaming Lips - Finally the Punk Rockers Are Taking Acid (2002) [FLAC] {REST73764}\Disc 1\08 - Trains, Brains & Rain.wav

Peak level 89.9 %
Extraction speed 6.8 X
Track quality 100.0 %
Test CRC 83966E92
Copy CRC 83966E92
Accurately ripped (confidence 14) [C3CCE216] (AR v2)
Copy OK

Track 9

Filename C:\audprojects\The Flaming Lips - Finally the Punk Rockers Are Taking Acid (2002) {REST73764}\The Flaming Lips - Finally the Punk Rockers Are Taking Acid (2002) [FLAC] {REST73764}\Disc 1\09 - Jesus Shootin' Heroin.wav

Peak level 90.5 %
Extraction speed 7.8 X
Track quality 100.0 %
Test CRC B22BA652
Copy CRC B22BA652
Accurately ripped (confidence 14) [2BB69786] (AR v2)
Copy OK

Track 10

Filename C:\audprojects\The Flaming Lips - Finally the Punk Rockers Are Taking Acid (2002) {REST73764}\The Flaming Lips - Finally the Punk Rockers Are Taking Acid (2002) [FLAC] {REST73764}\Disc 1\10 - Just Like Before.wav

Peak level 89.8 %
Extraction speed 7.5 X
Track quality 100.0 %
Test CRC 1D42740A
Copy CRC 1D42740A
Accurately ripped (confidence 14) [76398669] (AR v2)
Copy OK

Track 11

Filename C:\audprojects\The Flaming Lips - Finally the Punk Rockers Are Taking Acid (2002) {REST73764}\The Flaming Lips - Finally the Punk Rockers Are Taking Acid (2002) [FLAC] {REST73764}\Disc 1\11 - She Is Death.wav

Peak level 89.3 %
Extraction speed 8.0 X
Track quality 100.0 %
Test CRC A4A1D146
Copy CRC A4A1D146
Accurately ripped (confidence 14) [6801DB3A] (AR v2)
Copy OK

Track 12

Filename C:\audprojects\The Flaming Lips - Finally the Punk Rockers Are Taking Acid (2002) {REST73764}\The Flaming Lips - Finally the Punk Rockers Are Taking Acid (2002) [FLAC] {REST73764}\Disc 1\12 - Charlie Manson Blues.wav

Peak level 90.0 %
Extraction speed 8.2 X
Track quality 100.0 %
Test CRC EC5EEB4C
Copy CRC EC5EEB4C
Accurately ripped (confidence 14) [B1F504C8] (AR v2)
Copy OK

Track 13

Filename C:\audprojects\The Flaming Lips - Finally the Punk Rockers Are Taking Acid (2002) {REST73764}\The Flaming Lips - Finally the Punk Rockers Are Taking Acid (2002) [FLAC] {REST73764}\Disc 1\13 - Man From Pakistan.wav

Peak level 90.0 %
Extraction speed 8.0 X
Track quality 100.0 %
Test CRC CEF8C576
Copy CRC CEF8C576
Accurately ripped (confidence 14) [614DAFDD] (AR v2)
Copy OK

Track 14

Filename C:\audprojects\The Flaming Lips - Finally the Punk Rockers Are Taking Acid (2002) {REST73764}\The Flaming Lips - Finally the Punk Rockers Are Taking Acid (2002) [FLAC] {REST73764}\Disc 1\14 - Godzilla Flick.wav

Peak level 90.2 %
Extraction speed 8.4 X
Track quality 100.0 %
Test CRC 5075BA6E
Copy CRC 5075BA6E
Accurately ripped (confidence 14) [CB5E21F9] (AR v2)
Copy OK

Track 15

Filename C:\audprojects\The Flaming Lips - Finally the Punk Rockers Are Taking Acid (2002) {REST73764}\The Flaming Lips - Finally the Punk Rockers Are Taking Acid (2002) [FLAC] {REST73764}\Disc 1\15 - Staring at Sound-With You.wav

Peak level 90.8 %
Extraction speed 7.2 X
Track quality 99.9 %
Test CRC 3A3D3F8A
Copy CRC 3A3D3F8A
Accurately ripped (confidence 14) [6E01D3C9] (AR v2)
Copy OK

Track 16

Filename C:\audprojects\The Flaming Lips - Finally the Punk Rockers Are Taking Acid (2002) {REST73764}\The Flaming Lips - Finally the Punk Rockers Are Taking Acid (2002) [FLAC] {REST73764}\Disc 1\16 - Killer on the Radio.wav

Peak level 89.1 %
Extraction speed 8.4 X
Track quality 100.0 %
Test CRC AF6C070A
Copy CRC AF6C070A
Accurately ripped (confidence 14) [64DD21B3] (AR v2)
Copy OK

Track 17

Filename C:\audprojects\The Flaming Lips - Finally the Punk Rockers Are Taking Acid (2002) {REST73764}\The Flaming Lips - Finally the Punk Rockers Are Taking Acid (2002) [FLAC] {REST73764}\Disc 1\17 - Batman Theme.wav

Peak level 90.0 %
Extraction speed 7.0 X
Track quality 100.0 %
Test CRC F9EDFB02
Copy CRC F9EDFB02
Accurately ripped (confidence 14) [AA6F4DE4] (AR v2)
Copy OK

Track 18

Filename C:\audprojects\The Flaming Lips - Finally the Punk Rockers Are Taking Acid (2002) {REST73764}\The Flaming Lips - Finally the Punk Rockers Are Taking Acid (2002) [FLAC] {REST73764}\Disc 1\18 - Anyway, Anyhow, Anywhere.wav

Peak level 89.9 %
Extraction speed 6.2 X
Track quality 100.0 %
Test CRC 06E92E8C
Copy CRC 06E92E8C
Accurately ripped (confidence 14) [5AEF377A] (AR v2)
Copy OK

Track 19

Filename C:\audprojects\The Flaming Lips - Finally the Punk Rockers Are Taking Acid (2002) {REST73764}\The Flaming Lips - Finally the Punk Rockers Are Taking Acid (2002) [FLAC] {REST73764}\Disc 1\19 - Handsome Johnny.wav

Peak level 89.6 %
Extraction speed 5.4 X
Track quality 100.0 %
Test CRC 862E4961
Copy CRC 862E4961
Accurately ripped (confidence 13) [C67F69E7] (AR v2)
Copy OK


All tracks accurately ripped

No errors occurred

End of status report

==== Log checksum 34DAA19269D91103B150BE7E9A2196A0C36B50E05A36BD4AB01A8E3FB00BF91C ====
Exact Audio Copy V1.1 from 23. June 2015

EAC extraction logfile from 30. November 2016, 20:53

The Flaming Lips / Finally the Punk Rockers Are Taking Acid

Used drive : HL-DT-STBDDVDRW GGC-H20L Adapter: 1 ID: 0

Read mode : Secure
Utilize accurate stream : Yes
Defeat audio cache : Yes
Make use of C2 pointers : No

Read offset correction : 667
Overread into Lead-In and Lead-Out : No
Fill up missing offset samples with silence : Yes
Delete leading and trailing silent blocks : No
Null samples used in CRC calculations : Yes
Used interface : Native Win32 interface for Win NT & 2000
Gap handling : Appended to previous track

Used output format : User Defined Encoder
Selected bitrate : 1024 kBit/s
Quality : High
Add ID3 tag : No
Command line compressor : C:\Program Files (x86)\Exact Audio Copy\Flac\flac.exe
Additional command line options : -8 -V -T "ARTIST=%artist%" -T "TITLE=%title%" -T "ALBUM=%albumtitle%" -T "DATE=%year%" -T "TRACKNUMBER=%tracknr%" -T "GENRE=%genre%" -T "PERFORMER=%albuminterpret%" -T "COMPOSER=%composer%" %haslyrics%–tag-from-file=LYRICS="%lyricsfile%"%haslyrics% -T "ALBUMARTIST=%albumartist%" -T "DISCNUMBER=%cdnumber%" -T "TOTALDISCS=%totalcds%" -T "TOTALTRACKS=%numtracks%" -T "COMMENT=%comment%" %source% -o %dest%


TOC of the extracted CD

Track | Start | Length | Start sector | End sector
––––––––––––––––––––––––––––-
1 | 0:00.00 | 4:44.44 | 0 | 21343
2 | 4:44.44 | 9:21.30 | 21344 | 63448
3 | 14:05.74 | 2:51.23 | 63449 | 76296
4 | 16:57.22 | 2:48.06 | 76297 | 88902
5 | 19:45.28 | 0:44.64 | 88903 | 92266
6 | 20:30.17 | 3:45.50 | 92267 | 109191
7 | 24:15.67 | 6:10.58 | 109192 | 136999
8 | 30:26.50 | 3:56.03 | 137000 | 154702
9 | 34:22.53 | 4:11.40 | 154703 | 173567
10 | 38:34.18 | 1:50.69 | 173568 | 181886
11 | 40:25.12 | 7:43.33 | 181887 | 216644
12 | 48:08.45 | 6:09.11 | 216645 | 244330
13 | 54:17.56 | 7:05.10 | 244331 | 276215
14 | 61:22.66 | 3:19.64 | 276216 | 291204
15 | 64:42.55 | 3:50.03 | 291205 | 308457
16 | 68:32.58 | 9:12.53 | 308458 | 349910


Track 1

Filename C:\audprojects\The Flaming Lips - Finally the Punk Rockers Are Taking Acid (2002) {REST73764}\The Flaming Lips - Finally the Punk Rockers Are Taking Acid (2002) [FLAC] {REST73764}\Disc 2\01 - Everything's Explodin'.wav

Pre-gap length 0:00:02.00

Peak level 96.0 %
Extraction speed 4.7 X
Track quality 100.0 %
Test CRC 9635E2EE
Copy CRC 9635E2EE
Accurately ripped (confidence 13) [F510F937] (AR v2)
Copy OK

Track 2

Filename C:\audprojects\The Flaming Lips - Finally the Punk Rockers Are Taking Acid (2002) {REST73764}\The Flaming Lips - Finally the Punk Rockers Are Taking Acid (2002) [FLAC] {REST73764}\Disc 2\02 - One Million Billionth of a Millisecond on a Sunday

Peak level 95.4 %
Extraction speed 5.2 X
Track quality 99.9 %
Test CRC 6982F30B
Copy CRC 6982F30B
Accurately ripped (confidence 13) [68698B29] (AR v2)
Copy OK

Track 3

Filename C:\audprojects\The Flaming Lips - Finally the Punk Rockers Are Taking Acid (2002) {REST73764}\The Flaming Lips - Finally the Punk Rockers Are Taking Acid (2002) [FLAC] {REST73764}\Disc 2\03 - Maximum Dream for Evil Knievel.wav

Peak level 96.5 %
Extraction speed 4.2 X
Track quality 99.9 %
Test CRC 5459797A
Copy CRC 5459797A
Accurately ripped (confidence 13) [DA526C92] (AR v2)
Copy OK

Track 4

Filename C:\audprojects\The Flaming Lips - Finally the Punk Rockers Are Taking Acid (2002) {REST73764}\The Flaming Lips - Finally the Punk Rockers Are Taking Acid (2002) [FLAC] {REST73764}\Disc 2\04 - Can't Exist.wav

Peak level 93.9 %
Extraction speed 5.7 X
Track quality 100.0 %
Test CRC 09B8249C
Copy CRC 09B8249C
Accurately ripped (confidence 13) [1A3D0713] (AR v2)
Copy OK

Track 5

Filename C:\audprojects\The Flaming Lips - Finally the Punk Rockers Are Taking Acid (2002) {REST73764}\The Flaming Lips - Finally the Punk Rockers Are Taking Acid (2002) [FLAC] {REST73764}\Disc 2\05 - Ode to C.C. (Part I).wav

Peak level 90.9 %
Extraction speed 3.7 X
Track quality 100.0 %
Test CRC 7599C7BF
Copy CRC 7599C7BF
Accurately ripped (confidence 13) [CA693B35] (AR v2)
Copy OK

Track 6

Filename C:\audprojects\The Flaming Lips - Finally the Punk Rockers Are Taking Acid (2002) {REST73764}\The Flaming Lips - Finally the Punk Rockers Are Taking Acid (2002) [FLAC] {REST73764}\Disc 2\06 - The Ceiling Is Bendin'.wav

Peak level 96.4 %
Extraction speed 6.1 X
Track quality 100.0 %
Test CRC 6A61AB55
Copy CRC 6A61AB55
Accurately ripped (confidence 13) [68DB255A] (AR v2)
Copy OK

Track 7

Filename C:\audprojects\The Flaming Lips - Finally the Punk Rockers Are Taking Acid (2002) {REST73764}\The Flaming Lips - Finally the Punk Rockers Are Taking Acid (2002) [FLAC] {REST73764}\Disc 2\07 - Prescription- Love.wav

Peak level 96.8 %
Extraction speed 6.9 X
Track quality 100.0 %
Test CRC E6295286
Copy CRC E6295286
Accurately ripped (confidence 13) [CE063DCB] (AR v2)
Copy OK

Track 8

Filename C:\audprojects\The Flaming Lips - Finally the Punk Rockers Are Taking Acid (2002) {REST73764}\The Flaming Lips - Finally the Punk Rockers Are Taking Acid (2002) [FLAC] {REST73764}\Disc 2\08 - Thanks to You.wav

Peak level 96.4 %
Extraction speed 5.7 X
Track quality 99.9 %
Test CRC FEE246C0
Copy CRC FEE246C0
Accurately ripped (confidence 13) [72858281] (AR v2)
Copy OK

Track 9

Filename C:\audprojects\The Flaming Lips - Finally the Punk Rockers Are Taking Acid (2002) {REST73764}\The Flaming Lips - Finally the Punk Rockers Are Taking Acid (2002) [FLAC] {REST73764}\Disc 2\09 - Can't Stop the Spring.wav

Peak level 96.9 %
Extraction speed 7.1 X
Track quality 100.0 %
Test CRC 092244E2
Copy CRC 092244E2
Accurately ripped (confidence 13) [1C6663D6] (AR v2)
Copy OK

Track 10

Filename C:\audprojects\The Flaming Lips - Finally the Punk Rockers Are Taking Acid (2002) {REST73764}\The Flaming Lips - Finally the Punk Rockers Are Taking Acid (2002) [FLAC] {REST73764}\Disc 2\10 - Ode to C.C. (Part II).wav

Peak level 91.8 %
Extraction speed 6.2 X
Track quality 100.0 %
Test CRC A738E012
Copy CRC A738E012
Accurately ripped (confidence 13) [9269863F] (AR v2)
Copy OK

Track 11

Filename C:\audprojects\The Flaming Lips - Finally the Punk Rockers Are Taking Acid (2002) {REST73764}\The Flaming Lips - Finally the Punk Rockers Are Taking Acid (2002) [FLAC] {REST73764}\Disc 2\11 - Love Yer Brain.wav

Peak level 96.5 %
Extraction speed 7.3 X
Track quality 99.9 %
Test CRC 5C4EACB0
Copy CRC 5C4EACB0
Accurately ripped (confidence 13) [44FC2424] (AR v2)
Copy OK

Track 12

Filename C:\audprojects\The Flaming Lips - Finally the Punk Rockers Are Taking Acid (2002) {REST73764}\The Flaming Lips - Finally the Punk Rockers Are Taking Acid (2002) [FLAC] {REST73764}\Disc 2\12 - Groove Room.wav

Peak level 97.0 %
Extraction speed 7.4 X
Track quality 99.9 %
Test CRC C02A611C
Copy CRC C02A611C
Accurately ripped (confidence 13) [A8DE8459] (AR v2)
Copy OK

Track 13

Filename C:\audprojects\The Flaming Lips - Finally the Punk Rockers Are Taking Acid (2002) {REST73764}\The Flaming Lips - Finally the Punk Rockers Are Taking Acid (2002) [FLAC] {REST73764}\Disc 2\13 - Jesus Shootin' Heroin.wav

Peak level 97.0 %
Extraction speed 9.0 X
Track quality 100.0 %
Test CRC 39A9B09F
Copy CRC 39A9B09F
Accurately ripped (confidence 13) [5F5F54D5] (AR v2)
Copy OK

Track 14

Filename C:\audprojects\The Flaming Lips - Finally the Punk Rockers Are Taking Acid (2002) {REST73764}\The Flaming Lips - Finally the Punk Rockers Are Taking Acid (2002) [FLAC] {REST73764}\Disc 2\14 - Trains, Brains & Rain.wav

Peak level 96.6 %
Extraction speed 6.6 X
Track quality 99.9 %
Test CRC 9523ABD9
Copy CRC 9523ABD9
Accurately ripped (confidence 13) [805605A5] (AR v2)
Copy OK

Track 15

Filename C:\audprojects\The Flaming Lips - Finally the Punk Rockers Are Taking Acid (2002) {REST73764}\The Flaming Lips - Finally the Punk Rockers Are Taking Acid (2002) [FLAC] {REST73764}\Disc 2\15 - Communication Breakdown.wav

Peak level 97.0 %
Extraction speed 7.1 X
Track quality 99.9 %
Test CRC 9144935C
Copy CRC 9144935C
Accurately ripped (confidence 13) [153FD931] (AR v2)
Copy OK

Track 16

Filename C:\audprojects\The Flaming Lips - Finally the Punk Rockers Are Taking Acid (2002) {REST73764}\The Flaming Lips - Finally the Punk Rockers Are Taking Acid (2002) [FLAC] {REST73764}\Disc 2\16 - One Million Billionth of a Millisecond on a Sunday

Peak level 95.1 %
Extraction speed 9.8 X
Track quality 100.0 %
Test CRC 37B0BC7A
Copy CRC 37B0BC7A
Accurately ripped (confidence 13) [998D4101] (AR v2)
Copy OK


All tracks accurately ripped

No errors occurred

End of status report

==== Log checksum A50D9FEBBD5D72217A82945A7AA0F3950A1A3D079AB8517EF6FB8822E844EF80 ====
Exact Audio Copy V1.1 from 23. June 2015

EAC extraction logfile from 30. November 2016, 21:41

The Flaming Lips / Finally the Punk Rockers Are Taking Acid

Used drive : HL-DT-STBDDVDRW GGC-H20L Adapter: 1 ID: 0

Read mode : Secure
Utilize accurate stream : Yes
Defeat audio cache : Yes
Make use of C2 pointers : No

Read offset correction : 667
Overread into Lead-In and Lead-Out : No
Fill up missing offset samples with silence : Yes
Delete leading and trailing silent blocks : No
Null samples used in CRC calculations : Yes
Used interface : Native Win32 interface for Win NT & 2000
Gap handling : Appended to previous track

Used output format : User Defined Encoder
Selected bitrate : 1024 kBit/s
Quality : High
Add ID3 tag : No
Command line compressor : C:\Program Files (x86)\Exact Audio Copy\Flac\flac.exe
Additional command line options : -8 -V -T "ARTIST=%artist%" -T "TITLE=%title%" -T "ALBUM=%albumtitle%" -T "DATE=%year%" -T "TRACKNUMBER=%tracknr%" -T "GENRE=%genre%" -T "PERFORMER=%albuminterpret%" -T "COMPOSER=%composer%" %haslyrics%–tag-from-file=LYRICS="%lyricsfile%"%haslyrics% -T "ALBUMARTIST=%albumartist%" -T "DISCNUMBER=%cdnumber%" -T "TOTALDISCS=%totalcds%" -T "TOTALTRACKS=%numtracks%" -T "COMMENT=%comment%" %source% -o %dest%


TOC of the extracted CD

Track | Start | Length | Start sector | End sector
––––––––––––––––––––––––––––-
1 | 0:00.00 | 2:11.47 | 0 | 9871
2 | 2:11.47 | 3:57.09 | 9872 | 27655
3 | 6:08.56 | 0:29.45 | 27656 | 29875
4 | 6:38.26 | 5:43.04 | 29876 | 55604
5 | 12:21.30 | 3:47.17 | 55605 | 72646
6 | 16:08.47 | 2:52.16 | 72647 | 85562
7 | 19:00.63 | 2:44.68 | 85563 | 97930
8 | 21:45.56 | 3:02.09 | 97931 | 111589
9 | 24:47.65 | 6:39.62 | 111590 | 141576
10 | 31:27.52 | 2:57.17 | 141577 | 154868
11 | 34:24.69 | 2:56.24 | 154869 | 168092
12 | 37:21.18 | 0:53.05 | 168093 | 172072
13 | 38:14.23 | 1:58.62 | 172073 | 180984
14 | 40:13.10 | 4:14.55 | 180985 | 200089
15 | 44:27.65 | 3:04.30 | 200090 | 213919
16 | 47:32.20 | 2:27.45 | 213920 | 224989
17 | 49:59.65 | 4:27.02 | 224990 | 245016
18 | 54:26.67 | 8:14.57 | 245017 | 282123
19 | 62:41.49 | 7:37.48 | 282124 | 316446
20 | 70:19.22 | 4:11.68 | 316447 | 335339
21 | 74:31.15 | 4:32.37 | 335340 | 355776


Track 1

Filename C:\audprojects\The Flaming Lips - Finally the Punk Rockers Are Taking Acid (2002)\The Flaming Lips - Finally the Punk Rockers Are Taking Acid (2002) [FLAC] {REST73764}\Disc 3\01 - Drug Machine in Heaven.wav

Pre-gap length 0:00:02.00

Peak level 90.1 %
Extraction speed 4.0 X
Track quality 100.0 %
Test CRC FC057719
Copy CRC FC057719
Accurately ripped (confidence 12) [713F2C04] (AR v2)
Copy OK

Track 2

Filename C:\audprojects\The Flaming Lips - Finally the Punk Rockers Are Taking Acid (2002)\The Flaming Lips - Finally the Punk Rockers Are Taking Acid (2002) [FLAC] {REST73764}\Disc 3\02 - Right Now.wav

Peak level 91.2 %
Extraction speed 4.6 X
Track quality 100.0 %
Test CRC BABF238B
Copy CRC BABF238B
Accurately ripped (confidence 12) [8A260582] (AR v2)
Copy OK

Track 3

Filename C:\audprojects\The Flaming Lips - Finally the Punk Rockers Are Taking Acid (2002)\The Flaming Lips - Finally the Punk Rockers Are Taking Acid (2002) [FLAC] {REST73764}\Disc 3\03 - Michael, Time to Wake Up.wav

Peak level 78.3 %
Extraction speed 2.3 X
Track quality 100.0 %
Test CRC 456CF3FD
Copy CRC 456CF3FD
Accurately ripped (confidence 12) [A0971ADC] (AR v2)
Copy OK

Track 4

Filename C:\audprojects\The Flaming Lips - Finally the Punk Rockers Are Taking Acid (2002)\The Flaming Lips - Finally the Punk Rockers Are Taking Acid (2002) [FLAC] {REST73764}\Disc 3\04 - Chrome Plated Suicide.wav

Peak level 91.0 %
Extraction speed 5.3 X
Track quality 100.0 %
Test CRC 556A4591
Copy CRC 556A4591
Accurately ripped (confidence 12) [4E1A9509] (AR v2)
Copy OK

Track 5

Filename C:\audprojects\The Flaming Lips - Finally the Punk Rockers Are Taking Acid (2002)\The Flaming Lips - Finally the Punk Rockers Are Taking Acid (2002) [FLAC] {REST73764}\Disc 3\05 - Hari-Krishna Stomp Wagon.wav

Peak level 91.9 %
Extraction speed 5.4 X
Track quality 100.0 %
Test CRC EB617283
Copy CRC EB617283
Accurately ripped (confidence 12) [268B203F] (AR v2)
Copy OK

Track 6

Filename C:\audprojects\The Flaming Lips - Finally the Punk Rockers Are Taking Acid (2002)\The Flaming Lips - Finally the Punk Rockers Are Taking Acid (2002) [FLAC] {REST73764}\Disc 3\06 - Miracle on 42nd St..wav

Peak level 43.3 %
Extraction speed 5.3 X
Track quality 100.0 %
Test CRC 64984C92
Copy CRC 64984C92
Accurately ripped (confidence 12) [92542CB0] (AR v2)
Copy OK

Track 7

Filename C:\audprojects\The Flaming Lips - Finally the Punk Rockers Are Taking Acid (2002)\The Flaming Lips - Finally the Punk Rockers Are Taking Acid (2002) [FLAC] {REST73764}\Disc 3\07 - Fryin' Up.wav

Peak level 92.5 %
Extraction speed 3.3 X
Track quality 100.0 %
Test CRC 8F3B6762
Copy CRC 8F3B6762
Accurately ripped (confidence 12) [266A5E8D] (AR v2)
Copy OK

Track 8

Filename C:\audprojects\The Flaming Lips - Finally the Punk Rockers Are Taking Acid (2002)\The Flaming Lips - Finally the Punk Rockers Are Taking Acid (2002) [FLAC] {REST73764}\Disc 3\08 - Hell's Angel's Cracker Factory (Edit).wav

Peak level 92.9 %
Extraction speed 3.5 X
Track quality 100.0 %
Test CRC 34CEF5B3
Copy CRC 34CEF5B3
Accurately ripped (confidence 12) [A2881599] (AR v2)
Copy OK

Track 9

Filename C:\audprojects\The Flaming Lips - Finally the Punk Rockers Are Taking Acid (2002)\The Flaming Lips - Finally the Punk Rockers Are Taking Acid (2002) [FLAC] {REST73764}\Disc 3\09 - U.F.O. Story.wav

Peak level 91.4 %
Extraction speed 7.1 X
Track quality 100.0 %
Test CRC 833D38B2
Copy CRC 833D38B2
Accurately ripped (confidence 12) [9559A657] (AR v2)
Copy OK

Track 10

Filename C:\audprojects\The Flaming Lips - Finally the Punk Rockers Are Taking Acid (2002)\The Flaming Lips - Finally the Punk Rockers Are Taking Acid (2002) [FLAC] {REST73764}\Disc 3\10 - Redneck School of Technology.wav

Peak level 89.7 %
Extraction speed 3.9 X
Track quality 100.0 %
Test CRC 5BDDA85A
Copy CRC 5BDDA85A
Accurately ripped (confidence 12) [FDB271E0] (AR v2)
Copy OK

Track 11

Filename C:\audprojects\The Flaming Lips - Finally the Punk Rockers Are Taking Acid (2002)\The Flaming Lips - Finally the Punk Rockers Are Taking Acid (2002) [FLAC] {REST73764}\Disc 3\11 - Shaved Gorilla.wav

Peak level 87.4 %
Extraction speed 3.9 X
Track quality 100.0 %
Test CRC CB243E8A
Copy CRC CB243E8A
Accurately ripped (confidence 12) [FFBAE93F] (AR v2)
Copy OK

Track 12

Filename C:\audprojects\The Flaming Lips - Finally the Punk Rockers Are Taking Acid (2002)\The Flaming Lips - Finally the Punk Rockers Are Taking Acid (2002) [FLAC] {REST73764}\Disc 3\12 - The Spontaneous Combustion of John.wav

Peak level 57.4 %
Extraction speed 2.8 X
Track quality 100.0 %
Test CRC 5DB270A6
Copy CRC 5DB270A6
Accurately ripped (confidence 12) [D54E24A5] (AR v2)
Copy OK

Track 13

Filename C:\audprojects\The Flaming Lips - Finally the Punk Rockers Are Taking Acid (2002)\The Flaming Lips - Finally the Punk Rockers Are Taking Acid (2002) [FLAC] {REST73764}\Disc 3\13 - Last Drop of Morning Dew.wav

Peak level 83.2 %
Extraction speed 3.1 X
Track quality 99.9 %
Test CRC BE7B081A
Copy CRC BE7B081A
Accurately ripped (confidence 12) [F49F3946] (AR v2)
Copy OK

Track 14

Filename C:\audprojects\The Flaming Lips - Finally the Punk Rockers Are Taking Acid (2002)\The Flaming Lips - Finally the Punk Rockers Are Taking Acid (2002) [FLAC] {REST73764}\Disc 3\14 - Begs and Achin'.wav

Peak level 92.1 %
Extraction speed 4.6 X
Track quality 100.0 %
Test CRC 657AA4A2
Copy CRC 657AA4A2
Accurately ripped (confidence 12) [AD800979] (AR v2)
Copy OK

Track 15

Filename C:\audprojects\The Flaming Lips - Finally the Punk Rockers Are Taking Acid (2002)\The Flaming Lips - Finally the Punk Rockers Are Taking Acid (2002) [FLAC] {REST73764}\Disc 3\15 - Death Valley '69.wav

Peak level 87.2 %
Extraction speed 4.5 X
Track quality 100.0 %
Test CRC 1E7D0D73
Copy CRC 1E7D0D73
Accurately ripped (confidence 12) [3AD2D827] (AR v2)
Copy OK

Track 16

Filename C:\audprojects\The Flaming Lips - Finally the Punk Rockers Are Taking Acid (2002)\The Flaming Lips - Finally the Punk Rockers Are Taking Acid (2002) [FLAC] {REST73764}\Disc 3\16 - Thank You.wav

Peak level 87.1 %
Extraction speed 4.2 X
Track quality 100.0 %
Test CRC 6894A6A0
Copy CRC 6894A6A0
Accurately ripped (confidence 12) [CEF77143] (AR v2)
Copy OK

Track 17

Filename C:\audprojects\The Flaming Lips - Finally the Punk Rockers Are Taking Acid (2002)\The Flaming Lips - Finally the Punk Rockers Are Taking Acid (2002) [FLAC] {REST73764}\Disc 3\17 - Can't Stop the Spring (Remix).wav

Peak level 96.4 %
Extraction speed 8.2 X
Track quality 100.0 %
Test CRC CA1C9457
Copy CRC CA1C9457
Accurately ripped (confidence 12) [EA19CD56] (AR v2)
Copy OK

Track 18

Filename C:\audprojects\The Flaming Lips - Finally the Punk Rockers Are Taking Acid (2002)\The Flaming Lips - Finally the Punk Rockers Are Taking Acid (2002) [FLAC] {REST73764}\Disc 3\18 - Jesus Shooting Heroin (Live).wav

Peak level 96.0 %
Extraction speed 9.1 X
Track quality 100.0 %
Test CRC AA0EF957
Copy CRC AA0EF957
Accurately ripped (confidence 12) [D7916571] (AR v2)
Copy OK

Track 19

Filename C:\audprojects\The Flaming Lips - Finally the Punk Rockers Are Taking Acid (2002)\The Flaming Lips - Finally the Punk Rockers Are Taking Acid (2002) [FLAC] {REST73764}\Disc 3\19 - My Own Planet (Live).wav

Peak level 94.9 %
Extraction speed 5.8 X
Track quality 100.0 %
Test CRC 37CFD49B
Copy CRC 37CFD49B
Accurately ripped (confidence 12) [9B6773F0] (AR v2)
Copy OK

Track 20

Filename C:\audprojects\The Flaming Lips - Finally the Punk Rockers Are Taking Acid (2002)\The Flaming Lips - Finally the Punk Rockers Are Taking Acid (2002) [FLAC] {REST73764}\Disc 3\20 - After the Gold Rush.wav

Peak level 97.0 %
Extraction speed 5.4 X
Track quality 100.0 %
Test CRC 75570367
Copy CRC 75570367
Accurately ripped (confidence 12) [5671066E] (AR v2)
Copy OK

Track 21

Filename C:\audprojects\The Flaming Lips - Finally the Punk Rockers Are Taking Acid (2002)\The Flaming Lips - Finally the Punk Rockers Are Taking Acid (2002) [FLAC] {REST73764}\Disc 3\21 - Death Tripping at Sunrise.wav

Peak level 88.6 %
Extraction speed 5.8 X
Track quality 100.0 %
Test CRC 1E6BEC7D
Copy CRC 1E6BEC7D
Accurately ripped (confidence 11) [4244361D] (AR v2)
Copy OK


All tracks accurately ripped

No errors occurred

End of status report

==== Log checksum 7506C6A8B2ABA6519EE2064E2CC419F52485887549F801296101A8125A6A88D6 ====

Thanks to the Original ripper !