Subcategories

The Jimi Hendrix Experience - Winterland (1968/2011) [Single CD + 4CD Box Set + Amazon Exclusive CD] RE-UPPED

Posted By: Shar'EmAll
The Jimi Hendrix Experience - Winterland (1968/2011) [Single CD + 4CD Box Set + Amazon Exclusive CD] RE-UPPED

The Jimi Hendrix Experience - Winterland (1968/2011) [Single CD + 4CD Box Set + Amazon Exclusive CD]
6x EAC Rips | FLAC(tracks)+CUEs+LOGs > 2,36 GB | Full Covers & Book | MP3 CBR 320 Kbps > 893 MB
Rock / Classic Rock | 387:14 minutes | Label: Experience Hendrix / Legacy | Cat. # 88697936182 / 88697953752 / 88697953832

Winterland is drawn from six stellar shows recorded over three days (October 10, 11 and 12, 1968) at San Francisco's historic Winterland Ballroom. These special performances celebrated the two year anniversary of the Jimi Hendrix Experience and came just as the groundbreaking album Electric Ladyland was released. This publication includes The Single-CD edition - with a "highlights" from these shows (The new standard and deluxe editions of Winterland are markedly different from a single disc compilation, long out of print, that was briefly issued by Rykodisc in 1987 and 1988); The complete four-disc boxset, and another bonus CD - with an Amazon Exclusive disc.

Winterland presents some of Hendrix s most spectacular guitar work and is filled with rare live versions of classic songs such as "Manic Depression," "Are You Experienced?," "Tax Free," and "Little Wing" that are not part of any other Sony Legacy release. Fans will also enjoy Hendrix's dramatic interpretations of Cream s "Sunshine Of Your Love" and Howlin Wolf s "Killing Floor" [with the Experience joined by Jefferson Airplane bassist Jack Casady] as well his rendition of Bob Dylan s "Like A Rolling Stone," which has been selected as the lead track for this special release.

This special deluxe box set features never before released music from each of the six unforgettable Winterland performances. The new standard and deluxe editions of Winterland are markedly different from a single disc compilation, long out of print, that was briefly issued by Rykodisc in 1987 and 1988.

The deluxe edition also presents a rare interview with Hendrix recorded backstage at the Boston Garden a few weeks after the Winterland performances. This previously unreleased bonus provides fans with a unique window into Hendrix's views about his background, his approach to the guitar and songwriting and future direction of his music.

The deluxe edition also features a 36 page booked filled with previously unpublished images by acclaimed photographers Robert Knight, Allen Tannenbaum and Jim Marshall as well as an essay by noted Rolling Stone journalist David Fricke.

The Jimi Hendrix Experience - Winterland (1968/2011) [Single CD + 4CD Box Set + Amazon Exclusive CD] RE-UPPED

The bonus disc features an amateur stereo recording made of Jimi's sold out February 4, 1968 Winterland performance.

This official bootleg recording showcases Jimi's love for the blues and includes versions of Howlin' Wolf's "Killing Floor," the Muddy Waters influenced "Catfish Blues" as well a majestic rendition of "Red House". The recording also features an impromptu, extended rendition of Traffic's "Dear Mr. Fantasy" with Buddy Miles sitting in for Mitch Mitchell. "Dear Mr. Fantasy" is presented here in two separate parts. When the recording was originally made, the first side of the tape ended abruptly and came off the spool. The tape operator then hurriedly flipped the reel over, rethreaded the tape and snapped on the record button.

Fortunately, this rough hewn, soundboard recording survived and provides another compelling chapter in Jimi's rich legacy.

The Jimi Hendrix Experience - Winterland (1968/2011) [Single CD + 4CD Box Set + Amazon Exclusive CD] RE-UPPED

The Jimi Hendrix Experience - Winterland (1968/2011) [Single-CD Edition]
EAC-FLAC(tracks)+CUEs+LOGs > 482 MB | 75:00 mins | Full Scans | MP3 CBR 320 Kbps > 172 MB

01. Fire
02. Foxy Lady
03. Like A Rolling Stone
04. Hey Joe
05. Hear My Train A Comin
06. Sunshine Of Your Love
07. Little Wing
08. Are You Experienced
09. Manic Depression
10. Voodoo Child
11. Purple Haze

Exact Audio Copy V1.0 beta 2 from 29. April 2011

EAC extraction logfile from 14. September 2011, 16:31

The Jimi Hendrix Experience / Winterland

Used drive : HL-DT-STDVDRAM GH15F Adapter: 1 ID: 0

Read mode : Secure
Utilize accurate stream : Yes
Defeat audio cache : Yes
Make use of C2 pointers : No

Read offset correction : 667
Overread into Lead-In and Lead-Out : No
Fill up missing offset samples with silence : Yes
Delete leading and trailing silent blocks : No
Null samples used in CRC calculations : Yes
Used interface : Native Win32 interface for Win NT & 2000
Gap handling : Appended to previous track

Used output format : Internal WAV Routines
Sample format : 44.100 Hz; 16 Bit; Stereo


TOC of the extracted CD

Track | Start | Length | Start sector | End sector
––––––––––––––––––––––––––––-
1 | 0:00.00 | 4:06.46 | 0 | 18495
2 | 4:06.46 | 6:05.38 | 18496 | 45908
3 | 10:12.09 | 10:45.16 | 45909 | 94299
4 | 20:57.25 | 5:30.21 | 94300 | 119070
5 | 26:27.46 | 11:44.68 | 119071 | 171938
6 | 38:12.39 | 6:36.18 | 171939 | 201656
7 | 44:48.57 | 4:12.73 | 201657 | 220629
8 | 49:01.55 | 7:57.52 | 220630 | 256456
9 | 56:59.32 | 5:33.21 | 256457 | 281452
10 | 62:32.53 | 7:09.22 | 281453 | 313649
11 | 69:42.00 | 5:17.70 | 313650 | 337494


Track 1

Filename O:\Music\EAC Rips\01 - Fire.wav

Pre-gap length 0:00:02.00

Peak level 100.0 %
Extraction speed 4.5 X
Track quality 100.0 %
Test CRC 487689FE
Copy CRC 487689FE
Track not present in AccurateRip database
Copy OK

Track 2

Filename O:\Music\EAC Rips\02 - Foxy Lady.wav

Peak level 100.0 %
Extraction speed 4.6 X
Track quality 99.9 %
Test CRC AF2A7228
Copy CRC AF2A7228
Track not present in AccurateRip database
Copy OK

Track 3

Filename O:\Music\EAC Rips\03 - Like A Rolling Stone.wav

Peak level 100.0 %
Extraction speed 6.3 X
Track quality 100.0 %
Test CRC BED42D52
Copy CRC BED42D52
Track not present in AccurateRip database
Copy OK

Track 4

Filename O:\Music\EAC Rips\04 - Hey Joe.wav

Peak level 100.0 %
Extraction speed 6.5 X
Track quality 100.0 %
Test CRC 2FAE7599
Copy CRC 2FAE7599
Track not present in AccurateRip database
Copy OK

Track 5

Filename O:\Music\EAC Rips\05 - Hear My Train A Comin.wav

Peak level 100.0 %
Extraction speed 7.6 X
Track quality 100.0 %
Test CRC 5AA61EB4
Copy CRC 5AA61EB4
Track not present in AccurateRip database
Copy OK

Track 6

Filename O:\Music\EAC Rips\06 - Sunshine Of Your Love.wav

Peak level 100.0 %
Extraction speed 7.9 X
Track quality 100.0 %
Test CRC E1D2BC2E
Copy CRC E1D2BC2E
Track not present in AccurateRip database
Copy OK

Track 7

Filename O:\Music\EAC Rips\07 - Little Wing.wav

Peak level 100.0 %
Extraction speed 6.4 X
Track quality 99.9 %
Test CRC BEA57C4E
Copy CRC BEA57C4E
Track not present in AccurateRip database
Copy OK

Track 8

Filename O:\Music\EAC Rips\08 - Are You Experienced.wav

Peak level 100.0 %
Extraction speed 8.5 X
Track quality 100.0 %
Test CRC A96CEBBE
Copy CRC A96CEBBE
Track not present in AccurateRip database
Copy OK

Track 9

Filename O:\Music\EAC Rips\09 - Manic Depression.wav

Peak level 100.0 %
Extraction speed 7.3 X
Track quality 99.9 %
Test CRC F60C3412
Copy CRC F60C3412
Track not present in AccurateRip database
Copy OK

Track 10

Filename O:\Music\EAC Rips\10 - Voodoo Child.wav

Peak level 100.0 %
Extraction speed 8.1 X
Track quality 99.9 %
Test CRC 90F362B1
Copy CRC 90F362B1
Track not present in AccurateRip database
Copy OK

Track 11

Filename O:\Music\EAC Rips\11 - Purple Haze.wav

Peak level 100.0 %
Extraction speed 6.9 X
Track quality 100.0 %
Test CRC A94DD926
Copy CRC A94DD926
Track not present in AccurateRip database
Copy OK


None of the tracks are present in the AccurateRip database

No errors occurred

End of status report

==== Log checksum 6C7F167268AE24756AAC06BD710EE3846D4B83D93EF9A7A99FE95A0D1A2BEAC8 ====



The Jimi Hendrix Experience - Winterland (1968/2011) [Single CD + 4CD Box Set + Amazon Exclusive CD] RE-UPPED
The Jimi Hendrix Experience - Winterland (1968/2011) [4CD Box Set]
EAC-FLAC(tracks)+CUEs+LOGs > 1,9 GB | 312:14 mins | Full Scans | MP3 CBR 320 Kbps > 720 MB


Tracklist - Disc 1: San Fransisco, CA. 10-10-1968
01. Tax Free
02. Lover Man
03. Sunshine Of Your Love
04. Hear My Train A Comin'
05. Killing Floor
06. Foxey Lady
07. Hey Joe
08. Star Spangled Banner
09. Purple Haze

Exact Audio Copy V1.0 beta 1 from 15. November 2010

EAC extraction logfile from 13. September 2011, 0:23

Jimi Hendrix Experience / Winterland (San Fransisco CA. 10-10-68) CD1

Used drive : PHILIPS DVDR1628P1 Adapter: 4 ID: 0

Read mode : Secure
Utilize accurate stream : Yes
Defeat audio cache : Yes
Make use of C2 pointers : No

Read offset correction : 618
Overread into Lead-In and Lead-Out : No
Fill up missing offset samples with silence : Yes
Delete leading and trailing silent blocks : No
Null samples used in CRC calculations : Yes
Used interface : Native Win32 interface for Win NT & 2000
Gap handling : Appended to previous track

Used output format : User Defined Encoder
Selected bitrate : 256 kBit/s
Quality : High
Add ID3 tag : No
Command line compressor : C:\Program Files\FLAC\flac.exe
Additional command line options : -8 -V -T "ARTIST=%a" -T "TITLE=%t" -T "ALBUM=%g" -T "DATE=%y" -T "TRACKNUMBER=%n" -T "TOTALTRACKS=%x" -T "GENRE=%m" -T "ALBUMARTIST=%v" -T "ALBUM ARTIST=%v" -T "COMMENT=EAC Secure Mode, Test & Copy, AccurateRip, FLAC -8" %s


TOC of the extracted CD

Track | Start | Length | Start sector | End sector
––––––––––––––––––––––––––––-
1 | 0:00.00 | 15:15.37 | 0 | 68661
2 | 15:15.37 | 5:21.01 | 68662 | 92737
3 | 20:36.38 | 7:30.41 | 92738 | 126528
4 | 28:07.04 | 11:33.42 | 126529 | 178545
5 | 39:40.46 | 7:55.35 | 178546 | 214205
6 | 47:36.06 | 5:36.54 | 214206 | 239459
7 | 53:12.60 | 7:19.60 | 239460 | 272444
8 | 60:32.45 | 5:56.14 | 272445 | 299158
9 | 66:28.59 | 5:37.33 | 299159 | 324466


Track 1

Filename C:\addis gugsa killed my hdd\01 - Tax Free.wav

Pre-gap length 0:00:02.00

Peak level 100.0 %
Extraction speed 1.8 X
Track quality 99.9 %
Test CRC E7730970
Copy CRC E7730970
Track not present in AccurateRip database
Copy OK

Track 2

Filename C:\addis gugsa killed my hdd\02 - Lover Man.wav

Peak level 100.0 %
Extraction speed 2.1 X
Track quality 100.0 %
Test CRC 3391358C
Copy CRC 3391358C
Track not present in AccurateRip database
Copy OK

Track 3

Filename C:\addis gugsa killed my hdd\03 - Sunshine Of Your Love.wav

Peak level 100.0 %
Extraction speed 2.3 X
Track quality 100.0 %
Test CRC 156418F2
Copy CRC 156418F2
Track not present in AccurateRip database
Copy OK

Track 4

Filename C:\addis gugsa killed my hdd\04 - Hear My Train A Comin'.wav

Peak level 100.0 %
Extraction speed 2.6 X
Track quality 100.0 %
Test CRC ACF6C164
Copy CRC ACF6C164
Track not present in AccurateRip database
Copy OK

Track 5

Filename C:\addis gugsa killed my hdd\05 - Killing Floor.wav

Peak level 100.0 %
Extraction speed 2.8 X
Track quality 100.0 %
Test CRC 0517B951
Copy CRC 0517B951
Track not present in AccurateRip database
Copy OK

Track 6

Filename C:\addis gugsa killed my hdd\06 - Foxey Lady.wav

Peak level 100.0 %
Extraction speed 2.6 X
Track quality 99.9 %
Test CRC 2C6331C0
Copy CRC 2C6331C0
Track not present in AccurateRip database
Copy OK

Track 7

Filename C:\addis gugsa killed my hdd\07 - Hey Joe.wav

Peak level 100.0 %
Extraction speed 3.0 X
Track quality 100.0 %
Test CRC 253BF9E1
Copy CRC 253BF9E1
Track not present in AccurateRip database
Copy OK

Track 8

Filename C:\addis gugsa killed my hdd\08 - Star Spangled Banner.wav

Peak level 100.0 %
Extraction speed 3.1 X
Track quality 100.0 %
Test CRC F13DD0E0
Copy CRC F13DD0E0
Track not present in AccurateRip database
Copy OK

Track 9

Filename C:\addis gugsa killed my hdd\09 - Purple Haze.wav

Peak level 100.0 %
Extraction speed 2.8 X
Track quality 100.0 %
Test CRC 46DC1C24
Copy CRC 46DC1C24
Track not present in AccurateRip database
Copy OK


None of the tracks are present in the AccurateRip database

No errors occurred

End of status report

==== Log checksum 5EF1C357726D5201BE4D3FB80F115D4A28B6BC75DE141E26510DB66052278160 ====



Tracklist - Disc 2: San Fransisco, CA. 10-11-1968
01. Tax Free
02. Like A Rolling Stone
03. Lover Man
04. Hey Joe
05. Fire
06. Foxey Lady
07. Are You Experienced
08. Red House
09. Purple Haze

Exact Audio Copy V1.0 beta 1 from 15. November 2010

EAC extraction logfile from 13. September 2011, 21:01

Jimi Hendrix / Winterland (San Fransisco CA. 10-11-68) CD2

Used drive : PHILIPS DVDR1628P1 Adapter: 4 ID: 0

Read mode : Secure
Utilize accurate stream : Yes
Defeat audio cache : Yes
Make use of C2 pointers : No

Read offset correction : 618
Overread into Lead-In and Lead-Out : No
Fill up missing offset samples with silence : Yes
Delete leading and trailing silent blocks : No
Null samples used in CRC calculations : Yes
Used interface : Native Win32 interface for Win NT & 2000
Gap handling : Appended to previous track

Used output format : User Defined Encoder
Selected bitrate : 256 kBit/s
Quality : High
Add ID3 tag : No
Command line compressor : C:\Program Files\FLAC\flac.exe
Additional command line options : -8 -V -T "ARTIST=%a" -T "TITLE=%t" -T "ALBUM=%g" -T "DATE=%y" -T "TRACKNUMBER=%n" -T "TOTALTRACKS=%x" -T "GENRE=%m" -T "ALBUMARTIST=%v" -T "ALBUM ARTIST=%v" -T "COMMENT=EAC Secure Mode, Test & Copy, AccurateRip, FLAC -8" %s


TOC of the extracted CD

Track | Start | Length | Start sector | End sector
––––––––––––––––––––––––––––-
1 | 0:00.00 | 10:01.06 | 0 | 45080
2 | 10:01.06 | 11:46.33 | 45081 | 98063
3 | 21:47.39 | 3:45.44 | 98064 | 114982
4 | 25:33.08 | 5:12.40 | 114983 | 138422
5 | 30:45.48 | 3:20.44 | 138423 | 153466
6 | 34:06.17 | 5:12.51 | 153467 | 176917
7 | 39:18.68 | 12:13.14 | 176918 | 231906
8 | 51:32.07 | 12:24.19 | 231907 | 287725
9 | 63:56.26 | 5:18.36 | 287726 | 311611


Track 1

Filename C:\addis gugsa killed my hdd\01 - Tax Free.wav

Pre-gap length 0:00:02.00

Peak level 100.0 %
Extraction speed 1.7 X
Track quality 100.0 %
Test CRC DEF55DDB
Copy CRC DEF55DDB
Track not present in AccurateRip database
Copy OK

Track 2

Filename C:\addis gugsa killed my hdd\02 - Like A Rolling Stone.wav

Peak level 100.0 %
Extraction speed 2.1 X
Track quality 100.0 %
Test CRC 6E69825B
Copy CRC 6E69825B
Track not present in AccurateRip database
Copy OK

Track 3

Filename C:\addis gugsa killed my hdd\03 - Lover Man.wav

Peak level 100.0 %
Extraction speed 2.1 X
Track quality 100.0 %
Test CRC 403C5A37
Copy CRC 403C5A37
Track not present in AccurateRip database
Copy OK

Track 4

Filename C:\addis gugsa killed my hdd\04 - Hey Joe.wav

Peak level 100.0 %
Extraction speed 2.3 X
Track quality 100.0 %
Test CRC D900ACAE
Copy CRC D900ACAE
Track not present in AccurateRip database
Copy OK

Track 5

Filename C:\addis gugsa killed my hdd\05 - Fire.wav

Peak level 97.3 %
Extraction speed 2.0 X
Track quality 99.9 %
Test CRC B07A3A05
Copy CRC B07A3A05
Track not present in AccurateRip database
Copy OK

Track 6

Filename C:\addis gugsa killed my hdd\06 - Foxey Lady.wav

Peak level 100.0 %
Extraction speed 2.5 X
Track quality 100.0 %
Test CRC B8EDC2BA
Copy CRC B8EDC2BA
Track not present in AccurateRip database
Copy OK

Track 7

Filename C:\addis gugsa killed my hdd\07 - Are You Experienced.wav

Peak level 100.0 %
Extraction speed 2.8 X
Track quality 99.9 %
Test CRC CFE001AC
Copy CRC CFE001AC
Track not present in AccurateRip database
Copy OK

Track 8

Filename C:\addis gugsa killed my hdd\08 - Red House.wav

Peak level 100.0 %
Extraction speed 3.2 X
Track quality 100.0 %
Test CRC 2F1EA0C8
Copy CRC 2F1EA0C8
Track not present in AccurateRip database
Copy OK

Track 9

Filename C:\addis gugsa killed my hdd\09 - Purple Haze.wav

Peak level 100.0 %
Extraction speed 2.8 X
Track quality 99.9 %
Test CRC ED97EEB8
Copy CRC ED97EEB8
Track not present in AccurateRip database
Copy OK


None of the tracks are present in the AccurateRip database

No errors occurred

End of status report

==== Log checksum EDA6502360C412B03E62FE7205A178C88DED4550DF0745C354D10AED72D965DD ====



Tracklist - Disc 3: San Fransisco, CA. 10-12-1968
01. Fire
02. Lover Man
03. Like A Rolling Stone
04. Manic Depression
05. Sunshine Of Your Love
06. Little Wing
07. Spanish Castle Magic
08. Red House
09. Hey Joe
10. Purple Haze
11. Wild Thing

Exact Audio Copy V1.0 beta 1 from 15. November 2010

EAC extraction logfile from 13. September 2011, 19:50

Jimi Hendrix / Winterland (San Fransisco CA. 10-12-68) CD3

Used drive : PHILIPS DVDR1628P1 Adapter: 4 ID: 0

Read mode : Secure
Utilize accurate stream : Yes
Defeat audio cache : Yes
Make use of C2 pointers : No

Read offset correction : 618
Overread into Lead-In and Lead-Out : No
Fill up missing offset samples with silence : Yes
Delete leading and trailing silent blocks : No
Null samples used in CRC calculations : Yes
Used interface : Native Win32 interface for Win NT & 2000
Gap handling : Appended to previous track

Used output format : User Defined Encoder
Selected bitrate : 256 kBit/s
Quality : High
Add ID3 tag : No
Command line compressor : C:\Program Files\FLAC\flac.exe
Additional command line options : -8 -V -T "ARTIST=%a" -T "TITLE=%t" -T "ALBUM=%g" -T "DATE=%y" -T "TRACKNUMBER=%n" -T "TOTALTRACKS=%x" -T "GENRE=%m" -T "ALBUMARTIST=%v" -T "ALBUM ARTIST=%v" -T "COMMENT=EAC Secure Mode, Test & Copy, AccurateRip, FLAC -8" %s


TOC of the extracted CD

Track | Start | Length | Start sector | End sector
––––––––––––––––––––––––––––-
1 | 0:00.00 | 4:59.06 | 0 | 22430
2 | 4:59.06 | 4:29.43 | 22431 | 42648
3 | 9:28.49 | 11:48.40 | 42649 | 95788
4 | 21:17.14 | 5:34.03 | 95789 | 120841
5 | 26:51.17 | 9:01.59 | 120842 | 161475
6 | 35:53.01 | 4:01.26 | 161476 | 179576
7 | 39:54.27 | 6:28.55 | 179577 | 208731
8 | 46:23.07 | 9:13.62 | 208732 | 250268
9 | 55:36.69 | 6:45.33 | 250269 | 280676
10 | 62:22.27 | 3:42.12 | 280677 | 297338
11 | 66:04.39 | 3:30.07 | 297339 | 313095


Track 1

Filename C:\addis gugsa killed my hdd\01 - Fire.wav

Pre-gap length 0:00:02.00

Peak level 100.0 %
Extraction speed 1.5 X
Track quality 100.0 %
Test CRC C466C1B5
Copy CRC C466C1B5
Track not present in AccurateRip database
Copy OK

Track 2

Filename C:\addis gugsa killed my hdd\02 - Lover Man.wav

Peak level 100.0 %
Extraction speed 1.7 X
Track quality 100.0 %
Test CRC 13B874B7
Copy CRC 13B874B7
Track not present in AccurateRip database
Copy OK

Track 3

Filename C:\addis gugsa killed my hdd\03 - Like A Rolling Stone.wav

Pre-gap length 0:00:00.01

Peak level 100.0 %
Extraction speed 2.1 X
Track quality 100.0 %
Test CRC AB55E1D6
Copy CRC AB55E1D6
Track not present in AccurateRip database
Copy OK

Track 4

Filename C:\addis gugsa killed my hdd\04 - Manic Depression.wav

Pre-gap length 0:00:00.01

Peak level 100.0 %
Extraction speed 2.0 X
Track quality 99.9 %
Test CRC 205CB771
Copy CRC 205CB771
Track not present in AccurateRip database
Copy OK

Track 5

Filename C:\addis gugsa killed my hdd\05 - Sunshine Of Your Love.wav

Pre-gap length 0:00:00.01

Peak level 100.0 %
Extraction speed 2.5 X
Track quality 100.0 %
Test CRC 11DDE493
Copy CRC 11DDE493
Track not present in AccurateRip database
Copy OK

Track 6

Filename C:\addis gugsa killed my hdd\06 - Little Wing.wav

Pre-gap length 0:00:00.01

Peak level 100.0 %
Extraction speed 2.5 X
Track quality 100.0 %
Test CRC 9B41D1D8
Copy CRC 9B41D1D8
Track not present in AccurateRip database
Copy OK

Track 7

Filename C:\addis gugsa killed my hdd\07 - Spanish Castle Magic.wav

Pre-gap length 0:00:00.01

Peak level 100.0 %
Extraction speed 2.7 X
Track quality 100.0 %
Test CRC 8AAF7CC7
Copy CRC 8AAF7CC7
Track not present in AccurateRip database
Copy OK

Track 8

Filename C:\addis gugsa killed my hdd\08 - Red House.wav

Pre-gap length 0:00:00.01

Peak level 100.0 %
Extraction speed 3.0 X
Track quality 100.0 %
Test CRC 74DC18BC
Copy CRC 74DC18BC
Track not present in AccurateRip database
Copy OK

Track 9

Filename C:\addis gugsa killed my hdd\09 - Hey Joe.wav

Pre-gap length 0:00:00.01

Peak level 100.0 %
Extraction speed 2.8 X
Track quality 99.9 %
Test CRC 24A3663E
Copy CRC 24A3663E
Track not present in AccurateRip database
Copy OK

Track 10

Filename C:\addis gugsa killed my hdd\10 - Purple Haze.wav

Pre-gap length 0:00:00.01

Peak level 100.0 %
Extraction speed 2.6 X
Track quality 99.9 %
Test CRC 97DDCD31
Copy CRC 97DDCD31
Track not present in AccurateRip database
Copy OK

Track 11

Filename C:\addis gugsa killed my hdd\11 - Wild Thing.wav

Pre-gap length 0:00:00.01

Peak level 100.0 %
Extraction speed 3.0 X
Track quality 100.0 %
Test CRC 8B295471
Copy CRC 8B295471
Track not present in AccurateRip database
Copy OK


None of the tracks are present in the AccurateRip database

No errors occurred

End of status report

==== Log checksum 9660BFA20B6E4FF9E31F3079994BFF867204C77E92188AD105DA31C071CD403C ====



Tracklist - Disc 4: Box Set Bonus CD
01. Foxey Lady (San Fransisco, CA. 10-12-68)
02. Are You Experienced (San Fransisco, CA. 10-10-68)
03. Voodoo Child (Slight Return) (San Fransisco, CA. 10-10-68)
04. Red House (San Fransisco, CA. 10-10-68)
05. Star Spangled Banner (San Fransisco, CA. 10-11-68)
06. Purple Haze (San Fransisco, CA.10-11-68)
07. Boston Garden Backstage Interview (San Fransisco, CA. 11-16-68)

Exact Audio Copy V1.0 beta 1 from 15. November 2010

EAC extraction logfile from 13. September 2011, 22:03

Jimi Hendrix / Winterland (Bonus Disc) CD4

Used drive : PHILIPS DVDR1628P1 Adapter: 4 ID: 0

Read mode : Secure
Utilize accurate stream : Yes
Defeat audio cache : Yes
Make use of C2 pointers : No

Read offset correction : 618
Overread into Lead-In and Lead-Out : No
Fill up missing offset samples with silence : Yes
Delete leading and trailing silent blocks : No
Null samples used in CRC calculations : Yes
Used interface : Native Win32 interface for Win NT & 2000
Gap handling : Appended to previous track

Used output format : User Defined Encoder
Selected bitrate : 256 kBit/s
Quality : High
Add ID3 tag : No
Command line compressor : C:\Program Files\FLAC\flac.exe
Additional command line options : -8 -V -T "ARTIST=%a" -T "TITLE=%t" -T "ALBUM=%g" -T "DATE=%y" -T "TRACKNUMBER=%n" -T "TOTALTRACKS=%x" -T "GENRE=%m" -T "ALBUMARTIST=%v" -T "ALBUM ARTIST=%v" -T "COMMENT=EAC Secure Mode, Test & Copy, AccurateRip, FLAC -8" %s


TOC of the extracted CD

Track | Start | Length | Start sector | End sector
––––––––––––––––––––––––––––-
1 | 0:00.00 | 6:05.05 | 0 | 27379
2 | 6:05.05 | 7:27.68 | 27380 | 60972
3 | 13:32.73 | 7:43.20 | 60973 | 95717
4 | 21:16.18 | 15:21.23 | 95718 | 164815
5 | 36:37.41 | 6:10.42 | 164816 | 192607
6 | 42:48.08 | 6:15.69 | 192608 | 220801
7 | 49:04.02 | 19:04.73 | 220802 | 306674


Track 1

Filename C:\addis gugsa killed my hdd\01 - Foxey Lady (10-12-68).wav

Pre-gap length 0:00:02.00

Peak level 100.0 %
Extraction speed 1.6 X
Track quality 100.0 %
Test CRC 1E7D9356
Copy CRC 1E7D9356
Track not present in AccurateRip database
Copy OK

Track 2

Filename C:\addis gugsa killed my hdd\02 - Are You Experienced (10-10-68).wav

Peak level 100.0 %
Extraction speed 1.9 X
Track quality 100.0 %
Test CRC 6ABB88BA
Copy CRC 6ABB88BA
Track not present in AccurateRip database
Copy OK

Track 3

Filename C:\addis gugsa killed my hdd\03 - Voodoo Child (Slight Return) (10-10-68).wav

Peak level 100.0 %
Extraction speed 2.1 X
Track quality 100.0 %
Test CRC 319692B3
Copy CRC 319692B3
Track not present in AccurateRip database
Copy OK

Track 4

Filename C:\addis gugsa killed my hdd\04 - Red House (10-10-68).wav

Peak level 100.0 %
Extraction speed 2.5 X
Track quality 100.0 %
Test CRC 401ED8D4
Copy CRC 401ED8D4
Track not present in AccurateRip database
Copy OK

Track 5

Filename C:\addis gugsa killed my hdd\05 - Star Spangled Banner (10-11-68).wav

Peak level 100.0 %
Extraction speed 2.4 X
Track quality 99.9 %
Test CRC D24983B6
Copy CRC D24983B6
Track not present in AccurateRip database
Copy OK

Track 6

Filename C:\addis gugsa killed my hdd\06 - Purple Haze (10-11-68).wav

Peak level 100.0 %
Extraction speed 2.5 X
Track quality 99.9 %
Test CRC E42F1461
Copy CRC E42F1461
Track not present in AccurateRip database
Copy OK

Track 7

Filename C:\addis gugsa killed my hdd\07 - Boston Garden Backstage Interview (11-16-68).wav

Pre-gap length 0:00:02.04

Peak level 82.9 %
Extraction speed 3.1 X
Track quality 99.9 %
Test CRC 2F8FC220
Copy CRC 2F8FC220
Track not present in AccurateRip database
Copy OK


None of the tracks are present in the AccurateRip database

No errors occurred

End of status report

==== Log checksum B7982344CABA2698DA9E7A4A3E670AFEFB8B65E35B7F6E462E656228122C9CD0 ====



Tracklist - Disc 5: Amazon Exclusive CD
01. Killing Floor
02. Red House
03. Catfish Blues
04. Dear Mr. Fantasy (Part One)
05. Dear Mr. Fantasy (Part Two)

^ These tracks were recorded at Fillmore Auditorium, San Francisco - February 4, 1968 [Second Show]

Thanks to the Original ripper!

Exact Audio Copy V1.0 beta 1 from 15. November 2010

EAC extraction logfile from 12. September 2011, 23:00

Jimi Hendrix / San Fransico 1968

Used drive : PHILIPS DVDR1628P1 Adapter: 4 ID: 0

Read mode : Secure
Utilize accurate stream : Yes
Defeat audio cache : Yes
Make use of C2 pointers : No

Read offset correction : 618
Overread into Lead-In and Lead-Out : No
Fill up missing offset samples with silence : Yes
Delete leading and trailing silent blocks : No
Null samples used in CRC calculations : Yes
Used interface : Native Win32 interface for Win NT & 2000
Gap handling : Appended to previous track

Used output format : User Defined Encoder
Selected bitrate : 256 kBit/s
Quality : High
Add ID3 tag : No
Command line compressor : C:\Program Files\FLAC\flac.exe
Additional command line options : -8 -V -T "ARTIST=%a" -T "TITLE=%t" -T "ALBUM=%g" -T "DATE=%y" -T "TRACKNUMBER=%n" -T "TOTALTRACKS=%x" -T "GENRE=%m" -T "ALBUMARTIST=%v" -T "ALBUM ARTIST=%v" -T "COMMENT=EAC Secure Mode, Test & Copy, AccurateRip, FLAC -8" %s


TOC of the extracted CD

Track | Start | Length | Start sector | End sector
––––––––––––––––––––––––––––-
1 | 0:00.00 | 4:05.43 | 0 | 18417
2 | 4:05.43 | 5:42.73 | 18418 | 44140
3 | 9:48.41 | 11:43.73 | 44141 | 96938
4 | 21:32.39 | 5:09.73 | 96939 | 120186
5 | 26:42.37 | 6:26.65 | 120187 | 149201


Track 1

Filename C:\01 - Killing Floor.wav

Pre-gap length 0:00:02.00

Peak level 99.9 %
Extraction speed 1.3 X
Track quality 100.0 %
Test CRC 0F013F71
Copy CRC 0F013F71
Track not present in AccurateRip database
Copy OK

Track 2

Filename C:\02 - Red House.wav

Peak level 99.9 %
Extraction speed 1.5 X
Track quality 100.0 %
Test CRC 8D4C09B0
Copy CRC 8D4C09B0
Track not present in AccurateRip database
Copy OK

Track 3

Filename C:\03 - Catfish Blues.wav

Peak level 99.9 %
Extraction speed 1.8 X
Track quality 99.9 %
Test CRC 29C28C88
Copy CRC 29C28C88
Track not present in AccurateRip database
Copy OK

Track 4

Filename C:\04 - Dear Mr Fantasy (Part One).wav

Peak level 99.9 %
Extraction speed 2.0 X
Track quality 100.0 %
Test CRC 9201D697
Copy CRC 9201D697
Track not present in AccurateRip database
Copy OK

Track 5

Filename C:\05 - Dear Mr Fantasy (Part Two).wav

Pre-gap length 0:00:01.67

Peak level 99.9 %
Extraction speed 2.0 X
Track quality 99.9 %
Test CRC 89634C0D
Copy CRC 89634C0D
Track not present in AccurateRip database
Copy OK


None of the tracks are present in the AccurateRip database

No errors occurred

End of status report


>
DISC ONE
LOSSLESS
MP3 CBR 320

DISC TWO
LOSSLESS
MP3 CBR 320

DISC THREE
LOSSLESS
MP3 CBR 320

DISC FOUR
LOSSLESS
MP3 CBR 320

DISC FIVE
LOSSLESS*
MP3 CBR 320*

BOX SCANS

HIGHLIGT SINGLE DISC
LOSSLESS*
MP3 CBR 320*

Covers* & recovery info included

>
DISC ONE
LOSSLESS
MP3 CBR 320

DISC TWO
LOSSLESS
MP3 CBR 320

DISC THREE
LOSSLESS
MP3 CBR 320

DISC FOUR
LOSSLESS
MP3 CBR 320

DISC FIVE
LOSSLESS*
MP3 CBR 320*

BOX SCANS

HIGHLIGT SINGLE DISC
LOSSLESS*
MP3 CBR 320*

Covers* & recovery info included
>