Subcategories
Tags
Language
Tags

Grateful Dead - Winterland 1973: The Complete Recordings (2008)

Posted By: delpotro
Grateful Dead - Winterland 1973: The Complete Recordings (2008)

Grateful Dead - Winterland 1973: The Complete Recordings (2008)
XLD Rip | FLAC (tracks+log+.cue) | 10:47:21 | 3,59 Gb
Psychedelic Rock, Classic Rock | Label: Grateful Dead, Rhino Entertainment

This nine-disc box set gathers music from a trio of consecutive Grateful Dead gigs – November 9 – 11, 1973 at their hometown hockey rink Winterland Arena. At the time the band consisted of Jerry Garcia (lead guitar/vocals), Donna Jean Godchaux (vocals), Keith Godchaux (keyboards), Bill Kreutzmann (drums), Phil Lesh (electric bass/vocals), and Bob Weir (rhythm guitar/vocals). In 1973, they atypically played a mere handful of gigs in San Francisco. According to Dennis McNally's liner notes, the run represented within could be considered over half of their Bay Area appearances for the year. That shouldn't suggest that the combo weren't keeping a full calendar, as they played about every five days or so for a total of 72 live shows. As the overwhelming bounty of strong performances on 2008's Winterland 1973: The Complete Recordings substantiates, the combo were operating on all cylinders and – when applicable – at full velocity. Hearing the natural ebb and flow inherent in the concerts themselves reveals the Grateful Dead's singular ability to effortlessly vacillate between a multitude of styles. Among them are straight-ahead vintage rock & roll – namely Chuck Berry's "Johnny B. Goode" and "Around and Around" – to covering country & western troubadours Johnny Cash ("Big River,") Marty Robbins ("El Paso"), and George Jones ("The Race Is On"). An amalgam of these artists would heavily influence the writing of Weir and John Barlow as the originals and Grateful Dead songbook staples "Mexicali Blues" and, to a more refined degree, the tales-from-the-road sensibility of "Black-Throated Wind" and "Looks Like Rain." Another facet of the hydra-headed Grateful Dead reaches back into their formidable psychedelic past, while Garcia, Keith Godchaux, and Kreutzmann are simultaneously aggressive in their pursuit of a jazzier grade of instrumental improvisation. Nowhere is this as evident as during the multiple stretched-out epic and exploratory readings of "Playing in the Band," "Eyes of the World," and "Weather Report Suite." Likewise, each night brought a host of undeniably special musical moments.

Friday (November 9) contains a seminal "fast" "They Love Each Other" with a few lyrical rearrangements by Garcia, the return of the far-too-infrequently played ballad "To Lay Me Down," and the tight segue between the fiery "Greatest Story Ever Told" and "Bertha." Saturday the 10th is marked by a simple and lovely "Brokedown Palace," and the not-to-be-missed medley linking a spacy "Playing in the Band" to "Uncle John's Band" to a note-perfect "(Walk Me out in The) Morning Dew" that briefly revisits "Uncle John's Band" before returning, bookending the whole affair with a reprise of "Playing in the Band." Plus, the stand-alone "Stella Blue" is well worth mentioning for inclined minds. Seasoned listeners might find that the elements seem to align perfectly throughout the Sunday night outing. The centerpiece is a half-hour-plus "Dark Star" that weaves in and out of the melody before connecting to an incisive "Eyes of the World" and concludes nearly an hour later with a poignant "China Doll." The slinky and appropriately ribald rhythm pulsating through "Loose Lucy," and arguably the best "Weather Report Suite" (of the three found in the this box), are other highlights from the 11th. In terms of fidelity, the project incorporates the Plangent Process, which has unquestionably produced the finest sounding two-track project to have come from the always quality-conscious Jeffrey Norman during his tenure as the Grateful Dead's sonic restorationist. Norman also says that the only song to be M.I.A. is an "encore that wasn't recorded on the 9th." Parties who pre-ordered Winterland 1973: The Complete Recordings online were also supplied several premiums: a postcard reproduction of a Grateful Dead mass-mailing from the early '70s and a "Good Ol' Grateful Dead" pin (read: badge) are but a few of the goodies. The icing on the cake is the nine-song "bonus disc" of excerpts from a few weeks later on December 4, 1973 at the Cincinnati Gardens, more information about which can be found on the 2008 bonus edition of Winterland 1973: The Complete Recordings.
Tracklist:
Disc 1

November 9, 1973 — First set:

"Promised Land" (Chuck Berry) – 3:21
"Brown-Eyed Woman" (Jerry Garcia, Robert Hunter) – 5:08
"Me and Bobby McGee" (Kris Kristofferson, Fred Foster) – 5:59
"They Love Each Other" (Garcia, Hunter) - 5:42
"Black-Throated Wind" (Bob Weir, John Perry Barlow) – 7:08
"Don’t Ease Me In" (traditional, arranged by Grateful Dead) – 4:37
"Mexicali Blues" (Weir, Barlow) – 3:44
"Row Jimmy" (Garcia, Hunter) – 9:03
"The Race Is On" (Don Rollins) – 3:57
"China Cat Sunflower" > (Garcia, Hunter) – 7:35
"I Know You Rider" (traditional, arranged by Grateful Dead) – 5:27

Disc 2

"Playing in the Band" (Weir, Mickey Hart, Hunter) – 20:53

November 9, 1973 — Second set:

"Here Comes Sunshine" (Garcia, Hunter) – 11:52
"Me and My Uncle" (John Phillips) – 3:44
"To Lay Me Down" (Garcia, Hunter) – 8:11
"Big River" (Johnny Cash) – 5:29
"Mississippi Half-Step Uptown Toodeloo" (Garcia, Hunter) – 8:30
"Greatest Story Ever Told" > (Weir, Hunter) – 5:10
"Bertha" (Garcia, Hunter) – 6:12

Disc 3

"Weather Report Suite" (Weir, Eric Andersen, Barlow) – 15:38 >
"Eyes of the World" > (Garcia, Hunter) – 16:43
"China Doll" (Garcia, Hunter) – 5:57
"Around and Around" > (Berry) – 5:05
"Goin’ Down The Road Feeling Bad" > (traditional, arranged by Grateful Dead) – 8:01
"Johnny B. Goode" (Berry) – 4:25

Disc 4

November 10, 1973 — First set:

"Bertha" (Garcia, Hunter) – 7:11
"Jack Straw" (Weir, Hunter) – 5:15
"Loser" (Garcia, Hunter) – 6:40
"Looks Like Rain" (Weir, Barlow) – 7:50
"Deal" (Garcia, Hunter) – 4:40
"Mexicali Blues" (Weir, Barlow) – 3:42
"Tennessee Jed" (Garcia, Hunter) – 8:39
"El Paso" (Marty Robbins) – 4:54
"Brokedown Palace" (Garcia, Hunter) – 6:12
"Beat It On Down the Line" (Jesse Fuller) – 3:51
"Row Jimmy" (Garcia, Hunter) – 8:51

Disc 5

"Weather Report Suite" (Weir, Andersen, Barlow) – 18:26

November 10, 1973 — Second set:

"Playing In The Band" > (Weir, Hart, Hunter) – 11:59
"Uncle John's Band" > (Garcia, Hunter) – 9:39
"Morning Dew" > (Bonnie Dobson) – 12:24
"Uncle John’s Band" > (Garcia, Hunter) – 1:50
"Playing In The Band" (Weir, Hart, Hunter) – 7:38

Disc 6

"Big River" (Cash) – 5:12
"Stella Blue" (Garcia, Hunter) – 8:19
"Truckin'" > (Garcia, Phil Lesh, Weir, Hunter) – 12:18
"Wharf Rat" > (Garcia, Hunter) – 8:43
"Sugar Magnolia" (Weir, Hunter) – 10:39

November 10, 1973 — Encore:

"One More Saturday Night" (Weir) – 5:28
"Casey Jones" (Garcia, Hunter) – 7:05

Disc 7

November 11, 1973 — First set:

"Promised Land" > (Berry) – 3:42
"Bertha" > (Garcia, Hunter) – 6:04
"Greatest Story Ever Told" (Weir, Hunter) – 6:07
"Sugaree" (Garcia, Hunter) – 7:56
"Black-Throated Wind" (Weir, Barlow) – 7:47
"To Lay Me Down" (Garcia, Hunter) – 8:28
"El Paso" (Robbins) – 4:45
"Ramble On Rose" (Garcia, Hunter) – 7:04
"Me and Bobby McGee" (Kristofferson, Foster) – 5:56

Disc 8

"China Cat Sunflower" > (Garcia, Hunter) – 9:27
"I Know You Rider" (traditional, arranged by Grateful Dead) – 6:04
"Me and My Uncle" (Phillips) – 3:34
"Loose Lucy" (Garcia, Hunter) – 7:52
"Weather Report Suite" (Weir, Andersen, Barlow) – 15:07

November 11, 1973 — Second set:

"Mississippi Half-Step Uptown Toodeloo" (Garcia, Hunter) – 8:26
"Big River" (Cash) – 7:05

Disc 9

"Dark Star" > (Garcia, Lesh, Weir, Bill Kreutzmann, Keith Godchaux, Hunter) – 35:41
"Eyes Of The World" > (Garcia, Hunter) – 13:36
"China Doll" (Garcia, Hunter) – 5:40
"Sugar Magnolia" (Weir, Hunter) – 10:19

November 11, 1973 — Encore:

"Uncle John’s Band" (Garcia, Hunter) – 7:32
"Johnny B. Goode" > (Berry) – 3:56
"We Bid You Goodnight" (traditional, arranged by Grateful Dead) – 3:11

Bonus Disc

December 4, 1973, Cincinnati Gardens, Cincinnati, Ohio:

"China Cat Sunflower" (Garcia, Hunter) – 7:58 >
"I Know You Rider" (traditional, arranged by Grateful Dead) – 5:57
"Truckin'" (Garcia, Lesh, Weir, Hunter) – 8:48 >
"Stella Blue" (Garcia, Hunter) – 8:15
"Eyes Of The World" (Garcia, Hunter) – 13:38 >
"Space" (Garcia, Lesh, Weir, Kreutzmann, Godchaux) – 9:36 >
"Sugar Magnolia" (Weir, Hunter) – 6:17 >
"Goin' Down The Road Feeling Bad" (traditional, arranged by Grateful Dead) – 9:45 >
"Casey Jones" (Garcia, Hunter) – 7:17

X Lossless Decoder version 20121013 (142.0)

XLD extraction logfile from 2012-11-02 12:11:56 -0400

Grateful Dead / Winterland 1973: The Complete Recordings

Used drive : MATSHITA DVD-R UJ-8A8 (revision HA13)

Ripper mode : XLD Secure Ripper
Disable audio cache : OK for the drive with a cache less than 1375KiB
Make use of C2 pointers : NO
Read offset correction : 102
Max retry count : 100
Gap status : Analyzed, Appended (except HTOA)

TOC of the extracted CD
Track | Start | Length | Start sector | End sector
––––––––––––––––––––––––––––-
1 | 00:00:00 | 03:21:11 | 0 | 15085
2 | 03:21:11 | 05:07:64 | 15086 | 38174
3 | 08:29:00 | 05:59:30 | 38175 | 65129
4 | 14:28:30 | 05:42:16 | 65130 | 90795
5 | 20:10:46 | 07:07:62 | 90796 | 122882
6 | 27:18:33 | 04:37:23 | 122883 | 143680
7 | 31:55:56 | 03:43:69 | 143681 | 160474
8 | 35:39:50 | 09:02:73 | 160475 | 201197
9 | 44:42:48 | 03:57:15 | 201198 | 218987
10 | 48:39:63 | 07:35:23 | 218988 | 253135
11 | 56:15:11 | 05:27:15 | 253136 | 277675

AccurateRip Summary (DiscID: 00183818-00d5ac85-7e0e760b)
Track 01 : OK (v1+v2, confidence 39/39)
Track 02 : OK (v1+v2, confidence 40/40)
Track 03 : OK (v1+v2, confidence 40/40)
Track 04 : OK (v1+v2, confidence 40/40)
Track 05 : OK (v1+v2, confidence 40/40)
Track 06 : OK (v1+v2, confidence 40/40)
Track 07 : OK (v1+v2, confidence 40/40)
Track 08 : OK (v1+v2, confidence 40/40)
Track 09 : OK (v1+v2, confidence 40/40)
Track 10 : OK (v1+v2, confidence 41/41)
Track 11 : OK (v1+v2, confidence 39/39)
->All tracks accurately ripped.

All Tracks
Album gain : -5.73 dB
Peak : 0.966125
Statistics
Read error : 0
Jitter error (maybe fixed) : 0
Retry sector count : 0
Damaged sector count : 0

Track 01
Filename : /Users/ianwolff/Downloads/torrent seeding/Grateful Dead - Winterland 1973: The Complete Recordings (2008) [FLAC]/01 Promised Land.flac
Pre-gap length : 00:02:00

Track gain : -6.75 dB
Peak : 0.966034
CRC32 hash (test run) : 6E8A004C
CRC32 hash : 6E8A004C
CRC32 hash (skip zero) : 568B587C
AccurateRip v1 signature : A30A4150
AccurateRip v2 signature : 95C90D5E
->Accurately ripped (v1+v2, confidence 34+5/39)
Statistics
Read error : 0
Jitter error (maybe fixed) : 0
Retry sector count : 0
Damaged sector count : 0

Track 02
Filename : /Users/ianwolff/Downloads/torrent seeding/Grateful Dead - Winterland 1973: The Complete Recordings (2008) [FLAC]/02 Brown-Eyed Woman.flac

Track gain : -6.12 dB
Peak : 0.966125
CRC32 hash (test run) : 9479F1A0
CRC32 hash : 9479F1A0
CRC32 hash (skip zero) : 941ECB5C
AccurateRip v1 signature : 820FE962
AccurateRip v2 signature : ED483C06
->Accurately ripped (v1+v2, confidence 35+5/40)
Statistics
Read error : 0
Jitter error (maybe fixed) : 0
Retry sector count : 0
Damaged sector count : 0

Track 03
Filename : /Users/ianwolff/Downloads/torrent seeding/Grateful Dead - Winterland 1973: The Complete Recordings (2008) [FLAC]/03 Me & Bobby McGee.flac

Track gain : -6.20 dB
Peak : 0.966125
CRC32 hash (test run) : BB275CD8
CRC32 hash : BB275CD8
CRC32 hash (skip zero) : E11FA043
AccurateRip v1 signature : A8673EF8
AccurateRip v2 signature : 170DCDA1
->Accurately ripped (v1+v2, confidence 35+5/40)
Statistics
Read error : 0
Jitter error (maybe fixed) : 0
Retry sector count : 0
Damaged sector count : 0

Track 04
Filename : /Users/ianwolff/Downloads/torrent seeding/Grateful Dead - Winterland 1973: The Complete Recordings (2008) [FLAC]/04 They Love Each Other.flac

Track gain : -6.38 dB
Peak : 0.966125
CRC32 hash (test run) : 2898F45A
CRC32 hash : 2898F45A
CRC32 hash (skip zero) : F16169E8
AccurateRip v1 signature : BB8ABD40
AccurateRip v2 signature : 26B03DE7
->Accurately ripped (v1+v2, confidence 35+5/40)
Statistics
Read error : 0
Jitter error (maybe fixed) : 0
Retry sector count : 0
Damaged sector count : 0

Track 05
Filename : /Users/ianwolff/Downloads/torrent seeding/Grateful Dead - Winterland 1973: The Complete Recordings (2008) [FLAC]/05 Black-Throated Wind.flac

Track gain : -5.21 dB
Peak : 0.965912
CRC32 hash (test run) : BAF033A8
CRC32 hash : BAF033A8
CRC32 hash (skip zero) : C650CA7F
AccurateRip v1 signature : D07ADD56
AccurateRip v2 signature : C8D1ED7C
->Accurately ripped (v1+v2, confidence 35+5/40)
Statistics
Read error : 0
Jitter error (maybe fixed) : 0
Retry sector count : 0
Damaged sector count : 0

Track 06
Filename : /Users/ianwolff/Downloads/torrent seeding/Grateful Dead - Winterland 1973: The Complete Recordings (2008) [FLAC]/06 Don't Ease Me In.flac

Track gain : -6.39 dB
Peak : 0.966125
CRC32 hash (test run) : 2CC70F5B
CRC32 hash : 2CC70F5B
CRC32 hash (skip zero) : C82EC9AF
AccurateRip v1 signature : D9B6F3E6
AccurateRip v2 signature : 9C627276
->Accurately ripped (v1+v2, confidence 35+5/40)
Statistics
Read error : 0
Jitter error (maybe fixed) : 0
Retry sector count : 0
Damaged sector count : 0

Track 07
Filename : /Users/ianwolff/Downloads/torrent seeding/Grateful Dead - Winterland 1973: The Complete Recordings (2008) [FLAC]/07 Mexicali Blues.flac

Track gain : -5.18 dB
Peak : 0.966095
CRC32 hash (test run) : B004888F
CRC32 hash : B004888F
CRC32 hash (skip zero) : 7D49C7F0
AccurateRip v1 signature : 57E54B7D
AccurateRip v2 signature : AF8E9658
->Accurately ripped (v1+v2, confidence 35+5/40)
Statistics
Read error : 0
Jitter error (maybe fixed) : 0
Retry sector count : 0
Damaged sector count : 0

Track 08
Filename : /Users/ianwolff/Downloads/torrent seeding/Grateful Dead - Winterland 1973: The Complete Recordings (2008) [FLAC]/08 Row Jimmy.flac

Track gain : -3.96 dB
Peak : 0.966125
CRC32 hash (test run) : FE94F81B
CRC32 hash : FE94F81B
CRC32 hash (skip zero) : 591254BD
AccurateRip v1 signature : ADDF8982
AccurateRip v2 signature : 7DD0B528
->Accurately ripped (v1+v2, confidence 35+5/40)
Statistics
Read error : 0
Jitter error (maybe fixed) : 0
Retry sector count : 0
Damaged sector count : 0

Track 09
Filename : /Users/ianwolff/Downloads/torrent seeding/Grateful Dead - Winterland 1973: The Complete Recordings (2008) [FLAC]/09 The Race Is On.flac

Track gain : -5.65 dB
Peak : 0.966095
CRC32 hash (test run) : 57C2C080
CRC32 hash : 57C2C080
CRC32 hash (skip zero) : 4A99F8AA
AccurateRip v1 signature : F7590893
AccurateRip v2 signature : 0F8693CE
->Accurately ripped (v1+v2, confidence 35+5/40)
Statistics
Read error : 0
Jitter error (maybe fixed) : 0
Retry sector count : 0
Damaged sector count : 0

Track 10
Filename : /Users/ianwolff/Downloads/torrent seeding/Grateful Dead - Winterland 1973: The Complete Recordings (2008) [FLAC]/10 China Cat Sunflower>.flac

Track gain : -5.03 dB
Peak : 0.966095
CRC32 hash (test run) : 96F80E43
CRC32 hash : 96F80E43
CRC32 hash (skip zero) : 876646AF
AccurateRip v1 signature : F6A93D7B
AccurateRip v2 signature : 01590371
->Accurately ripped (v1+v2, confidence 36+5/41)
Statistics
Read error : 0
Jitter error (maybe fixed) : 0
Retry sector count : 0
Damaged sector count : 0

Track 11
Filename : /Users/ianwolff/Downloads/torrent seeding/Grateful Dead - Winterland 1973: The Complete Recordings (2008) [FLAC]/11 I Know You Rider.flac

Track gain : -5.56 dB
Peak : 0.966095
CRC32 hash (test run) : E4DD5FE0
CRC32 hash : E4DD5FE0
CRC32 hash (skip zero) : CC3309C0
AccurateRip v1 signature : 8C9FD248
AccurateRip v2 signature : F14CF3DD
->Accurately ripped (v1+v2, confidence 34+5/39)
Statistics
Read error : 0
Jitter error (maybe fixed) : 0
Retry sector count : 0
Damaged sector count : 0

No errors occurred

End of status report

X Lossless Decoder version 20121013 (142.0)

XLD extraction logfile from 2012-11-02 12:31:00 -0400

Grateful Dead / Winterland 1973: The Complete Recordings

Used drive : MATSHITA DVD-R UJ-8A8 (revision HA13)

Ripper mode : XLD Secure Ripper
Disable audio cache : OK for the drive with a cache less than 1375KiB
Make use of C2 pointers : NO
Read offset correction : 102
Max retry count : 100
Gap status : Analyzed, Appended (except HTOA)

TOC of the extracted CD
Track | Start | Length | Start sector | End sector
––––––––––––––––––––––––––––-
1 | 00:00:00 | 20:55:46 | 0 | 94170
2 | 20:55:46 | 11:51:44 | 94171 | 147539
3 | 32:47:15 | 03:43:43 | 147540 | 164307
4 | 36:30:58 | 08:11:01 | 164308 | 201133
5 | 44:41:59 | 05:28:64 | 201134 | 225797
6 | 50:10:48 | 08:02:68 | 225798 | 262015
7 | 58:13:41 | 05:09:56 | 262016 | 285246
8 | 63:23:22 | 06:12:22 | 285247 | 313168

List of alternate offset correction values
# | Absolute | Relative | Confidence
–––––––––––––––––––––
1 | 72 | -30 | 12

AccurateRip Summary (DiscID: 0019d6c7-00a17cde-76104f08)
Track 01 : OK (v1+v2, confidence 25/37)
Track 02 : OK (v1+v2, confidence 27/38)
Track 03 : OK (v1+v2, confidence 26/37)
Track 04 : OK (v1+v2, confidence 26/37)
Track 05 : OK (v1+v2, confidence 26/38)
Track 06 : OK (v1+v2, confidence 24/36)
Track 07 : OK (v1+v2, confidence 24/36)
Track 08 : OK (v1+v2, confidence 24/35)
->All tracks accurately ripped.

All Tracks
Album gain : -6.82 dB
Peak : 0.966125
Statistics
Read error : 0
Jitter error (maybe fixed) : 0
Retry sector count : 0
Damaged sector count : 0

Track 01
Filename : /Users/ianwolff/Downloads/torrent seeding/Grateful Dead - Winterland 1973: The Complete Recordings (2008) [FLAC]/01 Playing In The Band.flac
Pre-gap length : 00:02:00

Track gain : -6.60 dB
Peak : 0.966125
CRC32 hash (test run) : A8726142
CRC32 hash : A8726142
CRC32 hash (skip zero) : 5F27CC97
AccurateRip v1 signature : 3BF08304
AccurateRip v2 signature : 07ACB1BE
->Accurately ripped (v1+v2, confidence 21+4/37)
Statistics
Read error : 0
Jitter error (maybe fixed) : 0
Retry sector count : 0
Damaged sector count : 0

Track 02
Filename : /Users/ianwolff/Downloads/torrent seeding/Grateful Dead - Winterland 1973: The Complete Recordings (2008) [FLAC]/02 Here Comes Sunshine.flac
Pre-gap length : 00:02:60

Track gain : -5.33 dB
Peak : 0.966095
CRC32 hash (test run) : DCCDF6FF
CRC32 hash : DCCDF6FF
CRC32 hash (skip zero) : BB197C3E
AccurateRip v1 signature : F525526D
AccurateRip v2 signature : 7AF0C9F8
->Accurately ripped (v1+v2, confidence 22+5/38)
Statistics
Read error : 0
Jitter error (maybe fixed) : 0
Retry sector count : 0
Damaged sector count : 0

Track 03
Filename : /Users/ianwolff/Downloads/torrent seeding/Grateful Dead - Winterland 1973: The Complete Recordings (2008) [FLAC]/03 Me And My Uncle.flac

Track gain : -6.38 dB
Peak : 0.966034
CRC32 hash (test run) : 8402AB86
CRC32 hash : 8402AB86
CRC32 hash (skip zero) : 020E31F2
AccurateRip v1 signature : 9201A2D8
AccurateRip v2 signature : 8CB09891
->Accurately ripped (v1+v2, confidence 21+5/37)
Statistics
Read error : 0
Jitter error (maybe fixed) : 0
Retry sector count : 0
Damaged sector count : 0

Track 04
Filename : /Users/ianwolff/Downloads/torrent seeding/Grateful Dead - Winterland 1973: The Complete Recordings (2008) [FLAC]/04 To Lay Me Down.flac

Track gain : -3.47 dB
Peak : 0.966125
CRC32 hash (test run) : 323101C7
CRC32 hash : 323101C7
CRC32 hash (skip zero) : 1EFE83FC
AccurateRip v1 signature : 0B7B306A
AccurateRip v2 signature : B2D8E60E
->Accurately ripped (v1+v2, confidence 21+5/37)
Statistics
Read error : 0
Jitter error (maybe fixed) : 0
Retry sector count : 0
Damaged sector count : 0

Track 05
Filename : /Users/ianwolff/Downloads/torrent seeding/Grateful Dead - Winterland 1973: The Complete Recordings (2008) [FLAC]/05 Big River.flac

Track gain : -7.21 dB
Peak : 0.966125
CRC32 hash (test run) : 4306A105
CRC32 hash : 4306A105
CRC32 hash (skip zero) : F98E0146
AccurateRip v1 signature : 073EE9CA
AccurateRip v2 signature : 77FFF857
->Accurately ripped (v1+v2, confidence 21+5/38)
Statistics
Read error : 0
Jitter error (maybe fixed) : 0
Retry sector count : 0
Damaged sector count : 0

Track 06
Filename : /Users/ianwolff/Downloads/torrent seeding/Grateful Dead - Winterland 1973: The Complete Recordings (2008) [FLAC]/06 Mississippi Half-Step Uptown Toodeloo.flac

Track gain : -7.12 dB
Peak : 0.966125
CRC32 hash (test run) : ACF9A307
CRC32 hash : ACF9A307
CRC32 hash (skip zero) : 3C3E0158
AccurateRip v1 signature : 373F53B5
AccurateRip v2 signature : 4C75D36B
->Accurately ripped (v1+v2, confidence 20+4/36)
Statistics
Read error : 0
Jitter error (maybe fixed) : 0
Retry sector count : 0
Damaged sector count : 0

Track 07
Filename : /Users/ianwolff/Downloads/torrent seeding/Grateful Dead - Winterland 1973: The Complete Recordings (2008) [FLAC]/07 Greatest Story Ever Told>.flac

Track gain : -8.08 dB
Peak : 0.966125
CRC32 hash (test run) : 75C6CFE3
CRC32 hash : 75C6CFE3
CRC32 hash (skip zero) : 4854B668
AccurateRip v1 signature : 2421D157
AccurateRip v2 signature : E194A7EC
->Accurately ripped (v1+v2, confidence 19+5/36)
Statistics
Read error : 0
Jitter error (maybe fixed) : 0
Retry sector count : 0
Damaged sector count : 0

Track 08
Filename : /Users/ianwolff/Downloads/torrent seeding/Grateful Dead - Winterland 1973: The Complete Recordings (2008) [FLAC]/08 Bertha.flac

Track gain : -6.65 dB
Peak : 0.966095
CRC32 hash (test run) : 3A4BDA86
CRC32 hash : 3A4BDA86
CRC32 hash (skip zero) : 86725F3F
AccurateRip v1 signature : 3E68E842
AccurateRip v2 signature : 6D19AC19
->Accurately ripped (v1+v2, confidence 19+5/35)
Statistics
Read error : 0
Jitter error (maybe fixed) : 0
Retry sector count : 0
Damaged sector count : 0

No errors occurred

End of status report

X Lossless Decoder version 20121013 (142.0)

XLD extraction logfile from 2012-11-02 13:12:31 -0400

Grateful Dead / Winterland 1973: The Complete Recordings

Used drive : MATSHITA DVD-R UJ-8A8 (revision HA13)

Ripper mode : XLD Secure Ripper
Disable audio cache : OK for the drive with a cache less than 1375KiB
Make use of C2 pointers : NO
Read offset correction : 102
Max retry count : 100
Gap status : Analyzed, Appended (except HTOA)

TOC of the extracted CD
Track | Start | Length | Start sector | End sector
––––––––––––––––––––––––––––-
1 | 00:00:00 | 15:37:74 | 0 | 70348
2 | 15:37:74 | 16:43:22 | 70349 | 145595
3 | 32:21:21 | 05:57:18 | 145596 | 172388
4 | 38:18:39 | 05:04:71 | 172389 | 195259
5 | 43:23:35 | 08:01:09 | 195260 | 231343
6 | 51:24:44 | 04:24:46 | 231344 | 251189

AccurateRip Summary (DiscID: 00104490-00523da9-4b0d1506)
Track 01 : OK (v1+v2, confidence 39/39)
Track 02 : OK (v1+v2, confidence 38/38)
Track 03 : OK (v1+v2, confidence 39/39)
Track 04 : OK (v1+v2, confidence 38/38)
Track 05 : OK (v1+v2, confidence 39/39)
Track 06 : OK (v1+v2, confidence 38/38)
->All tracks accurately ripped.

All Tracks
Album gain : -7.09 dB
Peak : 0.966125
Statistics
Read error : 0
Jitter error (maybe fixed) : 0
Retry sector count : 0
Damaged sector count : 0

Track 01
Filename : /Users/ianwolff/Downloads/torrent seeding/Grateful Dead - Winterland 1973: The Complete Recordings (2008) [FLAC]/01 Weather Report Suite>.flac
Pre-gap length : 00:02:00

Track gain : -6.46 dB
Peak : 0.966125
CRC32 hash (test run) : F47C80B4
CRC32 hash : F47C80B4
CRC32 hash (skip zero) : CE9FFF51
AccurateRip v1 signature : 5D311522
AccurateRip v2 signature : DEEF2C94
->Accurately ripped (v1+v2, confidence 34+5/39)
Statistics
Read error : 0
Jitter error (maybe fixed) : 0
Retry sector count : 0
Damaged sector count : 0

Track 02
Filename : /Users/ianwolff/Downloads/torrent seeding/Grateful Dead - Winterland 1973: The Complete Recordings (2008) [FLAC]/02 Eyes Of The World>.flac

Track gain : -6.91 dB
Peak : 0.966095
CRC32 hash (test run) : A551E165
CRC32 hash : A551E165
CRC32 hash (skip zero) : 30D75122
AccurateRip v1 signature : 2899856D
AccurateRip v2 signature : 1720B106
->Accurately ripped (v1+v2, confidence 33+5/38)
Statistics
Read error : 0
Jitter error (maybe fixed) : 0
Retry sector count : 0
Damaged sector count : 0

Track 03
Filename : /Users/ianwolff/Downloads/torrent seeding/Grateful Dead - Winterland 1973: The Complete Recordings (2008) [FLAC]/03 China Doll.flac

Track gain : -3.11 dB
Peak : 0.966095
CRC32 hash (test run) : 5FF42A21
CRC32 hash : 5FF42A21
CRC32 hash (skip zero) : 887ABF43
AccurateRip v1 signature : 3DA40F9A
AccurateRip v2 signature : 77CC852D
->Accurately ripped (v1+v2, confidence 34+5/39)
Statistics
Read error : 0
Jitter error (maybe fixed) : 0
Retry sector count : 0
Damaged sector count : 0

Track 04
Filename : /Users/ianwolff/Downloads/torrent seeding/Grateful Dead - Winterland 1973: The Complete Recordings (2008) [FLAC]/04 Around And Around>.flac

Track gain : -8.51 dB
Peak : 0.966125
CRC32 hash (test run) : D79F4719
CRC32 hash : D79F4719
CRC32 hash (skip zero) : BBC04DC5
AccurateRip v1 signature : 175F1852
AccurateRip v2 signature : 53D1F31C
->Accurately ripped (v1+v2, confidence 33+5/38)
Statistics
Read error : 0
Jitter error (maybe fixed) : 0
Retry sector count : 0
Damaged sector count : 0

Track 05
Filename : /Users/ianwolff/Downloads/torrent seeding/Grateful Dead - Winterland 1973: The Complete Recordings (2008) [FLAC]/05 Goin' Down The Road Feeling Bad>.flac

Track gain : -6.61 dB
Peak : 0.966095
CRC32 hash (test run) : BDAC7C83
CRC32 hash : BDAC7C83
CRC32 hash (skip zero) : 088370E6
AccurateRip v1 signature : 385E9F58
AccurateRip v2 signature : 2E06AE04
->Accurately ripped (v1+v2, confidence 34+5/39)
Statistics
Read error : 0
Jitter error (maybe fixed) : 0
Retry sector count : 0
Damaged sector count : 0

Track 06
Filename : /Users/ianwolff/Downloads/torrent seeding/Grateful Dead - Winterland 1973: The Complete Recordings (2008) [FLAC]/06 Johnny B. Goode.flac

Track gain : -7.15 dB
Peak : 0.966125
CRC32 hash (test run) : D681D165
CRC32 hash : D681D165
CRC32 hash (skip zero) : C7CB05A2
AccurateRip v1 signature : 103AF205
AccurateRip v2 signature : B6BFF6C6
->Accurately ripped (v1+v2, confidence 33+5/38)
Statistics
Read error : 0
Jitter error (maybe fixed) : 0
Retry sector count : 0
Damaged sector count : 0

No errors occurred

End of status report

X Lossless Decoder version 20121013 (142.0)

XLD extraction logfile from 2012-11-02 13:31:03 -0400

Grateful Dead / Winterland 1973: The Complete Recordings

Used drive : MATSHITA DVD-R UJ-8A8 (revision HA13)

Ripper mode : XLD Secure Ripper
Disable audio cache : OK for the drive with a cache less than 1375KiB
Make use of C2 pointers : NO
Read offset correction : 102
Max retry count : 100
Gap status : Analyzed, Appended (except HTOA)

TOC of the extracted CD
Track | Start | Length | Start sector | End sector
––––––––––––––––––––––––––––-
1 | 00:00:00 | 07:10:38 | 0 | 32287
2 | 07:10:38 | 05:14:53 | 32288 | 55890
3 | 12:25:16 | 06:40:17 | 55891 | 85907
4 | 19:05:33 | 07:50:32 | 85908 | 121189
5 | 26:55:65 | 04:39:64 | 121190 | 142178
6 | 31:35:54 | 03:41:45 | 142179 | 158798
7 | 35:17:24 | 08:39:26 | 158799 | 197749
8 | 43:56:50 | 04:54:08 | 197750 | 219807
9 | 48:50:58 | 06:12:22 | 219808 | 247729
10 | 55:03:05 | 03:51:57 | 247730 | 265111
11 | 58:54:62 | 08:51:08 | 265112 | 304944

AccurateRip Summary (DiscID: 001bf2b0-00f0791b-9e0fe10b)
Track 01 : OK (v1+v2, confidence 40/40)
Track 02 : OK (v1+v2, confidence 42/42)
Track 03 : OK (v1+v2, confidence 42/42)
Track 04 : OK (v1+v2, confidence 41/41)
Track 05 : OK (v1+v2, confidence 42/42)
Track 06 : OK (v1+v2, confidence 41/41)
Track 07 : OK (v1+v2, confidence 40/40)
Track 08 : OK (v1+v2, confidence 40/40)
Track 09 : OK (v1+v2, confidence 39/39)
Track 10 : OK (v1+v2, confidence 41/41)
Track 11 : OK (v1+v2, confidence 40/40)
->All tracks accurately ripped.

All Tracks
Album gain : -6.45 dB
Peak : 0.966125
Statistics
Read error : 0
Jitter error (maybe fixed) : 0
Retry sector count : 0
Damaged sector count : 0

Track 01
Filename : /Users/ianwolff/Downloads/torrent seeding/Grateful Dead - Winterland 1973: The Complete Recordings (2008) [FLAC]/01 Bertha.flac
Pre-gap length : 00:02:00

Track gain : -7.74 dB
Peak : 0.966125
CRC32 hash (test run) : A4EA1DD9
CRC32 hash : A4EA1DD9
CRC32 hash (skip zero) : 4D1FCD8B
AccurateRip v1 signature : 824F7BCC
AccurateRip v2 signature : 13096C2F
->Accurately ripped (v1+v2, confidence 35+5/40)
Statistics
Read error : 0
Jitter error (maybe fixed) : 0
Retry sector count : 0
Damaged sector count : 0

Track 02
Filename : /Users/ianwolff/Downloads/torrent seeding/Grateful Dead - Winterland 1973: The Complete Recordings (2008) [FLAC]/02 Jack Straw.flac

Track gain : -7.72 dB
Peak : 0.966125
CRC32 hash (test run) : D0215286
CRC32 hash : D0215286
CRC32 hash (skip zero) : 0DD40D6F
AccurateRip v1 signature : 5AA6EEC1
AccurateRip v2 signature : CFD1A7EC
->Accurately ripped (v1+v2, confidence 37+5/42)
Statistics
Read error : 0
Jitter error (maybe fixed) : 0
Retry sector count : 0
Damaged sector count : 0

Track 03
Filename : /Users/ianwolff/Downloads/torrent seeding/Grateful Dead - Winterland 1973: The Complete Recordings (2008) [FLAC]/03 Loser.flac

Track gain : -4.49 dB
Peak : 0.966095
CRC32 hash (test run) : 84E1FE8C
CRC32 hash : 84E1FE8C
CRC32 hash (skip zero) : BC6F0FEB
AccurateRip v1 signature : 0F0BCF98
AccurateRip v2 signature : 18977A55
->Accurately ripped (v1+v2, confidence 37+5/42)
Statistics
Read error : 0
Jitter error (maybe fixed) : 0
Retry sector count : 0
Damaged sector count : 0

Track 04
Filename : /Users/ianwolff/Downloads/torrent seeding/Grateful Dead - Winterland 1973: The Complete Recordings (2008) [FLAC]/04 Looks Like Rain.flac

Track gain : -6.40 dB
Peak : 0.966095
CRC32 hash (test run) : 3E037927
CRC32 hash : 3E037927
CRC32 hash (skip zero) : 356AAC2A
AccurateRip v1 signature : 653AFAB7
AccurateRip v2 signature : 383EE113
->Accurately ripped (v1+v2, confidence 36+5/41)
Statistics
Read error : 0
Jitter error (maybe fixed) : 0
Retry sector count : 0
Damaged sector count : 0

Track 05
Filename : /Users/ianwolff/Downloads/torrent seeding/Grateful Dead - Winterland 1973: The Complete Recordings (2008) [FLAC]/05 Deal.flac

Track gain : -7.95 dB
Peak : 0.966125
CRC32 hash (test run) : 4882C57E
CRC32 hash : 4882C57E
CRC32 hash (skip zero) : C5EEA054
AccurateRip v1 signature : 1FF2BDC1
AccurateRip v2 signature : 31AEFFD5
->Accurately ripped (v1+v2, confidence 37+5/42)
Statistics
Read error : 0
Jitter error (maybe fixed) : 0
Retry sector count : 0
Damaged sector count : 0

Track 06
Filename : /Users/ianwolff/Downloads/torrent seeding/Grateful Dead - Winterland 1973: The Complete Recordings (2008) [FLAC]/06 Mexicali Blues.flac

Track gain : -5.86 dB
Peak : 0.966095
CRC32 hash (test run) : 535F22A2
CRC32 hash : 535F22A2
CRC32 hash (skip zero) : 0DE00EC6
AccurateRip v1 signature : BDB21382
AccurateRip v2 signature : 4F36ED0F
->Accurately ripped (v1+v2, confidence 36+5/41)
Statistics
Read error : 0
Jitter error (maybe fixed) : 0
Retry sector count : 0
Damaged sector count : 0

Track 07
Filename : /Users/ianwolff/Downloads/torrent seeding/Grateful Dead - Winterland 1973: The Complete Recordings (2008) [FLAC]/07 Tennessee Jed.flac

Track gain : -5.93 dB
Peak : 0.966125
CRC32 hash (test run) : 4F56F60B
CRC32 hash : 4F56F60B
CRC32 hash (skip zero) : 5AAECF25
AccurateRip v1 signature : E9256FA9
AccurateRip v2 signature : D09D1469
->Accurately ripped (v1+v2, confidence 35+5/40)
Statistics
Read error : 0
Jitter error (maybe fixed) : 0
Retry sector count : 0
Damaged sector count : 0

Track 08
Filename : /Users/ianwolff/Downloads/torrent seeding/Grateful Dead - Winterland 1973: The Complete Recordings (2008) [FLAC]/08 El Paso.flac

Track gain : -4.49 dB
Peak : 0.966125
CRC32 hash (test run) : CC749858
CRC32 hash : CC749858
CRC32 hash (skip zero) : 9AB3E29D
AccurateRip v1 signature : 65610A5A
AccurateRip v2 signature : F03EEB42
->Accurately ripped (v1+v2, confidence 35+5/40)
Statistics
Read error : 0
Jitter error (maybe fixed) : 0
Retry sector count : 0
Damaged sector count : 0

Track 09
Filename : /Users/ianwolff/Downloads/torrent seeding/Grateful Dead - Winterland 1973: The Complete Recordings (2008) [FLAC]/09 Brokedown Palace.flac

Track gain : -3.52 dB
Peak : 0.966125
CRC32 hash (test run) : CF53FC03
CRC32 hash : CF53FC03
CRC32 hash (skip zero) : A226D621
AccurateRip v1 signature : BD3C3AB8
AccurateRip v2 signature : 4FF6D5E2
->Accurately ripped (v1+v2, confidence 35+4/39)
Statistics
Read error : 0
Jitter error (maybe fixed) : 0
Retry sector count : 0
Damaged sector count : 0

Track 10
Filename : /Users/ianwolff/Downloads/torrent seeding/Grateful Dead - Winterland 1973: The Complete Recordings (2008) [FLAC]/10 Beat It On Down The Line.flac

Track gain : -7.34 dB
Peak : 0.966125
CRC32 hash (test run) : 55274A74
CRC32 hash : 55274A74
CRC32 hash (skip zero) : 8ECD7F40
AccurateRip v1 signature : 1640AC53
AccurateRip v2 signature : 97C6A9F8
->Accurately ripped (v1+v2, confidence 36+5/41)
Statistics
Read error : 0
Jitter error (maybe fixed) : 0
Retry sector count : 0
Damaged sector count : 0

Track 11
Filename : /Users/ianwolff/Downloads/torrent seeding/Grateful Dead - Winterland 1973: The Complete Recordings (2008) [FLAC]/11 Row Jimmy.flac

Track gain : -5.54 dB
Peak : 0.966125
CRC32 hash (test run) : 14695053
CRC32 hash : 14695053
CRC32 hash (skip zero) : 741504FA
AccurateRip v1 signature : 5AC425F8
AccurateRip v2 signature : 7282C99E
->Accurately ripped (v1+v2, confidence 35+5/40)
Statistics
Read error : 0
Jitter error (maybe fixed) : 0
Retry sector count : 0
Damaged sector count : 0

No errors occurred

End of status report

X Lossless Decoder version 20121013 (142.0)

XLD extraction logfile from 2012-11-04 14:05:46 -0500

Grateful Dead / Winterland 1973: The Complete Recordings

Used drive : MATSHITA DVD-R UJ-8A8 (revision HA13)

Ripper mode : XLD Secure Ripper
Disable audio cache : OK for the drive with a cache less than 1375KiB
Make use of C2 pointers : NO
Read offset correction : 102
Max retry count : 100
Gap status : Analyzed, Appended (except HTOA)

TOC of the extracted CD
Track | Start | Length | Start sector | End sector
––––––––––––––––––––––––––––-
1 | 00:00:00 | 18:25:46 | 0 | 82920
2 | 18:25:46 | 11:58:54 | 82921 | 136824
3 | 30:24:25 | 09:38:48 | 136825 | 180222
4 | 40:02:73 | 12:23:70 | 180223 | 236017
5 | 52:26:68 | 01:49:62 | 236018 | 244254
6 | 54:16:55 | 07:37:64 | 244255 | 278593

AccurateRip Summary (DiscID: 0011aeb4-0059eb7c-480e8206)
Track 01 : OK (v1+v2, confidence 42/42)
Track 02 : OK (v1+v2, confidence 42/42)
Track 03 : OK (v1+v2, confidence 42/42)
Track 04 : OK (v1+v2, confidence 42/42)
Track 05 : OK (v1+v2, confidence 42/42)
Track 06 : OK (v1+v2, confidence 41/41)
->All tracks accurately ripped.

All Tracks
Album gain : -5.97 dB
Peak : 0.966156
Statistics
Read error : 0
Jitter error (maybe fixed) : 0
Retry sector count : 0
Damaged sector count : 0

Track 01
Filename : /Users/ianwolff/Downloads/torrent seeding/Grateful Dead - Winterland 1973: The Complete Recordings (2008) [FLAC]/01 Weather Report Suite.flac
Pre-gap length : 00:02:00

Track gain : -6.13 dB
Peak : 0.966095
CRC32 hash (test run) : 1A9BDA3C
CRC32 hash : 1A9BDA3C
CRC32 hash (skip zero) : B26D61EC
AccurateRip v1 signature : 9E77C432
AccurateRip v2 signature : 4A6A38A5
->Accurately ripped (v1+v2, confidence 37+5/42)
Statistics
Read error : 0
Jitter error (maybe fixed) : 0
Retry sector count : 0
Damaged sector count : 0

Track 02
Filename : /Users/ianwolff/Downloads/torrent seeding/Grateful Dead - Winterland 1973: The Complete Recordings (2008) [FLAC]/02 Playing In The Band>.flac

Track gain : -6.76 dB
Peak : 0.966125
CRC32 hash (test run) : C5ADAC01
CRC32 hash : C5ADAC01
CRC32 hash (skip zero) : E7FB957E
AccurateRip v1 signature : E2AA8269
AccurateRip v2 signature : C0776184
->Accurately ripped (v1+v2, confidence 37+5/42)
Statistics
Read error : 0
Jitter error (maybe fixed) : 0
Retry sector count : 0
Damaged sector count : 0

Track 03
Filename : /Users/ianwolff/Downloads/torrent seeding/Grateful Dead - Winterland 1973: The Complete Recordings (2008) [FLAC]/03 Uncle John's Band>.flac

Track gain : -5.65 dB
Peak : 0.966095
CRC32 hash (test run) : 831AE23A
CRC32 hash : 831AE23A
CRC32 hash (skip zero) : A33B7836
AccurateRip v1 signature : AFA1F904
AccurateRip v2 signature : 0DE01400
->Accurately ripped (v1+v2, confidence 37+5/42)
Statistics
Read error : 0
Jitter error (maybe fixed) : 0
Retry sector count : 0
Damaged sector count : 0

Track 04
Filename : /Users/ianwolff/Downloads/torrent seeding/Grateful Dead - Winterland 1973: The Complete Recordings (2008) [FLAC]/04 Morning Dew>.flac

Track gain : -5.46 dB
Peak : 0.966156
CRC32 hash (test run) : 47F71F5F
CRC32 hash : 47F71F5F
CRC32 hash (skip zero) : 56E5ECBA
AccurateRip v1 signature : 906F846C
AccurateRip v2 signature : 14345052
->Accurately ripped (v1+v2, confidence 37+5/42)
Statistics
Read error : 0
Jitter error (maybe fixed) : 0
Retry sector count : 0
Damaged sector count : 0

Track 05
Filename : /Users/ianwolff/Downloads/torrent seeding/Grateful Dead - Winterland 1973: The Complete Recordings (2008) [FLAC]/05 Uncle John's Band>.flac

Track gain : -5.39 dB
Peak : 0.966095
CRC32 hash (test run) : 2A8B0810
CRC32 hash : 2A8B0810
CRC32 hash (skip zero) : 9F44118D
AccurateRip v1 signature : 97FC0D7B
AccurateRip v2 signature : 4B426408
->Accurately ripped (v1+v2, confidence 37+5/42)
Statistics
Read error : 0
Jitter error (maybe fixed) : 0
Retry sector count : 0
Damaged sector count : 0

Track 06
Filename : /Users/ianwolff/Downloads/torrent seeding/Grateful Dead - Winterland 1973: The Complete Recordings (2008) [FLAC]/06 Playing In The Band.flac

Track gain : -5.46 dB
Peak : 0.966095
CRC32 hash (test run) : 98A94A34
CRC32 hash : 98A94A34
CRC32 hash (skip zero) : 408243CD
AccurateRip v1 signature : AC88CF29
AccurateRip v2 signature : 923C9061
->Accurately ripped (v1+v2, confidence 36+5/41)
Statistics
Read error : 0
Jitter error (maybe fixed) : 0
Retry sector count : 0
Damaged sector count : 0

No errors occurred

End of status report

X Lossless Decoder version 20121013 (142.0)

XLD extraction logfile from 2012-11-02 14:29:04 -0400

Grateful Dead / Winterland 1973: The Complete Recordings

Used drive : MATSHITA DVD-R UJ-8A8 (revision HA13)

Ripper mode : XLD Secure Ripper
Disable audio cache : OK for the drive with a cache less than 1375KiB
Make use of C2 pointers : NO
Read offset correction : 102
Max retry count : 100
Gap status : Analyzed, Appended (except HTOA)

TOC of the extracted CD
Track | Start | Length | Start sector | End sector
––––––––––––––––––––––––––––-
1 | 00:00:00 | 05:11:38 | 0 | 23362
2 | 05:11:38 | 08:18:37 | 23363 | 60749
3 | 13:30:00 | 12:17:61 | 60750 | 116085
4 | 25:47:61 | 08:43:06 | 116086 | 155316
5 | 34:30:67 | 10:38:45 | 155317 | 203211
6 | 45:09:37 | 05:28:07 | 203212 | 227818
7 | 50:37:44 | 07:05:06 | 227819 | 259699

AccurateRip Summary (DiscID: 000ff6e7-006111a7-4c0d8607)
Track 01 : OK (v1+v2, confidence 39/39)
Track 02 : OK (v1+v2, confidence 40/40)
Track 03 : OK (v1+v2, confidence 41/41)
Track 04 : OK (v1+v2, confidence 41/41)
Track 05 : OK (v1+v2, confidence 41/41)
Track 06 : OK (v1+v2, confidence 39/39)
Track 07 : OK (v1+v2, confidence 39/39)
->All tracks accurately ripped.

All Tracks
Album gain : -6.22 dB
Peak : 0.966125
Statistics
Read error : 0
Jitter error (maybe fixed) : 0
Retry sector count : 0
Damaged sector count : 0

Track 01
Filename : /Users/ianwolff/Downloads/torrent seeding/Grateful Dead - Winterland 1973: The Complete Recordings (2008) [FLAC]/01 Big River.flac
Pre-gap length : 00:02:00

Track gain : -6.04 dB
Peak : 0.966095
CRC32 hash (test run) : BBE39B1E
CRC32 hash : BBE39B1E
CRC32 hash (skip zero) : B576679E
AccurateRip v1 signature : 284ACA81
AccurateRip v2 signature : 1ADCD1D9
->Accurately ripped (v1+v2, confidence 34+5/39)
Statistics
Read error : 0
Jitter error (maybe fixed) : 0
Retry sector count : 0
Damaged sector count : 0

Track 02
Filename : /Users/ianwolff/Downloads/torrent seeding/Grateful Dead - Winterland 1973: The Complete Recordings (2008) [FLAC]/02 Stella Blue.flac

Track gain : -5.53 dB
Peak : 0.966125
CRC32 hash (test run) : DCBC059F
CRC32 hash : DCBC059F
CRC32 hash (skip zero) : 68206818
AccurateRip v1 signature : DFD43E1E
AccurateRip v2 signature : 0B522E8E
->Accurately ripped (v1+v2, confidence 35+5/40)
Statistics
Read error : 0
Jitter error (maybe fixed) : 0
Retry sector count : 0
Damaged sector count : 0

Track 03
Filename : /Users/ianwolff/Downloads/torrent seeding/Grateful Dead - Winterland 1973: The Complete Recordings (2008) [FLAC]/03 Truckin'>.flac

Track gain : -6.38 dB
Peak : 0.966095
CRC32 hash (test run) : 64F7A809
CRC32 hash : 64F7A809
CRC32 hash (skip zero) : CB666798
AccurateRip v1 signature : 83572985
AccurateRip v2 signature : 264F75EF
->Accurately ripped (v1+v2, confidence 36+5/41)
Statistics
Read error : 0
Jitter error (maybe fixed) : 0
Retry sector count : 0
Damaged sector count : 0

Track 04
Filename : /Users/ianwolff/Downloads/torrent seeding/Grateful Dead - Winterland 1973: The Complete Recordings (2008) [FLAC]/04 Wharf Rat>.flac

Track gain : -4.05 dB
Peak : 0.966125
CRC32 hash (test run) : B99108C6
CRC32 hash : B99108C6
CRC32 hash (skip zero) : 8FAB6CF2
AccurateRip v1 signature : BFC5AA3F
AccurateRip v2 signature : DD196535
->Accurately ripped (v1+v2, confidence 36+5/41)
Statistics
Read error : 0
Jitter error (maybe fixed) : 0
Retry sector count : 0
Damaged sector count : 0

Track 05
Filename : /Users/ianwolff/Downloads/torrent seeding/Grateful Dead - Winterland 1973: The Complete Recordings (2008) [FLAC]/05 Sugar Magnolia.flac

Track gain : -7.01 dB
Peak : 0.966125
CRC32 hash (test run) : 4446028D
CRC32 hash : 4446028D
CRC32 hash (skip zero) : 14236A17
AccurateRip v1 signature : 688A97DE
AccurateRip v2 signature : D8A3DC2C
->Accurately ripped (v1+v2, confidence 36+5/41)
Statistics
Read error : 0
Jitter error (maybe fixed) : 0
Retry sector count : 0
Damaged sector count : 0

Track 06
Filename : /Users/ianwolff/Downloads/torrent seeding/Grateful Dead - Winterland 1973: The Complete Recordings (2008) [FLAC]/06 One More Saturday Night.flac

Track gain : -6.52 dB
Peak : 0.966125
CRC32 hash (test run) : F5997942
CRC32 hash : F5997942
CRC32 hash (skip zero) : F55C8069
AccurateRip v1 signature : 47A40EEF
AccurateRip v2 signature : 1D97761E
->Accurately ripped (v1+v2, confidence 35+4/39)
Statistics
Read error : 0
Jitter error (maybe fixed) : 0
Retry sector count : 0
Damaged sector count : 0

Track 07
Filename : /Users/ianwolff/Downloads/torrent seeding/Grateful Dead - Winterland 1973: The Complete Recordings (2008) [FLAC]/07 Casey Jones.flac

Track gain : -5.98 dB
Peak : 0.966095
CRC32 hash (test run) : 9C615691
CRC32 hash : 9C615691
CRC32 hash (skip zero) : 41DFE582
AccurateRip v1 signature : 96AD693A
AccurateRip v2 signature : C5ED3777
->Accurately ripped (v1+v2, confidence 34+5/39)
Statistics
Read error : 0
Jitter error (maybe fixed) : 0
Retry sector count : 0
Damaged sector count : 0

No errors occurred

End of status report

X Lossless Decoder version 20121013 (142.0)

XLD extraction logfile from 2012-11-02 16:29:37 -0400

Grateful Dead / Winterland 1973: The Complete Recordings

Used drive : MATSHITA DVD-R UJ-8A8 (revision HA13)

Ripper mode : XLD Secure Ripper
Disable audio cache : OK for the drive with a cache less than 1375KiB
Make use of C2 pointers : NO
Read offset correction : 102
Max retry count : 100
Gap status : Analyzed, Appended (except HTOA)

TOC of the extracted CD
Track | Start | Length | Start sector | End sector
––––––––––––––––––––––––––––-
1 | 00:00:00 | 03:42:08 | 0 | 16657
2 | 03:42:08 | 06:04:09 | 16658 | 43966
3 | 09:46:17 | 06:06:62 | 43967 | 71478
4 | 15:53:04 | 07:55:47 | 71479 | 107150
5 | 23:48:51 | 07:47:22 | 107151 | 142197
6 | 31:35:73 | 08:27:52 | 142198 | 180274
7 | 40:03:50 | 04:45:22 | 180275 | 201671
8 | 44:48:72 | 07:03:60 | 201672 | 233456
9 | 51:52:57 | 05:55:54 | 233457 | 260135

AccurateRip Summary (DiscID: 00132e21-008fb47b-780d8c09)
Track 01 : OK (v1+v2, confidence 37/37)
Track 02 : OK (v1+v2, confidence 38/38)
Track 03 : OK (v1+v2, confidence 37/37)
Track 04 : OK (v1+v2, confidence 38/38)
Track 05 : OK (v1+v2, confidence 37/37)
Track 06 : OK (v1+v2, confidence 37/37)
Track 07 : OK (v1+v2, confidence 37/37)
Track 08 : OK (v1+v2, confidence 38/38)
Track 09 : OK (v1+v2, confidence 37/37)
->All tracks accurately ripped.

All Tracks
Album gain : -6.40 dB
Peak : 0.966125
Statistics
Read error : 0
Jitter error (maybe fixed) : 0
Retry sector count : 0
Damaged sector count : 0

Track 01
Filename : /Users/ianwolff/Downloads/torrent seeding/Grateful Dead - Winterland 1973: The Complete Recordings (2008) [FLAC]/01 Promised Land>.flac
Pre-gap length : 00:02:00

Track gain : -5.93 dB
Peak : 0.966034
CRC32 hash (test run) : 0C0B7C3F
CRC32 hash : 0C0B7C3F
CRC32 hash (skip zero) : 3D83AF97
AccurateRip v1 signature : 2C1A5319
AccurateRip v2 signature : E321BEE6
->Accurately ripped (v1+v2, confidence 32+5/37)
Statistics
Read error : 0
Jitter error (maybe fixed) : 0
Retry sector count : 0
Damaged sector count : 0

Track 02
Filename : /Users/ianwolff/Downloads/torrent seeding/Grateful Dead - Winterland 1973: The Complete Recordings (2008) [FLAC]/02 Bertha>.flac

Track gain : -7.50 dB
Peak : 0.966125
CRC32 hash (test run) : 15C28D0D
CRC32 hash : 15C28D0D
CRC32 hash (skip zero) : B1C2ED80
AccurateRip v1 signature : 1F13D630
AccurateRip v2 signature : 272F170B
->Accurately ripped (v1+v2, confidence 33+5/38)
Statistics
Read error : 0
Jitter error (maybe fixed) : 0
Retry sector count : 0
Damaged sector count : 0

Track 03
Filename : /Users/ianwolff/Downloads/torrent seeding/Grateful Dead - Winterland 1973: The Complete Recordings (2008) [FLAC]/03 Greatest Story Ever Told.flac

Track gain : -7.61 dB
Peak : 0.966095
CRC32 hash (test run) : 4EFADB69
CRC32 hash : 4EFADB69
CRC32 hash (skip zero) : FCB2FF93
AccurateRip v1 signature : 4EAB8845
AccurateRip v2 signature : 027C583D
->Accurately ripped (v1+v2, confidence 32+5/37)
Statistics
Read error : 0
Jitter error (maybe fixed) : 0
Retry sector count : 0
Damaged sector count : 0

Track 04
Filename : /Users/ianwolff/Downloads/torrent seeding/Grateful Dead - Winterland 1973: The Complete Recordings (2008) [FLAC]/04 Sugaree.flac

Track gain : -6.26 dB
Peak : 0.966095
CRC32 hash (test run) : 70E25785
CRC32 hash : 70E25785
CRC32 hash (skip zero) : 1ED3BFC8
AccurateRip v1 signature : 2F88BF8E
AccurateRip v2 signature : DEC022EE
->Accurately ripped (v1+v2, confidence 33+5/38)
Statistics
Read error : 0
Jitter error (maybe fixed) : 0
Retry sector count : 0
Damaged sector count : 0

Track 05
Filename : /Users/ianwolff/Downloads/torrent seeding/Grateful Dead - Winterland 1973: The Complete Recordings (2008) [FLAC]/05 Black-Throated Wind.flac

Track gain : -4.99 dB
Peak : 0.966095
CRC32 hash (test run) : CC6B1A55
CRC32 hash : CC6B1A55
CRC32 hash (skip zero) : 4A01D2B3
AccurateRip v1 signature : 27284E57
AccurateRip v2 signature : BDA9AC9E
->Accurately ripped (v1+v2, confidence 32+5/37)
Statistics
Read error : 0
Jitter error (maybe fixed) : 0
Retry sector count : 0
Damaged sector count : 0

Track 06
Filename : /Users/ianwolff/Downloads/torrent seeding/Grateful Dead - Winterland 1973: The Complete Recordings (2008) [FLAC]/06 To Lay Me Down.flac

Track gain : -2.38 dB
Peak : 0.966125
CRC32 hash (test run) : D82948E6
CRC32 hash : D82948E6
CRC32 hash (skip zero) : 21FF0E63
AccurateRip v1 signature : 76441979
AccurateRip v2 signature : 32AB49C2
->Accurately ripped (v1+v2, confidence 32+5/37)
Statistics
Read error : 0
Jitter error (maybe fixed) : 0
Retry sector count : 0
Damaged sector count : 0

Track 07
Filename : /Users/ianwolff/Downloads/torrent seeding/Grateful Dead - Winterland 1973: The Complete Recordings (2008) [FLAC]/07 El Paso.flac

Track gain : -5.57 dB
Peak : 0.966095
CRC32 hash (test run) : 06017086
CRC32 hash : 06017086
CRC32 hash (skip zero) : EE1EEB50
AccurateRip v1 signature : 55C5FB62
AccurateRip v2 signature : E4D2BF65
->Accurately ripped (v1+v2, confidence 32+5/37)
Statistics
Read error : 0
Jitter error (maybe fixed) : 0
Retry sector count : 0
Damaged sector count : 0

Track 08
Filename : /Users/ianwolff/Downloads/torrent seeding/Grateful Dead - Winterland 1973: The Complete Recordings (2008) [FLAC]/08 Ramble On Rose.flac

Track gain : -6.06 dB
Peak : 0.966125
CRC32 hash (test run) : FE232BAE
CRC32 hash : FE232BAE
CRC32 hash (skip zero) : 5A8ADCD8
AccurateRip v1 signature : 239D1EBA
AccurateRip v2 signature : 1E046563
->Accurately ripped (v1+v2, confidence 33+5/38)
Statistics
Read error : 0
Jitter error (maybe fixed) : 0
Retry sector count : 0
Damaged sector count : 0

Track 09
Filename : /Users/ianwolff/Downloads/torrent seeding/Grateful Dead - Winterland 1973: The Complete Recordings (2008) [FLAC]/09 Me & Bobby McGee.flac

Track gain : -6.25 dB
Peak : 0.966095
CRC32 hash (test run) : AB896E18
CRC32 hash : AB896E18
CRC32 hash (skip zero) : DD579D5A
AccurateRip v1 signature : 95C76D04
AccurateRip v2 signature : AD432C86
->Accurately ripped (v1+v2, confidence 32+5/37)
Statistics
Read error : 0
Jitter error (maybe fixed) : 0
Retry sector count : 0
Damaged sector count : 0

No errors occurred

End of status report

X Lossless Decoder version 20121013 (142.0)

XLD extraction logfile from 2012-11-02 17:02:57 -0400

Grateful Dead / Winterland 1973: The Complete Recordings

Used drive : MATSHITA DVD-R UJ-8A8 (revision HA13)

Ripper mode : XLD Secure Ripper
Disable audio cache : OK for the drive with a cache less than 1375KiB
Make use of C2 pointers : NO
Read offset correction : 102
Max retry count : 100
Gap status : Analyzed, Appended (except HTOA)

TOC of the extracted CD
Track | Start | Length | Start sector | End sector
––––––––––––––––––––––––––––-
1 | 00:00:00 | 09:26:57 | 0 | 42506
2 | 09:26:57 | 06:03:51 | 42507 | 69782
3 | 15:30:33 | 03:33:73 | 69783 | 85830
4 | 19:04:31 | 07:51:61 | 85831 | 121216
5 | 26:56:17 | 15:10:63 | 121217 | 189529
6 | 42:07:05 | 08:25:43 | 189530 | 227447
7 | 50:32:48 | 07:05:08 | 227448 | 259330

AccurateRip Summary (DiscID: 000f313f-005c47f9-5b0d8107)
Track 01 : OK (v1+v2, confidence 38/38)
Track 02 : OK (v1+v2, confidence 38/38)
Track 03 : OK (v1+v2, confidence 38/38)
Track 04 : OK (v1+v2, confidence 38/38)
Track 05 : OK (v1+v2, confidence 37/37)
Track 06 : OK (v1+v2, confidence 38/38)
Track 07 : OK (v1+v2, confidence 37/37)
->All tracks accurately ripped.

All Tracks
Album gain : -6.89 dB
Peak : 0.966125
Statistics
Read error : 0
Jitter error (maybe fixed) : 0
Retry sector count : 0
Damaged sector count : 0

Track 01
Filename : /Users/ianwolff/Downloads/torrent seeding/Grateful Dead - Winterland 1973: The Complete Recordings (2008) [FLAC]/01 China Cat Sunflower>.flac
Pre-gap length : 00:02:00

Track gain : -5.84 dB
Peak : 0.966125
CRC32 hash (test run) : 19E76748
CRC32 hash : 19E76748
CRC32 hash (skip zero) : E6CEF690
AccurateRip v1 signature : 79205E30
AccurateRip v2 signature : 5E7C0194
->Accurately ripped (v1+v2, confidence 33+5/38)
Statistics
Read error : 0
Jitter error (maybe fixed) : 0
Retry sector count : 0
Damaged sector count : 0

Track 02
Filename : /Users/ianwolff/Downloads/torrent seeding/Grateful Dead - Winterland 1973: The Complete Recordings (2008) [FLAC]/02 I Know You Rider.flac

Track gain : -6.67 dB
Peak : 0.966125
CRC32 hash (test run) : 7CE49CD9
CRC32 hash : 7CE49CD9
CRC32 hash (skip zero) : D7D7EAA9
AccurateRip v1 signature : 9632E401
AccurateRip v2 signature : CA43E9EC
->Accurately ripped (v1+v2, confidence 33+5/38)
Statistics
Read error : 0
Jitter error (maybe fixed) : 0
Retry sector count : 0
Damaged sector count : 0

Track 03
Filename : /Users/ianwolff/Downloads/torrent seeding/Grateful Dead - Winterland 1973: The Complete Recordings (2008) [FLAC]/03 Me And My Uncle.flac

Track gain : -6.14 dB
Peak : 0.966095
CRC32 hash (test run) : 52B760F4
CRC32 hash : 52B760F4
CRC32 hash (skip zero) : F453DE7D
AccurateRip v1 signature : AF189EB9
AccurateRip v2 signature : 757D0E32
->Accurately ripped (v1+v2, confidence 33+5/38)
Statistics
Read error : 0
Jitter error (maybe fixed) : 0
Retry sector count : 0
Damaged sector count : 0

Track 04
Filename : /Users/ianwolff/Downloads/torrent seeding/Grateful Dead - Winterland 1973: The Complete Recordings (2008) [FLAC]/04 Loose Lucy.flac

Track gain : -7.85 dB
Peak : 0.966125
CRC32 hash (test run) : D8CB89A4
CRC32 hash : D8CB89A4
CRC32 hash (skip zero) : 165AA471
AccurateRip v1 signature : 260AF152
AccurateRip v2 signature : 7D981C5A
->Accurately ripped (v1+v2, confidence 33+5/38)
Statistics
Read error : 0
Jitter error (maybe fixed) : 0
Retry sector count : 0
Damaged sector count : 0

Track 05
Filename : /Users/ianwolff/Downloads/torrent seeding/Grateful Dead - Winterland 1973: The Complete Recordings (2008) [FLAC]/05 Weather Report Suite.flac

Track gain : -5.82 dB
Peak : 0.966125
CRC32 hash (test run) : BCAC35FB
CRC32 hash : BCAC35FB
CRC32 hash (skip zero) : 3B9CC249
AccurateRip v1 signature : 488F908D
AccurateRip v2 signature : 05AE8DE9
->Accurately ripped (v1+v2, confidence 32+5/37)
Statistics
Read error : 0
Jitter error (maybe fixed) : 0
Retry sector count : 0
Damaged sector count : 0

Track 06
Filename : /Users/ianwolff/Downloads/torrent seeding/Grateful Dead - Winterland 1973: The Complete Recordings (2008) [FLAC]/06 Mississippi Half-Step Uptown Toodeloo.flac
Pre-gap length : 00:04:01

Track gain : -7.90 dB
Peak : 0.966125
CRC32 hash (test run) : D8447636
CRC32 hash : D8447636
CRC32 hash (skip zero) : FC358447
AccurateRip v1 signature : 2C46FED6
AccurateRip v2 signature : FC54D107
->Accurately ripped (v1+v2, confidence 33+5/38)
Statistics
Read error : 0
Jitter error (maybe fixed) : 0
Retry sector count : 0
Damaged sector count : 0

Track 07
Filename : /Users/ianwolff/Downloads/torrent seeding/Grateful Dead - Winterland 1973: The Complete Recordings (2008) [FLAC]/07 Big River.flac

Track gain : -7.61 dB
Peak : 0.966125
CRC32 hash (test run) : 45586021
CRC32 hash : 45586021
CRC32 hash (skip zero) : A2BEAD91
AccurateRip v1 signature : FF6E1349
AccurateRip v2 signature : A3B5F6E9
->Accurately ripped (v1+v2, confidence 32+5/37)
Statistics
Read error : 0
Jitter error (maybe fixed) : 0
Retry sector count : 0
Damaged sector count : 0

No errors occurred

End of status report

X Lossless Decoder version 20121013 (142.0)

XLD extraction logfile from 2012-11-02 17:21:33 -0400

Grateful Dead / Winterland 1973: The Complete Recordings

Used drive : MATSHITA DVD-R UJ-8A8 (revision HA13)

Ripper mode : XLD Secure Ripper
Disable audio cache : OK for the drive with a cache less than 1375KiB
Make use of C2 pointers : NO
Read offset correction : 102
Max retry count : 100
Gap status : Analyzed, Appended (except HTOA)

TOC of the extracted CD
Track | Start | Length | Start sector | End sector
––––––––––––––––––––––––––––-
1 | 00:00:00 | 35:40:38 | 0 | 160537
2 | 35:40:38 | 13:35:57 | 160538 | 221719
3 | 49:16:20 | 05:40:22 | 221720 | 247241
4 | 54:56:42 | 10:19:01 | 247242 | 293667
5 | 65:15:43 | 07:32:25 | 293668 | 327592
6 | 72:47:68 | 03:55:71 | 327593 | 345288
7 | 76:43:64 | 03:10:45 | 345289 | 359583

AccurateRip Summary (DiscID: 001dd732-00a34fce-7212ba07)
Track 01 : OK (v1+v2, confidence 39/39)
Track 02 : OK (v1+v2, confidence 39/39)
Track 03 : OK (v1+v2, confidence 39/39)
Track 04 : OK (v1+v2, confidence 37/37)
Track 05 : OK (v1+v2, confidence 38/38)
Track 06 : OK (v1+v2, confidence 38/38)
Track 07 : OK (v1+v2, confidence 39/39)
->All tracks accurately ripped.

All Tracks
Album gain : -6.64 dB
Peak : 0.966125
Statistics
Read error : 0
Jitter error (maybe fixed) : 0
Retry sector count : 0
Damaged sector count : 0

Track 01
Filename : /Users/ianwolff/Downloads/torrent seeding/Grateful Dead - Winterland 1973: The Complete Recordings (2008) [FLAC]/01 Dark Star>.flac
Pre-gap length : 00:02:00

Track gain : -6.92 dB
Peak : 0.966125
CRC32 hash (test run) : 128CBAD0
CRC32 hash : 128CBAD0
CRC32 hash (skip zero) : A0B967A7
AccurateRip v1 signature : 5ADF4D7C
AccurateRip v2 signature : 06843454
->Accurately ripped (v1+v2, confidence 34+5/39)
Statistics
Read error : 0
Jitter error (maybe fixed) : 0
Retry sector count : 0
Damaged sector count : 0

Track 02
Filename : /Users/ianwolff/Downloads/torrent seeding/Grateful Dead - Winterland 1973: The Complete Recordings (2008) [FLAC]/02 Eyes Of The World>.flac

Track gain : -7.04 dB
Peak : 0.966125
CRC32 hash (test run) : 22D3818F
CRC32 hash : 22D3818F
CRC32 hash (skip zero) : 88A98272
AccurateRip v1 signature : 974B6DC8
AccurateRip v2 signature : 630F6B4A
->Accurately ripped (v1+v2, confidence 34+5/39)
Statistics
Read error : 0
Jitter error (maybe fixed) : 0
Retry sector count : 0
Damaged sector count : 0

Track 03
Filename : /Users/ianwolff/Downloads/torrent seeding/Grateful Dead - Winterland 1973: The Complete Recordings (2008) [FLAC]/03 China Doll.flac

Track gain : -0.86 dB
Peak : 0.951935
CRC32 hash (test run) : 57A7A0AA
CRC32 hash : 57A7A0AA
CRC32 hash (skip zero) : A0613D0F
AccurateRip v1 signature : CD879706
AccurateRip v2 signature : 6955115D
->Accurately ripped (v1+v2, confidence 34+5/39)
Statistics
Read error : 0
Jitter error (maybe fixed) : 0
Retry sector count : 0
Damaged sector count : 0

Track 04
Filename : /Users/ianwolff/Downloads/torrent seeding/Grateful Dead - Winterland 1973: The Complete Recordings (2008) [FLAC]/04 Sugar Magnolia.flac

Track gain : -6.84 dB
Peak : 0.966125
CRC32 hash (test run) : 116D544D
CRC32 hash : 116D544D
CRC32 hash (skip zero) : F0D39345
AccurateRip v1 signature : E6A484C6
AccurateRip v2 signature : B28F4CA2
->Accurately ripped (v1+v2, confidence 32+5/37)
Statistics
Read error : 0
Jitter error (maybe fixed) : 0
Retry sector count : 0
Damaged sector count : 0

Track 05
Filename : /Users/ianwolff/Downloads/torrent seeding/Grateful Dead - Winterland 1973: The Complete Recordings (2008) [FLAC]/05 Uncle John's Band.flac

Track gain : -5.58 dB
Peak : 0.966095
CRC32 hash (test run) : 97A6276E
CRC32 hash : 97A6276E
CRC32 hash (skip zero) : 58D51C49
AccurateRip v1 signature : B15BB9DC
AccurateRip v2 signature : 31B7600B
->Accurately ripped (v1+v2, confidence 33+5/38)
Statistics
Read error : 0
Jitter error (maybe fixed) : 0
Retry sector count : 0
Damaged sector count : 0

Track 06
Filename : /Users/ianwolff/Downloads/torrent seeding/Grateful Dead - Winterland 1973: The Complete Recordings (2008) [FLAC]/06 Johnny B. Goode>.flac

Track gain : -6.59 dB
Peak : 0.966034
CRC32 hash (test run) : A9328A80
CRC32 hash : A9328A80
CRC32 hash (skip zero) : 90DD33B9
AccurateRip v1 signature : C290C0AA
AccurateRip v2 signature : 07EFF042
->Accurately ripped (v1+v2, confidence 33+5/38)
Statistics
Read error : 0
Jitter error (maybe fixed) : 0
Retry sector count : 0
Damaged sector count : 0

Track 07
Filename : /Users/ianwolff/Downloads/torrent seeding/Grateful Dead - Winterland 1973: The Complete Recordings (2008) [FLAC]/07 We Bid You Goodnight.flac

Track gain : 5.12 dB
Peak : 0.552399
CRC32 hash (test run) : B9F7305F
CRC32 hash : B9F7305F
CRC32 hash (skip zero) : 36747AC5
AccurateRip v1 signature : AB81C08E
AccurateRip v2 signature : 0C4305A5
->Accurately ripped (v1+v2, confidence 34+5/39)
Statistics
Read error : 0
Jitter error (maybe fixed) : 0
Retry sector count : 0
Damaged sector count : 0

No errors occurred

End of status report

X Lossless Decoder version 20121013 (142.0)

XLD extraction logfile from 2012-11-02 17:44:03 -0400

Grateful Dead / Winterland 1973: The Complete Recordings

Used drive : MATSHITA DVD-R UJ-8A8 (revision HA13)

Ripper mode : XLD Secure Ripper
Disable audio cache : OK for the drive with a cache less than 1375KiB
Make use of C2 pointers : NO
Read offset correction : 102
Max retry count : 100
Gap status : Analyzed, Appended (except HTOA)

TOC of the extracted CD
Track | Start | Length | Start sector | End sector
––––––––––––––––––––––––––––-
1 | 00:00:00 | 07:58:29 | 0 | 35878
2 | 07:58:29 | 05:57:20 | 35879 | 62673
3 | 13:55:49 | 08:47:37 | 62674 | 102235
4 | 22:43:11 | 08:14:44 | 102236 | 139329
5 | 30:57:55 | 13:38:34 | 139330 | 200713
6 | 44:36:14 | 09:35:45 | 200714 | 243883
7 | 54:11:59 | 06:17:00 | 243884 | 272158
8 | 60:28:59 | 09:44:58 | 272159 | 316016
9 | 70:13:42 | 07:17:14 | 316017 | 348805

AccurateRip Summary (DiscID: 001a4563-00c31a9c-82122a09)
Track 01 : OK (v1+v2, confidence 30/30)
Track 02 : OK (v1+v2, confidence 30/30)
Track 03 : OK (v1+v2, confidence 30/30)
Track 04 : OK (v1+v2, confidence 30/30)
Track 05 : OK (v1+v2, confidence 30/30)
Track 06 : OK (v1+v2, confidence 30/30)
Track 07 : OK (v1+v2, confidence 30/30)
Track 08 : OK (v1+v2, confidence 29/29)
Track 09 : OK (v1+v2, confidence 30/30)
->All tracks accurately ripped.

All Tracks
Album gain : -5.58 dB
Peak : 0.966125
Statistics
Read error : 0
Jitter error (maybe fixed) : 0
Retry sector count : 0
Damaged sector count : 0

Track 01
Filename : /Users/ianwolff/Downloads/torrent seeding/Grateful Dead - Winterland 1973: The Complete Recordings (2008) [FLAC]/01 China Cat Sunflower>.flac
Pre-gap length : 00:02:00

Track gain : -5.24 dB
Peak : 0.966125
CRC32 hash (test run) : C98572FD
CRC32 hash : C98572FD
CRC32 hash (skip zero) : 4261CA9E
AccurateRip v1 signature : F32CA394
AccurateRip v2 signature : 0A7D93C5
->Accurately ripped (v1+v2, confidence 24+6/30)
Statistics
Read error : 0
Jitter error (maybe fixed) : 0
Retry sector count : 0
Damaged sector count : 0

Track 02
Filename : /Users/ianwolff/Downloads/torrent seeding/Grateful Dead - Winterland 1973: The Complete Recordings (2008) [FLAC]/02 I Know You Rider.flac

Track gain : -4.06 dB
Peak : 0.966095
CRC32 hash (test run) : AB48A878
CRC32 hash : AB48A878
CRC32 hash (skip zero) : F2819043
AccurateRip v1 signature : 482D2FE7
AccurateRip v2 signature : A9DF4416
->Accurately ripped (v1+v2, confidence 24+6/30)
Statistics
Read error : 0
Jitter error (maybe fixed) : 0
Retry sector count : 0
Damaged sector count : 0

Track 03
Filename : /Users/ianwolff/Downloads/torrent seeding/Grateful Dead - Winterland 1973: The Complete Recordings (2008) [FLAC]/03 Truckin'>.flac

Track gain : -6.32 dB
Peak : 0.966095
CRC32 hash (test run) : 39BF4466
CRC32 hash : 39BF4466
CRC32 hash (skip zero) : 6047479B
AccurateRip v1 signature : CA3B9CEF
AccurateRip v2 signature : 5C7B5CD5
->Accurately ripped (v1+v2, confidence 24+6/30)
Statistics
Read error : 0
Jitter error (maybe fixed) : 0
Retry sector count : 0
Damaged sector count : 0

Track 04
Filename : /Users/ianwolff/Downloads/torrent seeding/Grateful Dead - Winterland 1973: The Complete Recordings (2008) [FLAC]/04 Stella Blue.flac

Track gain : -4.02 dB
Peak : 0.966064
CRC32 hash (test run) : 1324150C
CRC32 hash : 1324150C
CRC32 hash (skip zero) : 2998E8AB
AccurateRip v1 signature : EBF65F53
AccurateRip v2 signature : DF803384
->Accurately ripped (v1+v2, confidence 24+6/30)
Statistics
Read error : 0
Jitter error (maybe fixed) : 0
Retry sector count : 0
Damaged sector count : 0

Track 05
Filename : /Users/ianwolff/Downloads/torrent seeding/Grateful Dead - Winterland 1973: The Complete Recordings (2008) [FLAC]/05 Eyes Of The World>.flac

Track gain : -4.08 dB
Peak : 0.966095
CRC32 hash (test run) : 91EE7E57
CRC32 hash : 91EE7E57
CRC32 hash (skip zero) : 22ECFE1F
AccurateRip v1 signature : FA3CD403
AccurateRip v2 signature : 327C05B6
->Accurately ripped (v1+v2, confidence 24+6/30)
Statistics
Read error : 0
Jitter error (maybe fixed) : 0
Retry sector count : 0
Damaged sector count : 0

Track 06
Filename : /Users/ianwolff/Downloads/torrent seeding/Grateful Dead - Winterland 1973: The Complete Recordings (2008) [FLAC]/06 Space>.flac

Track gain : -6.98 dB
Peak : 0.966095
CRC32 hash (test run) : 2D5AF1A6
CRC32 hash : 2D5AF1A6
CRC32 hash (skip zero) : 9A5DE940
AccurateRip v1 signature : A4BEC74B
AccurateRip v2 signature : 0EDADB82
->Accurately ripped (v1+v2, confidence 24+6/30)
Statistics
Read error : 0
Jitter error (maybe fixed) : 0
Retry sector count : 0
Damaged sector count : 0

Track 07
Filename : /Users/ianwolff/Downloads/torrent seeding/Grateful Dead - Winterland 1973: The Complete Recordings (2008) [FLAC]/07 Sugar Magnolia>.flac

Track gain : -5.77 dB
Peak : 0.966095
CRC32 hash (test run) : A7369CA9
CRC32 hash : A7369CA9
CRC32 hash (skip zero) : 5275EC90
AccurateRip v1 signature : 8C27C020
AccurateRip v2 signature : BBFC8467
->Accurately ripped (v1+v2, confidence 24+6/30)
Statistics
Read error : 0
Jitter error (maybe fixed) : 0
Retry sector count : 0
Damaged sector count : 0

Track 08
Filename : /Users/ianwolff/Downloads/torrent seeding/Grateful Dead - Winterland 1973: The Complete Recordings (2008) [FLAC]/08 Goin' Down The Road Feeling Bad>.flac

Track gain : -5.39 dB
Peak : 0.966095
CRC32 hash (test run) : 993FC4EC
CRC32 hash : 993FC4EC
CRC32 hash (skip zero) : 93948A65
AccurateRip v1 signature : 89D89DF5
AccurateRip v2 signature : 64838F61
->Accurately ripped (v1+v2, confidence 23+6/29)
Statistics
Read error : 0
Jitter error (maybe fixed) : 0
Retry sector count : 0
Damaged sector count : 0

Track 09
Filename : /Users/ianwolff/Downloads/torrent seeding/Grateful Dead - Winterland 1973: The Complete Recordings (2008) [FLAC]/09 Casey Jones.flac

Track gain : -6.90 dB
Peak : 0.966125
CRC32 hash (test run) : CDE1654C
CRC32 hash : CDE1654C
CRC32 hash (skip zero) : 78DFBF00
AccurateRip v1 signature : CD76B856
AccurateRip v2 signature : F79CC7EF
->Accurately ripped (v1+v2, confidence 24+6/30)
Statistics
Read error : 0
Jitter error (maybe fixed) : 0
Retry sector count : 0
Damaged sector count : 0

No errors occurred

End of status report

Thanks to the Original ripper Darkstar !