Subcategories
Tags
Language
Tags

Grateful Dead - July 1978: The Complete Recordings (2016)

Posted By: delpotro
Grateful Dead - July 1978: The Complete Recordings (2016)

Grateful Dead - July 1978: The Complete Recordings (2016)
EAC Rip | FLAC (tracks+log+.cue) | 12:25:47 | 4,04 Gb
Psychedelic Rock, Classic Rock | Label: Rhino Entertainment

July 1978: The Complete Recordings is a live album by the rock band the Grateful Dead. Packaged as a box set, and produced as a limited edition of 15,000 copies, it contains five complete concerts on twelve CDs. It was released on May 13, 2016.

July 7, 1978 was the band's first appearance at Colorado's Red Rocks Amphitheatre (there were actually four dates in succession at the venue, with the band taking a seven-week break halfway in between for the recording of Shakedown Street). They would go on to play annual runs at Red Rocks through 1987, missing only 1980, 1981, and 1986. An additional date was originally scheduled for Milwaukee Summerfest, on July 2, but had to be cancelled. Though relatively short, this is the third complete tour to be officially released by the band, following the twenty two-date tour of Western Europe in 1972, and the sixteen-date winter / spring 1990 tour of the eastern United States.

The concerts were recorded by audio engineer Betty Cantor-Jackson. They are among a number of soundboard recordings by Cantor-Jackson — known as "Betty boards" — that were long missing from the Grateful Dead's vault of concert recordings. The tapes eventually were returned to the band, and production of the album began some months later.
Tracklist:
Show #1
Arrowhead Stadium, Kansas City, MO (7/1/1978)

Disc 1
01. Bertha [7:02]
02. Good Lovin’ [6:30]
03. Tennessee Jed [8:49]
04. Jack Straw [6:03]
05. Friend Of The Devil [8:20]
06. Me And My Uncle [2:56]
07. Big River [5:16]

Disc 2
01. Terrapin Station > [11:01]
02. Playing In The Band > [8:56]
03. Rhythm Devils > [8:51]
04. Space > [3:51]
05. Estimated Prophet > [11:05]
06. The Other One > [5:13]
07. Wharf Rat > [10:01]
08. Around And Around [8:25]
09. Johnny B. Goode [4:15]


Show #2
St. Paul Civic Center Arena, St. Paul, MN (7/3/1978)

Disc 1
01. New Minglewood Blues [5:40]
02. Loser [7:35]
03. Looks Like Rain [7:51]
04. Ramble On Rose [7:25]
05. Mexicali Blues > [3:26]
06. Mama Tried > [3:24]
07. Peggy-O [8:09]
08. Cassidy [5:08]
09. Deal > [6:13]
10. The Music Never Stopped [8:20]

Disc 2
01. Scarlet Begonias > [10:16]
02. Fire On The Mountain [9:39]
03. Dancing In The Street > [13:32]
04. Rhythm Devils > [11:10]
05. Not Fade Away > [6:46]
06. Stella Blue > [10:51]
07. Sugar Magnolia [9:19]
08. Werewolves Of London [7:12]


Show #3
Omaha Civic Auditorium, Omaha, NE (7/5/1978)

Disc 1
01. Sugaree [9:51]
02. Beat It On Down The Line [3:28]
03. They Love Each Other [7:12]
04. Looks Like Rain [7:59]
05. Dire Wolf [3:49]
06. It’s All Over Now [8:22]
07. Candyman [6:41]
08. Lazy Lightning > [3:27]
09. Supplication [5:27]
10. Deal [5:59]
11. Samson And Delilah [7:18]
12. Ship Of Fools [7:29]

Disc 2
01. Estimated Prophet > [12:42]
02. Eyes Of The World > [12:23]
03. Rhythm Devils > [7:56]
04. Space > [7:28]
05. Wharf Rat > [9:43]
06. Truckin’ > [7:29]
07. Iko Iko > [7:23]
08. Around And Around [8:27]
09. Promised Land [4:13]


Show #4
Red Rocks Amphitheatre, Morrison, CO (7/7/1978)

Disc 1
01. Jack Straw [5:49]
02. Candyman [6:40]
03. Me And My Uncle > [3:00]
04. Big River [5:53]
05. Friend Of The Devil [8:36]
06. Cassidy [5:06]
07. Tennessee Jed [9:11]
08. Passenger [5:31]
09. Peggy-O [9:10]
10. The Music Never Stopped [8:13]

Disc 2
01. Cold Rain And Snow [7:26]
02. Beat It On Down The Line [3:38]
03. Scarlet Begonias > [10:18]
04. Fire On The Mountain [8:10]

Disc 3
01. Dancing In The Street [8:57]
02. Rhythm Devils > [10:12]
03. Space > [6:09]
04. Not Fade Away > [11:04]
05. Black Peter > [10:29]
06. Around And Around [8:44]
07. U.S. Blues [5:55]
08. Johnny B. Goode [4:16]


Show #5
Red Rocks Amphitheatre, Morrison, CO (7/8/1978)

Disc 1
01. Bertha > [6:43]
02. Good Lovin’ [6:40]
03. Dire Wolf [4:07]
04. El Paso [4:25]
05. It Must Have Been The Roses [7:16]
06. New Minglewood Blues [6:09]
07. Ramble On Rose [8:34]
08. Promised Land [4:37]
09. Deal [6:26]
10. Samson And Delilah [7:44]
11. Ship Of Fools [7:29]

Disc 2
01. Estimated Prophet > [13:08]
02. The Other One > [8:51]
03. Eyes Of The World > [10:34]
04. Rhythm Devils > [10:29]
05. Space > [5:03]
06. Wharf Rat > [8:43]
07. Franklin’s Tower [10:39]
08. Sugar Magnolia [9:31]

Disc 3
01. Terrapin Station > [10:54]
02. One More Saturday Night [5:13]
03. Werewolves Of London [6:44]


Exact Audio Copy V1.0 beta 2 from 29. April 2011

EAC extraction logfile from 19. May 2016, 17:43

Grateful Dead / 1978-07-01 Arrowhead Stadium, Kansas City, MO (Disc 1)

Used drive : ASUS DRW-1814BL Adapter: 1 ID: 0

Read mode : Secure
Utilize accurate stream : Yes
Defeat audio cache : Yes
Make use of C2 pointers : No

Read offset correction : 6
Overread into Lead-In and Lead-Out : No
Fill up missing offset samples with silence : Yes
Delete leading and trailing silent blocks : No
Null samples used in CRC calculations : Yes
Used interface : Installed external ASPI interface
Gap handling : Appended to previous track

Used output format : User Defined Encoder
Selected bitrate : 896 kBit/s
Quality : High
Add ID3 tag : No
Command line compressor : C:\Program Files\Entertainment\Exact Audio Copy\Flac\flac.exe
Additional command line options : -8 -V -T "ARTIST=%artist%" -T "TITLE=%title%" -T "ALBUM=%albumtitle%" -T "DATE=%year%" -T "TRACKNUMBER=%tracknr%" -T "GENRE=%genre%" -T "PERFORMER=%albuminterpret%" -T "COMPOSER=%composer%" %haslyrics%–tag-from-file=LYRICS


TOC of the extracted CD

Track | Start | Length | Start sector | End sector
––––––––––––––––––––––––––––-
1 | 0:00.00 | 7:01.45 | 0 | 31619
2 | 7:01.45 | 6:29.70 | 31620 | 60864
3 | 13:31.40 | 8:49.20 | 60865 | 100559
4 | 22:20.60 | 6:03.23 | 100560 | 127807
5 | 28:24.08 | 8:19.56 | 127808 | 165288
6 | 36:43.64 | 2:56.33 | 165289 | 178521
7 | 39:40.22 | 5:15.61 | 178522 | 202207


Track 1

Filename E:\Music - Torrents\Grateful Dead - July 1978 - The Complete Recordings\1978-07-01\Disc 1\01 - Bertha.wav

Pre-gap length 0:00:02.00

Peak level 97.7 %
Extraction speed 4.4 X
Track quality 99.9 %
Test CRC A42F7CFB
Copy CRC A42F7CFB
Track not present in AccurateRip database
Copy OK

Track 2

Filename E:\Music - Torrents\Grateful Dead - July 1978 - The Complete Recordings\1978-07-01\Disc 1\02 - Good Lovin'.wav

Peak level 97.7 %
Extraction speed 6.5 X
Track quality 100.0 %
Test CRC 011E999E
Copy CRC 011E999E
Track not present in AccurateRip database
Copy OK

Track 3

Filename E:\Music - Torrents\Grateful Dead - July 1978 - The Complete Recordings\1978-07-01\Disc 1\03 - Tennessee Jed.wav

Peak level 97.7 %
Extraction speed 7.6 X
Track quality 100.0 %
Test CRC 9E5A6034
Copy CRC 9E5A6034
Track not present in AccurateRip database
Copy OK

Track 4

Filename E:\Music - Torrents\Grateful Dead - July 1978 - The Complete Recordings\1978-07-01\Disc 1\04 - Jack Straw.wav

Peak level 97.7 %
Extraction speed 8.1 X
Track quality 100.0 %
Test CRC 63870CC3
Copy CRC 63870CC3
Track not present in AccurateRip database
Copy OK

Track 5

Filename E:\Music - Torrents\Grateful Dead - July 1978 - The Complete Recordings\1978-07-01\Disc 1\05 - Friend of the Devil.wav

Peak level 97.7 %
Extraction speed 9.0 X
Track quality 100.0 %
Test CRC 3EC54A5F
Copy CRC 3EC54A5F
Track not present in AccurateRip database
Copy OK

Track 6

Filename E:\Music - Torrents\Grateful Dead - July 1978 - The Complete Recordings\1978-07-01\Disc 1\06 - Me and My Uncle.wav

Peak level 97.7 %
Extraction speed 8.4 X
Track quality 100.0 %
Test CRC D782523B
Copy CRC D782523B
Track not present in AccurateRip database
Copy OK

Track 7

Filename E:\Music - Torrents\Grateful Dead - July 1978 - The Complete Recordings\1978-07-01\Disc 1\07 - Big River.wav

Peak level 97.7 %
Extraction speed 9.4 X
Track quality 100.0 %
Test CRC 0A212D3F
Copy CRC 0A212D3F
Track not present in AccurateRip database
Copy OK


None of the tracks are present in the AccurateRip database

No errors occurred

End of status report

==== Log checksum A4E5811F72FDA61658243DB89E284BAE835897F6AFC2520FDF995CAFC638FB8A ====

Exact Audio Copy V1.0 beta 2 from 29. April 2011

EAC extraction logfile from 19. May 2016, 23:40

Grateful Dead / 1978-07-01 Arrowhead Stadium, Kansas City, MO (Disc 2)

Used drive : VERBATIM321240AL Adapter: 1 ID: 1

Read mode : Secure
Utilize accurate stream : Yes
Defeat audio cache : Yes
Make use of C2 pointers : No

Read offset correction : 12
Overread into Lead-In and Lead-Out : No
Fill up missing offset samples with silence : Yes
Delete leading and trailing silent blocks : No
Null samples used in CRC calculations : Yes
Used interface : Installed external ASPI interface
Gap handling : Appended to previous track

Used output format : User Defined Encoder
Selected bitrate : 896 kBit/s
Quality : High
Add ID3 tag : No
Command line compressor : C:\Program Files\Entertainment\Exact Audio Copy\Flac\flac.exe
Additional command line options : -8 -V -T "ARTIST=%artist%" -T "TITLE=%title%" -T "ALBUM=%albumtitle%" -T "DATE=%year%" -T "TRACKNUMBER=%tracknr%" -T "GENRE=%genre%" -T "PERFORMER=%albuminterpret%" -T "COMPOSER=%composer%" %haslyrics%–tag-from-file=LYRICS


TOC of the extracted CD

Track | Start | Length | Start sector | End sector
––––––––––––––––––––––––––––-
1 | 0:00.00 | 11:00.73 | 0 | 49572
2 | 11:00.73 | 8:56.03 | 49573 | 89775
3 | 19:57.01 | 8:51.22 | 89776 | 129622
4 | 28:48.23 | 3:50.64 | 129623 | 146936
5 | 32:39.12 | 11:04.48 | 146937 | 196784
6 | 43:43.60 | 5:12.42 | 196785 | 220226
7 | 48:56.27 | 10:01.03 | 220227 | 265304
8 | 58:57.30 | 8:24.72 | 265305 | 303176
9 | 67:22.27 | 4:14.73 | 303177 | 322299


Track 1

Filename E:\Music - Torrents\Grateful Dead - July 1978 - The Complete Recordings\1978-07-01\Disc 2\01 - Terrapin Station.wav

Pre-gap length 0:00:02.00

Peak level 97.7 %
Extraction speed 12.7 X
Track quality 99.9 %
Test CRC C236E8D8
Copy CRC C236E8D8
Track not present in AccurateRip database
Copy OK

Track 2

Filename E:\Music - Torrents\Grateful Dead - July 1978 - The Complete Recordings\1978-07-01\Disc 2\02 - Playing in the Band.wav

Peak level 97.7 %
Extraction speed 15.5 X
Track quality 100.0 %
Test CRC 3CFAB3AA
Copy CRC 3CFAB3AA
Track not present in AccurateRip database
Copy OK

Track 3

Filename E:\Music - Torrents\Grateful Dead - July 1978 - The Complete Recordings\1978-07-01\Disc 2\03 - Rhythm Devils.wav

Peak level 97.7 %
Extraction speed 16.8 X
Track quality 100.0 %
Test CRC 483C68A9
Copy CRC 483C68A9
Track not present in AccurateRip database
Copy OK

Track 4

Filename E:\Music - Torrents\Grateful Dead - July 1978 - The Complete Recordings\1978-07-01\Disc 2\04 - Space.wav

Peak level 97.7 %
Extraction speed 16.9 X
Track quality 100.0 %
Test CRC 6DC9B80F
Copy CRC 6DC9B80F
Track not present in AccurateRip database
Copy OK

Track 5

Filename E:\Music - Torrents\Grateful Dead - July 1978 - The Complete Recordings\1978-07-01\Disc 2\05 - Estimated Prophet.wav

Peak level 97.7 %
Extraction speed 17.1 X
Track quality 99.9 %
Test CRC B35D759B
Copy CRC B35D759B
Track not present in AccurateRip database
Copy OK

Track 6

Filename E:\Music - Torrents\Grateful Dead - July 1978 - The Complete Recordings\1978-07-01\Disc 2\06 - The Other One.wav

Peak level 97.7 %
Extraction speed 18.8 X
Track quality 100.0 %
Test CRC BDF11583
Copy CRC BDF11583
Track not present in AccurateRip database
Copy OK

Track 7

Filename E:\Music - Torrents\Grateful Dead - July 1978 - The Complete Recordings\1978-07-01\Disc 2\07 - Wharf Rat.wav

Peak level 97.7 %
Extraction speed 20.2 X
Track quality 100.0 %
Test CRC DDBD7AE5
Copy CRC DDBD7AE5
Track not present in AccurateRip database
Copy OK

Track 8

Filename E:\Music - Torrents\Grateful Dead - July 1978 - The Complete Recordings\1978-07-01\Disc 2\08 - Around and Around.wav

Peak level 97.7 %
Extraction speed 18.4 X
Track quality 99.9 %
Test CRC 9160D6D4
Copy CRC 9160D6D4
Track not present in AccurateRip database
Copy OK

Track 9

Filename E:\Music - Torrents\Grateful Dead - July 1978 - The Complete Recordings\1978-07-01\Disc 2\09 - Johnny B. Goode.wav

Peak level 97.7 %
Extraction speed 14.1 X
Track quality 99.9 %
Test CRC 6EF88DC8
Copy CRC 6EF88DC8
Track not present in AccurateRip database
Copy OK


None of the tracks are present in the AccurateRip database

No errors occurred

End of status report

==== Log checksum 6DBD10ED0CC7958975E4CAAD02E6713EB2B4DD2F3D058186990F56274B64B8C3 ====

Exact Audio Copy V1.0 beta 2 from 29. April 2011

EAC extraction logfile from 19. May 2016, 18:33

Grateful Dead / 1978-07-03 St. Paul Civic Center Arena, St. Paul, MN (Disc 1)

Used drive : ASUS DRW-1814BL Adapter: 1 ID: 0

Read mode : Secure
Utilize accurate stream : Yes
Defeat audio cache : Yes
Make use of C2 pointers : No

Read offset correction : 6
Overread into Lead-In and Lead-Out : No
Fill up missing offset samples with silence : Yes
Delete leading and trailing silent blocks : No
Null samples used in CRC calculations : Yes
Used interface : Installed external ASPI interface
Gap handling : Appended to previous track

Used output format : User Defined Encoder
Selected bitrate : 896 kBit/s
Quality : High
Add ID3 tag : No
Command line compressor : C:\Program Files\Entertainment\Exact Audio Copy\Flac\flac.exe
Additional command line options : -8 -V -T "ARTIST=%artist%" -T "TITLE=%title%" -T "ALBUM=%albumtitle%" -T "DATE=%year%" -T "TRACKNUMBER=%tracknr%" -T "GENRE=%genre%" -T "PERFORMER=%albuminterpret%" -T "COMPOSER=%composer%" %haslyrics%–tag-from-file=LYRICS


TOC of the extracted CD

Track | Start | Length | Start sector | End sector
––––––––––––––––––––––––––––-
1 | 0:00.00 | 5:40.16 | 0 | 25515
2 | 5:40.16 | 7:34.69 | 25516 | 59634
3 | 13:15.10 | 7:50.41 | 59635 | 94925
4 | 21:05.51 | 7:24.58 | 94926 | 128283
5 | 28:30.34 | 3:26.35 | 128284 | 143768
6 | 31:56.69 | 3:22.64 | 143769 | 158982
7 | 35:19.58 | 8:08.44 | 158983 | 195626
8 | 43:28.27 | 5:07.48 | 195627 | 218699
9 | 48:36.00 | 6:12.54 | 218700 | 246653
10 | 54:48.54 | 8:20.25 | 246654 | 284178


Track 1

Filename E:\Music - Torrents\Grateful Dead - July 1978 - The Complete Recordings\1978-07-03\Disc 1\01 - New Minglewood Blues.wav

Pre-gap length 0:00:02.00

Peak level 97.7 %
Extraction speed 5.4 X
Track quality 100.0 %
Test CRC 8701AD29
Copy CRC 8701AD29
Track not present in AccurateRip database
Copy OK

Track 2

Filename E:\Music - Torrents\Grateful Dead - July 1978 - The Complete Recordings\1978-07-03\Disc 1\02 - Loser.wav

Peak level 97.7 %
Extraction speed 6.4 X
Track quality 100.0 %
Test CRC 5EE2F468
Copy CRC 5EE2F468
Track not present in AccurateRip database
Copy OK

Track 3

Filename E:\Music - Torrents\Grateful Dead - July 1978 - The Complete Recordings\1978-07-03\Disc 1\03 - Looks Like Rain.wav

Pre-gap length 0:00:00.01

Peak level 97.7 %
Extraction speed 7.4 X
Track quality 100.0 %
Test CRC 3373B90E
Copy CRC 3373B90E
Track not present in AccurateRip database
Copy OK

Track 4

Filename E:\Music - Torrents\Grateful Dead - July 1978 - The Complete Recordings\1978-07-03\Disc 1\04 - Ramble on Rose.wav

Peak level 97.7 %
Extraction speed 8.1 X
Track quality 100.0 %
Test CRC D56B214B
Copy CRC D56B214B
Track not present in AccurateRip database
Copy OK

Track 5

Filename E:\Music - Torrents\Grateful Dead - July 1978 - The Complete Recordings\1978-07-03\Disc 1\05 - Mexicali Blues.wav

Pre-gap length 0:00:00.01

Peak level 97.7 %
Extraction speed 5.8 X
Track quality 99.9 %
Test CRC 3C1B1505
Copy CRC 3C1B1505
Track not present in AccurateRip database
Copy OK

Track 6

Filename E:\Music - Torrents\Grateful Dead - July 1978 - The Complete Recordings\1978-07-03\Disc 1\06 - Mama Tried.wav

Pre-gap length 0:00:00.01

Peak level 97.7 %
Extraction speed 5.9 X
Track quality 99.9 %
Test CRC 32877AE8
Copy CRC 32877AE8
Track not present in AccurateRip database
Copy OK

Track 7

Filename E:\Music - Torrents\Grateful Dead - July 1978 - The Complete Recordings\1978-07-03\Disc 1\07 - Peggy-O.wav

Pre-gap length 0:00:00.01

Peak level 97.7 %
Extraction speed 9.4 X
Track quality 100.0 %
Test CRC 39D902CE
Copy CRC 39D902CE
Track not present in AccurateRip database
Copy OK

Track 8

Filename E:\Music - Torrents\Grateful Dead - July 1978 - The Complete Recordings\1978-07-03\Disc 1\08 - Cassidy.wav

Pre-gap length 0:00:00.01

Peak level 97.7 %
Extraction speed 9.5 X
Track quality 100.0 %
Test CRC A64287A5
Copy CRC A64287A5
Track not present in AccurateRip database
Copy OK

Track 9

Filename E:\Music - Torrents\Grateful Dead - July 1978 - The Complete Recordings\1978-07-03\Disc 1\09 - Deal.wav

Pre-gap length 0:00:00.01

Peak level 97.7 %
Extraction speed 10.0 X
Track quality 100.0 %
Test CRC 56B7171A
Copy CRC 56B7171A
Track not present in AccurateRip database
Copy OK

Track 10

Filename E:\Music - Torrents\Grateful Dead - July 1978 - The Complete Recordings\1978-07-03\Disc 1\10 - The Music Never Stopped.wav

Pre-gap length 0:00:00.01

Peak level 97.7 %
Extraction speed 8.5 X
Track quality 99.9 %
Test CRC B5E41407
Copy CRC B5E41407
Track not present in AccurateRip database
Copy OK


None of the tracks are present in the AccurateRip database

No errors occurred

End of status report

==== Log checksum BE55AE32C238930D4B4156B9EECA4A8182A95AFF31B865C29547C5EC9D3FC6CE ====

Exact Audio Copy V1.0 beta 2 from 29. April 2011

EAC extraction logfile from 19. May 2016, 18:58

Grateful Dead / 1978-07-03 St. Paul Civic Center Arena, St. Paul, MN (Disc 2)

Used drive : ASUS DRW-1814BL Adapter: 1 ID: 0

Read mode : Secure
Utilize accurate stream : Yes
Defeat audio cache : Yes
Make use of C2 pointers : No

Read offset correction : 6
Overread into Lead-In and Lead-Out : No
Fill up missing offset samples with silence : Yes
Delete leading and trailing silent blocks : No
Null samples used in CRC calculations : Yes
Used interface : Installed external ASPI interface
Gap handling : Appended to previous track

Used output format : User Defined Encoder
Selected bitrate : 896 kBit/s
Quality : High
Add ID3 tag : No
Command line compressor : C:\Program Files\Entertainment\Exact Audio Copy\Flac\flac.exe
Additional command line options : -8 -V -T "ARTIST=%artist%" -T "TITLE=%title%" -T "ALBUM=%albumtitle%" -T "DATE=%year%" -T "TRACKNUMBER=%tracknr%" -T "GENRE=%genre%" -T "PERFORMER=%albuminterpret%" -T "COMPOSER=%composer%" %haslyrics%–tag-from-file=LYRICS


TOC of the extracted CD

Track | Start | Length | Start sector | End sector
––––––––––––––––––––––––––––-
1 | 0:00.00 | 10:15.72 | 0 | 46196
2 | 10:15.72 | 9:38.63 | 46197 | 89609
3 | 19:54.60 | 13:32.15 | 89610 | 150524
4 | 33:27.00 | 11:09.54 | 150525 | 200753
5 | 44:36.54 | 6:45.64 | 200754 | 231192
6 | 51:22.43 | 10:50.74 | 231193 | 280016
7 | 62:13.42 | 9:19.00 | 280017 | 321941
8 | 71:32.42 | 7:12.27 | 321942 | 354368


Track 1

Filename E:\Music - Torrents\Grateful Dead - July 1978 - The Complete Recordings\1978-07-03\Disc 2\01 - Scarlet Begonias.wav

Pre-gap length 0:00:02.00

Peak level 97.7 %
Extraction speed 5.5 X
Track quality 100.0 %
Test CRC 68E4A8C8
Copy CRC 68E4A8C8
Track not present in AccurateRip database
Copy OK

Track 2

Filename E:\Music - Torrents\Grateful Dead - July 1978 - The Complete Recordings\1978-07-03\Disc 2\02 - Fire on the Mountain.wav

Peak level 97.7 %
Extraction speed 6.5 X
Track quality 100.0 %
Test CRC EF461964
Copy CRC EF461964
Track not present in AccurateRip database
Copy OK

Track 3

Filename E:\Music - Torrents\Grateful Dead - July 1978 - The Complete Recordings\1978-07-03\Disc 2\03 - Dancing in the Street.wav

Peak level 97.7 %
Extraction speed 7.7 X
Track quality 100.0 %
Test CRC 002BB39A
Copy CRC 002BB39A
Track not present in AccurateRip database
Copy OK

Track 4

Filename E:\Music - Torrents\Grateful Dead - July 1978 - The Complete Recordings\1978-07-03\Disc 2\04 - Rhythm Devils.wav

Peak level 96.1 %
Extraction speed 8.5 X
Track quality 100.0 %
Test CRC 390807F8
Copy CRC 390807F8
Track not present in AccurateRip database
Copy OK

Track 5

Filename E:\Music - Torrents\Grateful Dead - July 1978 - The Complete Recordings\1978-07-03\Disc 2\05 - Not Fade Away.wav

Peak level 97.7 %
Extraction speed 8.7 X
Track quality 100.0 %
Test CRC DD2CEF96
Copy CRC DD2CEF96
Track not present in AccurateRip database
Copy OK

Track 6

Filename E:\Music - Torrents\Grateful Dead - July 1978 - The Complete Recordings\1978-07-03\Disc 2\06 - Stella Blue.wav

Peak level 97.7 %
Extraction speed 9.5 X
Track quality 100.0 %
Test CRC B5B723BB
Copy CRC B5B723BB
Track not present in AccurateRip database
Copy OK

Track 7

Filename E:\Music - Torrents\Grateful Dead - July 1978 - The Complete Recordings\1978-07-03\Disc 2\07 - Sugar Magnolia.wav

Peak level 97.7 %
Extraction speed 10.0 X
Track quality 100.0 %
Test CRC 666335B5
Copy CRC 666335B5
Track not present in AccurateRip database
Copy OK

Track 8

Filename E:\Music - Torrents\Grateful Dead - July 1978 - The Complete Recordings\1978-07-03\Disc 2\08 - Werewolves of London.wav

Peak level 97.7 %
Extraction speed 10.2 X
Track quality 100.0 %
Test CRC 5D0F6040
Copy CRC 5D0F6040
Track not present in AccurateRip database
Copy OK


None of the tracks are present in the AccurateRip database

No errors occurred

End of status report

==== Log checksum A96A19C1C158D9BA42E22C77014657A7BF6BE3D6B85D9FA953DC7DAE8EBAF71F ====

Exact Audio Copy V1.0 beta 2 from 29. April 2011

EAC extraction logfile from 19. May 2016, 19:42

Grateful Dead / 1978-07-05 Omaha Civic Auditorium, Omaha, NE (Disc 1)

Used drive : ASUS DRW-1814BL Adapter: 1 ID: 0

Read mode : Secure
Utilize accurate stream : Yes
Defeat audio cache : Yes
Make use of C2 pointers : No

Read offset correction : 6
Overread into Lead-In and Lead-Out : No
Fill up missing offset samples with silence : Yes
Delete leading and trailing silent blocks : No
Null samples used in CRC calculations : Yes
Used interface : Installed external ASPI interface
Gap handling : Appended to previous track

Used output format : User Defined Encoder
Selected bitrate : 896 kBit/s
Quality : High
Add ID3 tag : No
Command line compressor : C:\Program Files\Entertainment\Exact Audio Copy\Flac\flac.exe
Additional command line options : -8 -V -T "ARTIST=%artist%" -T "TITLE=%title%" -T "ALBUM=%albumtitle%" -T "DATE=%year%" -T "TRACKNUMBER=%tracknr%" -T "GENRE=%genre%" -T "PERFORMER=%albuminterpret%" -T "COMPOSER=%composer%" %haslyrics%–tag-from-file=LYRICS


TOC of the extracted CD

Track | Start | Length | Start sector | End sector
––––––––––––––––––––––––––––-
1 | 0:00.00 | 9:50.74 | 0 | 44323
2 | 9:50.74 | 3:27.48 | 44324 | 59896
3 | 13:18.47 | 7:11.62 | 59897 | 92283
4 | 20:30.34 | 7:59.24 | 92284 | 128232
5 | 28:29.58 | 3:48.67 | 128233 | 145399
6 | 32:18.50 | 8:22.35 | 145400 | 183084
7 | 40:41.10 | 6:40.54 | 183085 | 213138
8 | 47:21.64 | 3:26.60 | 213139 | 228648
9 | 50:48.49 | 5:31.64 | 228649 | 253537
10 | 56:20.38 | 5:58.72 | 253538 | 280459
11 | 62:19.35 | 7:18.28 | 280460 | 313337
12 | 69:37.63 | 7:29.01 | 313338 | 347013


Track 1

Filename E:\Music - Torrents\Grateful Dead - July 1978 - The Complete Recordings\1978-07-05\Disc 1\01 - Sugaree.wav

Pre-gap length 0:00:02.00

Peak level 97.2 %
Extraction speed 4.4 X
Track quality 100.0 %
Test CRC CC27FC7D
Copy CRC CC27FC7D
Track not present in AccurateRip database
Copy OK

Track 2

Filename E:\Music - Torrents\Grateful Dead - July 1978 - The Complete Recordings\1978-07-05\Disc 1\02 - Beat It on Down the Line.wav

Peak level 95.9 %
Extraction speed 4.5 X
Track quality 100.0 %
Test CRC 9027CC9A
Copy CRC 9027CC9A
Track not present in AccurateRip database
Copy OK

Track 3

Filename E:\Music - Torrents\Grateful Dead - July 1978 - The Complete Recordings\1978-07-05\Disc 1\03 - They Love Each Other.wav

Peak level 97.4 %
Extraction speed 5.3 X
Track quality 100.0 %
Test CRC 3A1A48E2
Copy CRC 3A1A48E2
Track not present in AccurateRip database
Copy OK

Track 4

Filename E:\Music - Torrents\Grateful Dead - July 1978 - The Complete Recordings\1978-07-05\Disc 1\04 - Looks Like Rain.wav

Peak level 97.7 %
Extraction speed 5.8 X
Track quality 100.0 %
Test CRC F2A46871
Copy CRC F2A46871
Track not present in AccurateRip database
Copy OK

Track 5

Filename E:\Music - Torrents\Grateful Dead - July 1978 - The Complete Recordings\1978-07-05\Disc 1\05 - Dire Wolf.wav

Peak level 96.9 %
Extraction speed 5.7 X
Track quality 100.0 %
Test CRC 6E89CD0C
Copy CRC 6E89CD0C
Track not present in AccurateRip database
Copy OK

Track 6

Filename E:\Music - Torrents\Grateful Dead - July 1978 - The Complete Recordings\1978-07-05\Disc 1\06 - It’s All Over Now.wav

Peak level 97.7 %
Extraction speed 6.6 X
Track quality 100.0 %
Test CRC AA52C6CB
Copy CRC AA52C6CB
Track not present in AccurateRip database
Copy OK

Track 7

Filename E:\Music - Torrents\Grateful Dead - July 1978 - The Complete Recordings\1978-07-05\Disc 1\07 - Candyman.wav

Peak level 97.7 %
Extraction speed 4.8 X
Track quality 99.9 %
Test CRC 6BD2080F
Copy CRC 6BD2080F
Track not present in AccurateRip database
Copy OK

Track 8

Filename E:\Music - Torrents\Grateful Dead - July 1978 - The Complete Recordings\1978-07-05\Disc 1\08 - Lazy Lightning.wav

Peak level 97.7 %
Extraction speed 4.3 X
Track quality 99.9 %
Test CRC AB7BAC63
Copy CRC AB7BAC63
Track not present in AccurateRip database
Copy OK

Track 9

Filename E:\Music - Torrents\Grateful Dead - July 1978 - The Complete Recordings\1978-07-05\Disc 1\09 - Supplication.wav

Peak level 97.7 %
Extraction speed 7.2 X
Track quality 100.0 %
Test CRC 9C8A0C70
Copy CRC 9C8A0C70
Track not present in AccurateRip database
Copy OK

Track 10

Filename E:\Music - Torrents\Grateful Dead - July 1978 - The Complete Recordings\1978-07-05\Disc 1\10 - Deal.wav

Peak level 97.7 %
Extraction speed 7.5 X
Track quality 100.0 %
Test CRC 8BA7C764
Copy CRC 8BA7C764
Track not present in AccurateRip database
Copy OK

Track 11

Filename E:\Music - Torrents\Grateful Dead - July 1978 - The Complete Recordings\1978-07-05\Disc 1\11 - Samson and Delilah.wav

Peak level 97.7 %
Extraction speed 8.0 X
Track quality 100.0 %
Test CRC E8DDDC99
Copy CRC E8DDDC99
Track not present in AccurateRip database
Copy OK

Track 12

Filename E:\Music - Torrents\Grateful Dead - July 1978 - The Complete Recordings\1978-07-05\Disc 1\12 - Ship of Fools.wav

Peak level 97.7 %
Extraction speed 8.3 X
Track quality 100.0 %
Test CRC 5BD5D1CD
Copy CRC 5BD5D1CD
Track not present in AccurateRip database
Copy OK


None of the tracks are present in the AccurateRip database

No errors occurred

End of status report

==== Log checksum D99166BB00C35A93DCE05AB9D4CCE427F8BB1C88764C0C206764D366E1976DE9 ====

Exact Audio Copy V1.0 beta 2 from 29. April 2011

EAC extraction logfile from 19. May 2016, 20:19

Grateful Dead / 1978-07-05 Omaha Civic Auditorium, Omaha, NE (Disc 2)

Used drive : ASUS DRW-1814BL Adapter: 1 ID: 0

Read mode : Secure
Utilize accurate stream : Yes
Defeat audio cache : Yes
Make use of C2 pointers : No

Read offset correction : 6
Overread into Lead-In and Lead-Out : No
Fill up missing offset samples with silence : Yes
Delete leading and trailing silent blocks : No
Null samples used in CRC calculations : Yes
Used interface : Installed external ASPI interface
Gap handling : Appended to previous track

Used output format : User Defined Encoder
Selected bitrate : 896 kBit/s
Quality : High
Add ID3 tag : No
Command line compressor : C:\Program Files\Entertainment\Exact Audio Copy\Flac\flac.exe
Additional command line options : -8 -V -T "ARTIST=%artist%" -T "TITLE=%title%" -T "ALBUM=%albumtitle%" -T "DATE=%year%" -T "TRACKNUMBER=%tracknr%" -T "GENRE=%genre%" -T "PERFORMER=%albuminterpret%" -T "COMPOSER=%composer%" %haslyrics%–tag-from-file=LYRICS


TOC of the extracted CD

Track | Start | Length | Start sector | End sector
––––––––––––––––––––––––––––-
1 | 0:00.00 | 12:41.65 | 0 | 57139
2 | 12:41.65 | 12:23.32 | 57140 | 112896
3 | 25:05.22 | 7:55.67 | 112897 | 148588
4 | 33:01.14 | 7:27.45 | 148589 | 182158
5 | 40:28.59 | 9:42.66 | 182159 | 225874
6 | 50:11.50 | 7:29.03 | 225875 | 259552
7 | 57:40.53 | 7:22.68 | 259553 | 292770
8 | 65:03.46 | 8:26.74 | 292771 | 330794
9 | 73:30.45 | 4:12.74 | 330795 | 349768


Track 1

Filename E:\Music - Torrents\Grateful Dead - July 1978 - The Complete Recordings\1978-07-05\Disc 2\01 - Estimated Prophet.wav

Pre-gap length 0:00:02.00

Peak level 97.7 %
Extraction speed 6.6 X
Track quality 100.0 %
Test CRC 032E816C
Copy CRC 032E816C
Track not present in AccurateRip database
Copy OK

Track 2

Filename E:\Music - Torrents\Grateful Dead - July 1978 - The Complete Recordings\1978-07-05\Disc 2\02 - Eyes of the World.wav

Peak level 97.7 %
Extraction speed 7.1 X
Track quality 100.0 %
Test CRC 01BC6442
Copy CRC 01BC6442
Track not present in AccurateRip database
Copy OK

Track 3

Filename E:\Music - Torrents\Grateful Dead - July 1978 - The Complete Recordings\1978-07-05\Disc 2\03 - Rhythm Devils.wav

Peak level 96.4 %
Extraction speed 7.6 X
Track quality 100.0 %
Test CRC BB94D9F9
Copy CRC BB94D9F9
Track not present in AccurateRip database
Copy OK

Track 4

Filename E:\Music - Torrents\Grateful Dead - July 1978 - The Complete Recordings\1978-07-05\Disc 2\04 - Space.wav

Peak level 97.7 %
Extraction speed 8.1 X
Track quality 100.0 %
Test CRC 99A70A59
Copy CRC 99A70A59
Track not present in AccurateRip database
Copy OK

Track 5

Filename E:\Music - Torrents\Grateful Dead - July 1978 - The Complete Recordings\1978-07-05\Disc 2\05 - Wharf Rat.wav

Peak level 97.7 %
Extraction speed 8.9 X
Track quality 100.0 %
Test CRC 8A1362D4
Copy CRC 8A1362D4
Track not present in AccurateRip database
Copy OK

Track 6

Filename E:\Music - Torrents\Grateful Dead - July 1978 - The Complete Recordings\1978-07-05\Disc 2\06 - Truckin'.wav

Peak level 97.7 %
Extraction speed 9.2 X
Track quality 100.0 %
Test CRC 96F4B601
Copy CRC 96F4B601
Track not present in AccurateRip database
Copy OK

Track 7

Filename E:\Music - Torrents\Grateful Dead - July 1978 - The Complete Recordings\1978-07-05\Disc 2\07 - Iko Iko.wav

Peak level 97.7 %
Extraction speed 8.9 X
Track quality 99.9 %
Test CRC 82BFAAF2
Copy CRC 82BFAAF2
Track not present in AccurateRip database
Copy OK

Track 8

Filename E:\Music - Torrents\Grateful Dead - July 1978 - The Complete Recordings\1978-07-05\Disc 2\08 - Around and Around.wav

Peak level 97.7 %
Extraction speed 10.0 X
Track quality 100.0 %
Test CRC 9F5366CE
Copy CRC 9F5366CE
Track not present in AccurateRip database
Copy OK

Track 9

Filename E:\Music - Torrents\Grateful Dead - July 1978 - The Complete Recordings\1978-07-05\Disc 2\09 - Promised Land.wav

Peak level 97.7 %
Extraction speed 8.5 X
Track quality 99.9 %
Test CRC F8263145
Copy CRC F8263145
Track not present in AccurateRip database
Copy OK


None of the tracks are present in the AccurateRip database

No errors occurred

End of status report

==== Log checksum FDF43CEAA07A0F6746698EC3D4A13CD2C2CC777A16CC4AE8B0162834AB25653A ====

Exact Audio Copy V1.0 beta 2 from 29. April 2011

EAC extraction logfile from 19. May 2016, 20:44

Grateful Dead / 1978-07-07 Red Rocks Amphitheatre, Morrison, CO (Disc 1)

Used drive : ASUS DRW-1814BL Adapter: 1 ID: 0

Read mode : Secure
Utilize accurate stream : Yes
Defeat audio cache : Yes
Make use of C2 pointers : No

Read offset correction : 6
Overread into Lead-In and Lead-Out : No
Fill up missing offset samples with silence : Yes
Delete leading and trailing silent blocks : No
Null samples used in CRC calculations : Yes
Used interface : Installed external ASPI interface
Gap handling : Appended to previous track

Used output format : User Defined Encoder
Selected bitrate : 896 kBit/s
Quality : High
Add ID3 tag : No
Command line compressor : C:\Program Files\Entertainment\Exact Audio Copy\Flac\flac.exe
Additional command line options : -8 -V -T "ARTIST=%artist%" -T "TITLE=%title%" -T "ALBUM=%albumtitle%" -T "DATE=%year%" -T "TRACKNUMBER=%tracknr%" -T "GENRE=%genre%" -T "PERFORMER=%albuminterpret%" -T "COMPOSER=%composer%" %haslyrics%–tag-from-file=LYRICS


TOC of the extracted CD

Track | Start | Length | Start sector | End sector
––––––––––––––––––––––––––––-
1 | 0:00.00 | 5:49.27 | 0 | 26201
2 | 5:49.27 | 6:40.24 | 26202 | 56225
3 | 12:29.51 | 2:59.50 | 56226 | 69700
4 | 15:29.26 | 5:52.54 | 69701 | 96154
5 | 21:22.05 | 8:36.29 | 96155 | 134883
6 | 29:58.34 | 5:05.66 | 134884 | 157824
7 | 35:04.25 | 9:11.18 | 157825 | 199167
8 | 44:15.43 | 5:30.58 | 199168 | 223975
9 | 49:46.26 | 9:10.20 | 223976 | 265245
10 | 58:56.46 | 8:12.61 | 265246 | 302206


Track 1

Filename E:\Music - Torrents\Grateful Dead - July 1978 - The Complete Recordings\1978-07-07\Disc 1\01 - Jack Straw.wav

Pre-gap length 0:00:02.00

Peak level 97.7 %
Extraction speed 4.5 X
Track quality 100.0 %
Test CRC 246EAC60
Copy CRC 246EAC60
Track not present in AccurateRip database
Copy OK

Track 2

Filename E:\Music - Torrents\Grateful Dead - July 1978 - The Complete Recordings\1978-07-07\Disc 1\02 - Candyman.wav

Peak level 97.7 %
Extraction speed 5.2 X
Track quality 100.0 %
Test CRC 5C3DCB0B
Copy CRC 5C3DCB0B
Track not present in AccurateRip database
Copy OK

Track 3

Filename E:\Music - Torrents\Grateful Dead - July 1978 - The Complete Recordings\1978-07-07\Disc 1\03 - Me and My Uncle.wav

Peak level 97.1 %
Extraction speed 5.2 X
Track quality 100.0 %
Test CRC 8F80291F
Copy CRC 8F80291F
Track not present in AccurateRip database
Copy OK

Track 4

Filename E:\Music - Torrents\Grateful Dead - July 1978 - The Complete Recordings\1978-07-07\Disc 1\04 - Big River.wav

Peak level 97.7 %
Extraction speed 6.0 X
Track quality 100.0 %
Test CRC BF597CDF
Copy CRC BF597CDF
Track not present in AccurateRip database
Copy OK

Track 5

Filename E:\Music - Torrents\Grateful Dead - July 1978 - The Complete Recordings\1978-07-07\Disc 1\05 - Friend of the Devil.wav

Peak level 97.2 %
Extraction speed 6.9 X
Track quality 100.0 %
Test CRC 906579C7
Copy CRC 906579C7
Track not present in AccurateRip database
Copy OK

Track 6

Filename E:\Music - Torrents\Grateful Dead - July 1978 - The Complete Recordings\1978-07-07\Disc 1\06 - Cassidy.wav

Peak level 97.7 %
Extraction speed 7.0 X
Track quality 100.0 %
Test CRC 153235F8
Copy CRC 153235F8
Track not present in AccurateRip database
Copy OK

Track 7

Filename E:\Music - Torrents\Grateful Dead - July 1978 - The Complete Recordings\1978-07-07\Disc 1\07 - Tennessee Jed.wav

Peak level 97.7 %
Extraction speed 7.9 X
Track quality 100.0 %
Test CRC 2740968C
Copy CRC 2740968C
Track not present in AccurateRip database
Copy OK

Track 8

Filename E:\Music - Torrents\Grateful Dead - July 1978 - The Complete Recordings\1978-07-07\Disc 1\08 - Passenger.wav

Peak level 97.7 %
Extraction speed 8.0 X
Track quality 100.0 %
Test CRC 1DE927D4
Copy CRC 1DE927D4
Track not present in AccurateRip database
Copy OK

Track 9

Filename E:\Music - Torrents\Grateful Dead - July 1978 - The Complete Recordings\1978-07-07\Disc 1\09 - Peggy-O.wav

Peak level 97.1 %
Extraction speed 8.8 X
Track quality 100.0 %
Test CRC 27228556
Copy CRC 27228556
Track not present in AccurateRip database
Copy OK

Track 10

Filename E:\Music - Torrents\Grateful Dead - July 1978 - The Complete Recordings\1978-07-07\Disc 1\10 - The Music Never Stopped.wav

Peak level 97.7 %
Extraction speed 9.2 X
Track quality 100.0 %
Test CRC 653C341C
Copy CRC 653C341C
Track not present in AccurateRip database
Copy OK


None of the tracks are present in the AccurateRip database

No errors occurred

End of status report

==== Log checksum 6B695DB5573EF4E34C2A98863F9E8822E8FC7D0661A1DBB68EA8859CA4241195 ====

Exact Audio Copy V1.0 beta 2 from 29. April 2011

EAC extraction logfile from 19. May 2016, 20:58

Grateful Dead / 1978-07-07 Red Rocks Amphitheatre, Morrison, CO (Disc 2)

Used drive : ASUS DRW-1814BL Adapter: 1 ID: 0

Read mode : Secure
Utilize accurate stream : Yes
Defeat audio cache : Yes
Make use of C2 pointers : No

Read offset correction : 6
Overread into Lead-In and Lead-Out : No
Fill up missing offset samples with silence : Yes
Delete leading and trailing silent blocks : No
Null samples used in CRC calculations : Yes
Used interface : Installed external ASPI interface
Gap handling : Appended to previous track

Used output format : User Defined Encoder
Selected bitrate : 896 kBit/s
Quality : High
Add ID3 tag : No
Command line compressor : C:\Program Files\Entertainment\Exact Audio Copy\Flac\flac.exe
Additional command line options : -8 -V -T "ARTIST=%artist%" -T "TITLE=%title%" -T "ALBUM=%albumtitle%" -T "DATE=%year%" -T "TRACKNUMBER=%tracknr%" -T "GENRE=%genre%" -T "PERFORMER=%albuminterpret%" -T "COMPOSER=%composer%" %haslyrics%–tag-from-file=LYRICS


TOC of the extracted CD

Track | Start | Length | Start sector | End sector
––––––––––––––––––––––––––––-
1 | 0:00.00 | 7:25.48 | 0 | 33422
2 | 7:25.48 | 3:38.04 | 33423 | 49776
3 | 11:03.52 | 10:18.20 | 49777 | 96146
4 | 21:21.72 | 8:10.24 | 96147 | 132920


Track 1

Filename E:\Music - Torrents\Grateful Dead - July 1978 - The Complete Recordings\1978-07-07\Disc 2\01 - Cold Rain and Snow.wav

Pre-gap length 0:00:02.00

Peak level 97.0 %
Extraction speed 5.4 X
Track quality 100.0 %
Test CRC 1DD6466E
Copy CRC 1DD6466E
Track not present in AccurateRip database
Copy OK

Track 2

Filename E:\Music - Torrents\Grateful Dead - July 1978 - The Complete Recordings\1978-07-07\Disc 2\02 - Beat It on Down the Line.wav

Peak level 97.5 %
Extraction speed 5.8 X
Track quality 100.0 %
Test CRC 149F7F4B
Copy CRC 149F7F4B
Track not present in AccurateRip database
Copy OK

Track 3

Filename E:\Music - Torrents\Grateful Dead - July 1978 - The Complete Recordings\1978-07-07\Disc 2\03 - Scarlet Begonias.wav

Peak level 97.6 %
Extraction speed 7.1 X
Track quality 100.0 %
Test CRC DC28A3E5
Copy CRC DC28A3E5
Track not present in AccurateRip database
Copy OK

Track 4

Filename E:\Music - Torrents\Grateful Dead - July 1978 - The Complete Recordings\1978-07-07\Disc 2\04 - Fire on the Mountain.wav

Peak level 97.7 %
Extraction speed 7.0 X
Track quality 100.0 %
Test CRC F5511F92
Copy CRC F5511F92
Track not present in AccurateRip database
Copy OK


None of the tracks are present in the AccurateRip database

No errors occurred

End of status report

==== Log checksum 1AB6A517BC1A69C35237255FC5C032DA487E1FE79D4E06227AF32752CCE54970 ====

Exact Audio Copy V1.0 beta 2 from 29. April 2011

EAC extraction logfile from 19. May 2016, 21:26

Grateful Dead / 1978-07-07 Red Rocks Amphitheatre, Morrison, CO (Disc 3)

Used drive : ASUS DRW-1814BL Adapter: 1 ID: 0

Read mode : Secure
Utilize accurate stream : Yes
Defeat audio cache : Yes
Make use of C2 pointers : No

Read offset correction : 6
Overread into Lead-In and Lead-Out : No
Fill up missing offset samples with silence : Yes
Delete leading and trailing silent blocks : No
Null samples used in CRC calculations : Yes
Used interface : Installed external ASPI interface
Gap handling : Appended to previous track

Used output format : User Defined Encoder
Selected bitrate : 896 kBit/s
Quality : High
Add ID3 tag : No
Command line compressor : C:\Program Files\Entertainment\Exact Audio Copy\Flac\flac.exe
Additional command line options : -8 -V -T "ARTIST=%artist%" -T "TITLE=%title%" -T "ALBUM=%albumtitle%" -T "DATE=%year%" -T "TRACKNUMBER=%tracknr%" -T "GENRE=%genre%" -T "PERFORMER=%albuminterpret%" -T "COMPOSER=%composer%" %haslyrics%–tag-from-file=LYRICS


TOC of the extracted CD

Track | Start | Length | Start sector | End sector
––––––––––––––––––––––––––––-
1 | 0:00.00 | 8:56.38 | 0 | 40237
2 | 8:56.38 | 10:12.17 | 40238 | 86154
3 | 19:08.55 | 6:08.72 | 86155 | 113826
4 | 25:17.52 | 11:04.22 | 113827 | 163648
5 | 36:21.74 | 10:29.08 | 163649 | 210831
6 | 46:51.07 | 8:44.06 | 210832 | 250137
7 | 55:35.13 | 5:54.46 | 250138 | 276733
8 | 61:29.59 | 4:15.43 | 276734 | 295901


Track 1

Filename E:\Music - Torrents\Grateful Dead - July 1978 - The Complete Recordings\1978-07-07\Disc 3\01 - Dancing in the Street.wav

Pre-gap length 0:00:02.00

Peak level 97.7 %
Extraction speed 3.7 X
Track quality 99.9 %
Test CRC 58202ED2
Copy CRC 58202ED2
Track not present in AccurateRip database
Copy OK

Track 2

Filename E:\Music - Torrents\Grateful Dead - July 1978 - The Complete Recordings\1978-07-07\Disc 3\02 - Rhythm Devils.wav

Peak level 97.7 %
Extraction speed 5.9 X
Track quality 100.0 %
Test CRC 95E461D1
Copy CRC 95E461D1
Track not present in AccurateRip database
Copy OK

Track 3

Filename E:\Music - Torrents\Grateful Dead - July 1978 - The Complete Recordings\1978-07-07\Disc 3\03 - Space.wav

Peak level 96.1 %
Extraction speed 6.0 X
Track quality 100.0 %
Test CRC ADE1B935
Copy CRC ADE1B935
Track not present in AccurateRip database
Copy OK

Track 4

Filename E:\Music - Torrents\Grateful Dead - July 1978 - The Complete Recordings\1978-07-07\Disc 3\04 - Not Fade Away.wav

Peak level 97.7 %
Extraction speed 7.4 X
Track quality 100.0 %
Test CRC 30071A72
Copy CRC 30071A72
Track not present in AccurateRip database
Copy OK

Track 5

Filename E:\Music - Torrents\Grateful Dead - July 1978 - The Complete Recordings\1978-07-07\Disc 3\05 - Black Peter.wav

Peak level 97.7 %
Extraction speed 6.3 X
Track quality 99.9 %
Test CRC FF6626D7
Copy CRC FF6626D7
Track not present in AccurateRip database
Copy OK

Track 6

Filename E:\Music - Torrents\Grateful Dead - July 1978 - The Complete Recordings\1978-07-07\Disc 3\06 - Around and Around.wav

Peak level 97.7 %
Extraction speed 8.6 X
Track quality 100.0 %
Test CRC C47E9365
Copy CRC C47E9365
Track not present in AccurateRip database
Copy OK

Track 7

Filename E:\Music - Torrents\Grateful Dead - July 1978 - The Complete Recordings\1978-07-07\Disc 3\07 - U.S. Blues.wav

Peak level 97.5 %
Extraction speed 8.8 X
Track quality 100.0 %
Test CRC 93DDD2B9
Copy CRC 93DDD2B9
Track not present in AccurateRip database
Copy OK

Track 8

Filename E:\Music - Torrents\Grateful Dead - July 1978 - The Complete Recordings\1978-07-07\Disc 3\08 - Johnny B. Goode.wav

Peak level 97.7 %
Extraction speed 8.6 X
Track quality 100.0 %
Test CRC 4DAF03A8
Copy CRC 4DAF03A8
Track not present in AccurateRip database
Copy OK


None of the tracks are present in the AccurateRip database

No errors occurred

End of status report

==== Log checksum 10701727AD76B7E40A87B5B3A1986721CE310058448FF4466B9D00A1D683B169 ====

Exact Audio Copy V1.0 beta 2 from 29. April 2011

EAC extraction logfile from 19. May 2016, 21:50

Grateful Dead / 1978-07-08 Red Rocks Amphitheatre, Morrison, CO (Disc 1)

Used drive : ASUS DRW-1814BL Adapter: 1 ID: 0

Read mode : Secure
Utilize accurate stream : Yes
Defeat audio cache : Yes
Make use of C2 pointers : No

Read offset correction : 6
Overread into Lead-In and Lead-Out : No
Fill up missing offset samples with silence : Yes
Delete leading and trailing silent blocks : No
Null samples used in CRC calculations : Yes
Used interface : Installed external ASPI interface
Gap handling : Appended to previous track

Used output format : User Defined Encoder
Selected bitrate : 896 kBit/s
Quality : High
Add ID3 tag : No
Command line compressor : C:\Program Files\Entertainment\Exact Audio Copy\Flac\flac.exe
Additional command line options : -8 -V -T "ARTIST=%artist%" -T "TITLE=%title%" -T "ALBUM=%albumtitle%" -T "DATE=%year%" -T "TRACKNUMBER=%tracknr%" -T "GENRE=%genre%" -T "PERFORMER=%albuminterpret%" -T "COMPOSER=%composer%" %haslyrics%–tag-from-file=LYRICS


TOC of the extracted CD

Track | Start | Length | Start sector | End sector
––––––––––––––––––––––––––––-
1 | 0:00.00 | 6:43.33 | 0 | 30257
2 | 6:43.33 | 6:40.15 | 30258 | 60272
3 | 13:23.48 | 4:06.47 | 60273 | 78769
4 | 17:30.20 | 4:25.02 | 78770 | 98646
5 | 21:55.22 | 7:16.11 | 98647 | 131357
6 | 29:11.33 | 6:08.68 | 131358 | 159025
7 | 35:20.26 | 8:34.07 | 159026 | 197582
8 | 43:54.33 | 4:37.29 | 197583 | 218386
9 | 48:31.62 | 6:29.27 | 218387 | 247588
10 | 55:01.14 | 7:44.34 | 247589 | 282422
11 | 62:45.48 | 7:28.49 | 282423 | 316071


Track 1

Filename E:\Music - Torrents\Grateful Dead - July 1978 - The Complete Recordings\1978-07-08\Disc 1\01 - Bertha.wav

Pre-gap length 0:00:02.00

Peak level 97.7 %
Extraction speed 5.6 X
Track quality 100.0 %
Test CRC 2FBE501D
Copy CRC 2FBE501D
Track not present in AccurateRip database
Copy OK

Track 2

Filename E:\Music - Torrents\Grateful Dead - July 1978 - The Complete Recordings\1978-07-08\Disc 1\02 - Good Lovin’.wav

Peak level 97.7 %
Extraction speed 6.4 X
Track quality 100.0 %
Test CRC 141B8D32
Copy CRC 141B8D32
Track not present in AccurateRip database
Copy OK

Track 3

Filename E:\Music - Torrents\Grateful Dead - July 1978 - The Complete Recordings\1978-07-08\Disc 1\03 - Dire Wolf.wav

Peak level 97.7 %
Extraction speed 5.0 X
Track quality 99.9 %
Test CRC B5C9E171
Copy CRC B5C9E171
Track not present in AccurateRip database
Copy OK

Track 4

Filename E:\Music - Torrents\Grateful Dead - July 1978 - The Complete Recordings\1978-07-08\Disc 1\04 - El Paso.wav

Peak level 97.7 %
Extraction speed 7.0 X
Track quality 100.0 %
Test CRC CF5EA659
Copy CRC CF5EA659
Track not present in AccurateRip database
Copy OK

Track 5

Filename E:\Music - Torrents\Grateful Dead - July 1978 - The Complete Recordings\1978-07-08\Disc 1\05 - It Must Have Been the Roses.wav

Peak level 97.7 %
Extraction speed 8.0 X
Track quality 100.0 %
Test CRC 5FB5E070
Copy CRC 5FB5E070
Track not present in AccurateRip database
Copy OK

Track 6

Filename E:\Music - Torrents\Grateful Dead - July 1978 - The Complete Recordings\1978-07-08\Disc 1\06 - New Minglewood Blues.wav

Peak level 97.7 %
Extraction speed 8.5 X
Track quality 100.0 %
Test CRC 0FEF0FEE
Copy CRC 0FEF0FEE
Track not present in AccurateRip database
Copy OK

Track 7

Filename E:\Music - Torrents\Grateful Dead - July 1978 - The Complete Recordings\1978-07-08\Disc 1\07 - Ramble on Rose.wav

Peak level 97.7 %
Extraction speed 9.3 X
Track quality 100.0 %
Test CRC 90CA27CE
Copy CRC 90CA27CE
Track not present in AccurateRip database
Copy OK

Track 8

Filename E:\Music - Torrents\Grateful Dead - July 1978 - The Complete Recordings\1978-07-08\Disc 1\08 - Promised Land.wav

Peak level 97.7 %
Extraction speed 9.3 X
Track quality 100.0 %
Test CRC C6E7A6BA
Copy CRC C6E7A6BA
Track not present in AccurateRip database
Copy OK

Track 9

Filename E:\Music - Torrents\Grateful Dead - July 1978 - The Complete Recordings\1978-07-08\Disc 1\09 - Deal.wav

Peak level 97.7 %
Extraction speed 9.9 X
Track quality 100.0 %
Test CRC A2CF337F
Copy CRC A2CF337F
Track not present in AccurateRip database
Copy OK

Track 10

Filename E:\Music - Torrents\Grateful Dead - July 1978 - The Complete Recordings\1978-07-08\Disc 1\10 - Samson and Delilah.wav

Peak level 97.7 %
Extraction speed 8.4 X
Track quality 99.9 %
Test CRC 9903F0BA
Copy CRC 9903F0BA
Track not present in AccurateRip database
Copy OK

Track 11

Filename E:\Music - Torrents\Grateful Dead - July 1978 - The Complete Recordings\1978-07-08\Disc 1\11 - Ship of Fools.wav

Peak level 97.7 %
Extraction speed 10.9 X
Track quality 100.0 %
Test CRC E265AD91
Copy CRC E265AD91
Track not present in AccurateRip database
Copy OK


None of the tracks are present in the AccurateRip database

No errors occurred

End of status report

==== Log checksum 0B2C94C9FBFB766A9ECEEE7763705E20589271833C85EF7619C525F47484CB56 ====

Exact Audio Copy V1.0 beta 2 from 29. April 2011

EAC extraction logfile from 19. May 2016, 22:14

Grateful Dead / 1978-07-08 Red Rocks Amphitheatre, Morrison, CO (Disc 2)

Used drive : ASUS DRW-1814BL Adapter: 1 ID: 0

Read mode : Secure
Utilize accurate stream : Yes
Defeat audio cache : Yes
Make use of C2 pointers : No

Read offset correction : 6
Overread into Lead-In and Lead-Out : No
Fill up missing offset samples with silence : Yes
Delete leading and trailing silent blocks : No
Null samples used in CRC calculations : Yes
Used interface : Installed external ASPI interface
Gap handling : Appended to previous track

Used output format : User Defined Encoder
Selected bitrate : 896 kBit/s
Quality : High
Add ID3 tag : No
Command line compressor : C:\Program Files\Entertainment\Exact Audio Copy\Flac\flac.exe
Additional command line options : -8 -V -T "ARTIST=%artist%" -T "TITLE=%title%" -T "ALBUM=%albumtitle%" -T "DATE=%year%" -T "TRACKNUMBER=%tracknr%" -T "GENRE=%genre%" -T "PERFORMER=%albuminterpret%" -T "COMPOSER=%composer%" %haslyrics%–tag-from-file=LYRICS


TOC of the extracted CD

Track | Start | Length | Start sector | End sector
––––––––––––––––––––––––––––-
1 | 0:00.00 | 13:07.63 | 0 | 59087
2 | 13:07.63 | 8:50.53 | 59088 | 98890
3 | 21:58.41 | 10:33.67 | 98891 | 146432
4 | 32:32.33 | 10:29.17 | 146433 | 193624
5 | 43:01.50 | 5:03.04 | 193625 | 216353
6 | 48:04.54 | 8:43.05 | 216354 | 255583
7 | 56:47.59 | 10:38.58 | 255584 | 303491
8 | 67:26.42 | 9:30.43 | 303492 | 346284


Track 1

Filename E:\Music - Torrents\Grateful Dead - July 1978 - The Complete Recordings\1978-07-08\Disc 2\01 - Estimated Prophet.wav

Pre-gap length 0:00:02.00

Peak level 97.7 %
Extraction speed 5.5 X
Track quality 99.9 %
Test CRC B0DE4FD5
Copy CRC B0DE4FD5
Track not present in AccurateRip database
Copy OK

Track 2

Filename E:\Music - Torrents\Grateful Dead - July 1978 - The Complete Recordings\1978-07-08\Disc 2\02 - The Other One.wav

Peak level 97.7 %
Extraction speed 7.9 X
Track quality 100.0 %
Test CRC 03923867
Copy CRC 03923867
Track not present in AccurateRip database
Copy OK

Track 3

Filename E:\Music - Torrents\Grateful Dead - July 1978 - The Complete Recordings\1978-07-08\Disc 2\03 - Eyes of the World.wav

Peak level 97.7 %
Extraction speed 8.6 X
Track quality 100.0 %
Test CRC BB4DE76A
Copy CRC BB4DE76A
Track not present in AccurateRip database
Copy OK

Track 4

Filename E:\Music - Torrents\Grateful Dead - July 1978 - The Complete Recordings\1978-07-08\Disc 2\04 - Rhythm Devils.wav

Peak level 94.5 %
Extraction speed 9.4 X
Track quality 100.0 %
Test CRC 873232F2
Copy CRC 873232F2
Track not present in AccurateRip database
Copy OK

Track 5

Filename E:\Music - Torrents\Grateful Dead - July 1978 - The Complete Recordings\1978-07-08\Disc 2\05 - Space.wav

Peak level 97.7 %
Extraction speed 9.2 X
Track quality 100.0 %
Test CRC 62279A48
Copy CRC 62279A48
Track not present in AccurateRip database
Copy OK

Track 6

Filename E:\Music - Torrents\Grateful Dead - July 1978 - The Complete Recordings\1978-07-08\Disc 2\06 - Wharf Rat.wav

Peak level 97.7 %
Extraction speed 10.0 X
Track quality 100.0 %
Test CRC AE145352
Copy CRC AE145352
Track not present in AccurateRip database
Copy OK

Track 7

Filename E:\Music - Torrents\Grateful Dead - July 1978 - The Complete Recordings\1978-07-08\Disc 2\07 - Franklin’s Tower.wav

Peak level 97.7 %
Extraction speed 8.8 X
Track quality 99.9 %
Test CRC 469D4876
Copy CRC 469D4876
Track not present in AccurateRip database
Copy OK

Track 8

Filename E:\Music - Torrents\Grateful Dead - July 1978 - The Complete Recordings\1978-07-08\Disc 2\08 - Sugar Magnolia.wav

Peak level 97.7 %
Extraction speed 10.3 X
Track quality 100.0 %
Test CRC E452B290
Copy CRC E452B290
Track not present in AccurateRip database
Copy OK


None of the tracks are present in the AccurateRip database

No errors occurred

End of status report

==== Log checksum 5F1C0D854DC7D121B0988B1B17C5DE2CF4439E3C4DFCEB85DDF12B18AD804759 ====

Exact Audio Copy V1.0 beta 2 from 29. April 2011

EAC extraction logfile from 19. May 2016, 22:25

Grateful Dead / 1978-07-08 Red Rocks Amphitheatre, Morrison, CO (Disc 3)

Used drive : ASUS DRW-1814BL Adapter: 1 ID: 0

Read mode : Secure
Utilize accurate stream : Yes
Defeat audio cache : Yes
Make use of C2 pointers : No

Read offset correction : 6
Overread into Lead-In and Lead-Out : No
Fill up missing offset samples with silence : Yes
Delete leading and trailing silent blocks : No
Null samples used in CRC calculations : Yes
Used interface : Installed external ASPI interface
Gap handling : Appended to previous track

Used output format : User Defined Encoder
Selected bitrate : 896 kBit/s
Quality : High
Add ID3 tag : No
Command line compressor : C:\Program Files\Entertainment\Exact Audio Copy\Flac\flac.exe
Additional command line options : -8 -V -T "ARTIST=%artist%" -T "TITLE=%title%" -T "ALBUM=%albumtitle%" -T "DATE=%year%" -T "TRACKNUMBER=%tracknr%" -T "GENRE=%genre%" -T "PERFORMER=%albuminterpret%" -T "COMPOSER=%composer%" %haslyrics%–tag-from-file=LYRICS


TOC of the extracted CD

Track | Start | Length | Start sector | End sector
––––––––––––––––––––––––––––-
1 | 0:00.00 | 10:54.34 | 0 | 49083
2 | 10:54.34 | 5:12.64 | 49084 | 72547
3 | 16:07.23 | 6:44.18 | 72548 | 102865


Track 1

Filename E:\Music - Torrents\Grateful Dead - July 1978 - The Complete Recordings\1978-07-08\Disc 3\01 - Terrapin Station.wav

Pre-gap length 0:00:02.00

Peak level 97.5 %
Extraction speed 6.0 X
Track quality 100.0 %
Test CRC 6FFC7FCC
Copy CRC 6FFC7FCC
Track not present in AccurateRip database
Copy OK

Track 2

Filename E:\Music - Torrents\Grateful Dead - July 1978 - The Complete Recordings\1978-07-08\Disc 3\02 - One More Saturday Night.wav

Peak level 97.5 %
Extraction speed 6.7 X
Track quality 100.0 %
Test CRC FFDC66B4
Copy CRC FFDC66B4
Track not present in AccurateRip database
Copy OK

Track 3

Filename E:\Music - Torrents\Grateful Dead - July 1978 - The Complete Recordings\1978-07-08\Disc 3\03 - Werewolves of London.wav

Peak level 97.7 %
Extraction speed 7.6 X
Track quality 100.0 %
Test CRC BA3C4C96
Copy CRC BA3C4C96
Track not present in AccurateRip database
Copy OK


None of the tracks are present in the AccurateRip database

No errors occurred

End of status report

==== Log checksum 194704D113D3BA0BB8AE086EA145E674CD3C3D52A5B079DF5FB58AC450879589 ====

Thanks to the Original ripper sandchar99 !