Subcategories
Tags
Language
Tags

Toquinho & Vinicius - Um Pouco de Ilusão (1980) {2013 Universal Music Brazil}

Posted By: TestTickles
Toquinho & Vinicius - Um Pouco de Ilusão (1980) {2013 Universal Music Brazil}

Toquinho & Vinicius - Um Pouco de Ilusão (1980) {2013 Universal Music Brazil}
EAC Rip | FLAC with CUE and log | scans | 290 mb
MP3 CBR 320 kbps | RAR | 103 mb
Genre: bossanova, MPB

Um Pouco de Ilusão is the 1980 album by Toquinho & Vinicius. This is taken from the 2013 remaster released in Brazil by Universal Music.

Toquinho & Vinicius - Um Pouco de Ilusão (1980) {2013 Universal Music Brazil}

01. Escravo Da Alegria
02. Oi Lá !
03. Valsa Do Bordel
04. Samba Para Endrigo
05. Minha Luz Apagou
06. Até Rolar Pelo Chão
07. Por Que Será
08. Golpe Errado
09. Caro Raul
10. Gilda
11. Amigos Meus

Exact Audio Copy V1.3 from 2. September 2016

EAC extraction logfile from 30. December 2016, 9:02

Toquinho & Vinicius / Um Pouco de Ilusão

Used drive : HL-DT-STDVDRAM GP65NB60 Adapter: 1 ID: 1

Read mode : Secure
Utilize accurate stream : Yes
Defeat audio cache : Yes
Make use of C2 pointers : No

Read offset correction : 6
Overread into Lead-In and Lead-Out : No
Fill up missing offset samples with silence : Yes
Delete leading and trailing silent blocks : No
Null samples used in CRC calculations : Yes
Used interface : Native Win32 interface for Win NT & 2000
Gap handling : Not detected, thus appended to previous track

Used output format : User Defined Encoder
Selected bitrate : 768 kBit/s
Quality : High
Add ID3 tag : No
Command line compressor : C:\Program Files (x86)\Exact Audio Copy\FLAC\FLAC.EXE
Additional command line options : -6 -V -T "ARTIST=%artist%" -T "TITLE=%title%" -T "ALBUM=%albumtitle%" -T "DATE=%year%" -T "TRACKNUMBER=%tracknr%" -T "GENRE=%genre%" -T "COMMENT=%comment%" -T "BAND=%albuminterpret%" -T "ALBUMARTIST=%albuminterpret%" -T "COMPOSER=%composer%" %haslyrics%–tag-from-file=LYRICS="%lyricsfile%"%haslyrics% -T "DISCNUMBER=%cdnumber%" -T "TOTALDISCS=%totalcds%" -T "TOTALTRACKS=%numtracks%" %hascover%–picture="%coverfile%"%hascover% %source% -o %dest%


TOC of the extracted CD

Track | Start | Length | Start sector | End sector
––––––––––––––––––––––––––––-
1 | 0:00.00 | 3:50.71 | 0 | 17320
2 | 3:50.71 | 2:48.32 | 17321 | 29952
3 | 6:39.28 | 3:15.09 | 29953 | 44586
4 | 9:54.37 | 4:24.19 | 44587 | 64405
5 | 14:18.56 | 3:17.09 | 64406 | 79189
6 | 17:35.65 | 3:16.05 | 79190 | 93894
7 | 20:51.70 | 2:44.45 | 93895 | 106239
8 | 23:36.40 | 2:52.42 | 106240 | 119181
9 | 26:29.07 | 2:19.13 | 119182 | 129619
10 | 28:48.20 | 2:59.43 | 129620 | 143087
11 | 31:47.63 | 4:10.65 | 143088 | 161902


Track 1

Filename C:\cuntfist\FLAC\Toquinho & Vinicius - Um Pouco de Ilusão (1980) [FLAC] {2013 Universal Music Brazil}\01 - Escravo Da Alegria.wav

Peak level 99.2 %
Extraction speed 2.5 X
Track quality 100.0 %
Copy CRC 991947EF
Accurately ripped (confidence 1) [074CDB64] (AR v2)
Copy OK

Track 2

Filename C:\cuntfist\FLAC\Toquinho & Vinicius - Um Pouco de Ilusão (1980) [FLAC] {2013 Universal Music Brazil}\02 - Oilá.wav

Peak level 100.0 %
Extraction speed 2.5 X
Track quality 100.0 %
Copy CRC 4FDC8F81
Accurately ripped (confidence 2) [0B66E522] (AR v2)
Copy OK

Track 3

Filename C:\cuntfist\FLAC\Toquinho & Vinicius - Um Pouco de Ilusão (1980) [FLAC] {2013 Universal Music Brazil}\03 - Valsa Do Bordel.wav

Peak level 96.8 %
Extraction speed 2.8 X
Track quality 100.0 %
Copy CRC 5B39C833
Accurately ripped (confidence 2) [D47F3276] (AR v2)
Copy OK

Track 4

Filename C:\cuntfist\FLAC\Toquinho & Vinicius - Um Pouco de Ilusão (1980) [FLAC] {2013 Universal Music Brazil}\04 - Samba Para Endrigo.wav

Peak level 99.1 %
Extraction speed 2.6 X
Track quality 99.9 %
Copy CRC 93E533BB
Accurately ripped (confidence 2) [A307F80D] (AR v2)
Copy OK

Track 5

Filename C:\cuntfist\FLAC\Toquinho & Vinicius - Um Pouco de Ilusão (1980) [FLAC] {2013 Universal Music Brazil}\05 - Minha Luz Apagou.wav

Peak level 97.7 %
Extraction speed 3.1 X
Track quality 100.0 %
Copy CRC 1C4543A4
Accurately ripped (confidence 2) [6D958D66] (AR v2)
Copy OK

Track 6

Filename C:\cuntfist\FLAC\Toquinho & Vinicius - Um Pouco de Ilusão (1980) [FLAC] {2013 Universal Music Brazil}\06 - Até Rolar Pelo Chão.wav

Peak level 98.6 %
Extraction speed 3.3 X
Track quality 100.0 %
Copy CRC DABB3392
Accurately ripped (confidence 2) [0AD4DA90] (AR v2)
Copy OK

Track 7

Filename C:\cuntfist\FLAC\Toquinho & Vinicius - Um Pouco de Ilusão (1980) [FLAC] {2013 Universal Music Brazil}\07 - Por Que Será.wav

Peak level 97.0 %
Extraction speed 3.4 X
Track quality 100.0 %
Copy CRC 7370EB73
Accurately ripped (confidence 2) [A2E371AD] (AR v2)
Copy OK

Track 8

Filename C:\cuntfist\FLAC\Toquinho & Vinicius - Um Pouco de Ilusão (1980) [FLAC] {2013 Universal Music Brazil}\08 - Golpe Errado.wav

Peak level 98.3 %
Extraction speed 3.5 X
Track quality 100.0 %
Copy CRC 63A1A56D
Accurately ripped (confidence 2) [E43EA826] (AR v2)
Copy OK

Track 9

Filename C:\cuntfist\FLAC\Toquinho & Vinicius - Um Pouco de Ilusão (1980) [FLAC] {2013 Universal Music Brazil}\09 - Caro Raul.wav

Peak level 98.0 %
Extraction speed 3.4 X
Track quality 100.0 %
Copy CRC CF5009AC
Accurately ripped (confidence 2) [214BBD34] (AR v2)
Copy OK

Track 10

Filename C:\cuntfist\FLAC\Toquinho & Vinicius - Um Pouco de Ilusão (1980) [FLAC] {2013 Universal Music Brazil}\10 - Gilda.wav

Peak level 100.0 %
Extraction speed 3.7 X
Track quality 100.0 %
Copy CRC A7644F30
Accurately ripped (confidence 2) [2C07683E] (AR v2)
Copy OK

Track 11

Filename C:\cuntfist\FLAC\Toquinho & Vinicius - Um Pouco de Ilusão (1980) [FLAC] {2013 Universal Music Brazil}\11 - Amigos Meus.wav

Peak level 98.2 %
Extraction speed 3.9 X
Track quality 100.0 %
Copy CRC 1553AB0C
Accurately ripped (confidence 2) [B90347BF] (AR v2)
Copy OK


All tracks accurately ripped

No errors occurred

End of status report

–– CUETools DB Plugin V2.1.6

[CTDB TOCID: 2YNe5nh7nU_e5uyza43jHlJT2fA-] found
Submit result: 2YNe5nh7nU_e5uyza43jHlJT2fA- has been confirmed
Track | CTDB Status
1 | (2/3) Accurately ripped, or (1/3) differs in 180 samples @02:12:69
2 | (3/3) Accurately ripped
3 | (3/3) Accurately ripped
4 | (3/3) Accurately ripped
5 | (3/3) Accurately ripped
6 | (3/3) Accurately ripped
7 | (3/3) Accurately ripped
8 | (3/3) Accurately ripped
9 | (3/3) Accurately ripped
10 | (3/3) Accurately ripped
11 | (3/3) Accurately ripped


Toquinho & Vinicius - Um Pouco de Ilusão (1980) {2013 Universal Music Brazil}


Thank you to the original uploader.