Tags
Language
Tags
April 2024
Su Mo Tu We Th Fr Sa
31 1 2 3 4 5 6
7 8 9 10 11 12 13
14 15 16 17 18 19 20
21 22 23 24 25 26 27
28 29 30 1 2 3 4

Shawn Colvin ‎- Polaroids: A Greatest Hits Collection (2004)

Posted By: Rtax
Shawn Colvin ‎- Polaroids: A Greatest Hits Collection (2004)

Shawn Colvin ‎- Polaroids: A Greatest Hits Collection (2004)
EAC Rip | FLAC (tracks, cue, log) - 443 MB | MP3 CBR 320 kbps - 157 MB
1:08:38 | Pop Rock, Folk | Label: Sony Legacy

The Polaroids: A Greatest Hits Collection CD features 15 outstanding tracks culled from Shawn's critically-acclaimed albums–Steady On (1989), Fat City (1992), Cover Girl (1994), A Few Small Repairs (1996), & Whole New You (2001)–and a newly-recorded cover of the classic Beatles song, 'I'll Be Back.' The album includes Shawn's Grammy-winning songs from Steady On (which won in 1990 for Best Contemporary Folk Recording) & her 1997 Grammy-winning Song of the Year/Record of the Year, 'Sunny Came Home.'

Tracklist
Steady On
Diamond in the Rough
Shotgun Down the Avalanche
Round of Blues
Polaroids
I Don’t Know Why
Every Little Thing (He) Does Is Magic
This Must Be the Place (Naive Melody)
Sunny Came Home
You and the Mona Lisa
Get Out of This House
The Facts About Jimmy
Whole New You
A Matter of Minutes
I’ll Be Back
Exact Audio Copy V1.0 beta 3 from 29. August 2011

EAC extraction logfile from 28. February 2012, 12:56

Shawn Colvin / Polaroids: A Greatest Hits Collection

Used drive : TSSTcorpCDDVDW SH-S223L Adapter: 5 ID: 0

Read mode : Burst

Read offset correction : 6
Overread into Lead-In and Lead-Out : No
Fill up missing offset samples with silence : Yes
Delete leading and trailing silent blocks : No
Null samples used in CRC calculations : Yes
Used interface : Native Win32 interface for Win NT & 2000
Gap handling : Appended to previous track

Used output format : User Defined Encoder
Selected bitrate : 1024 kBit/s
Quality : High
Add ID3 tag : No
Command line compressor : C:\Program Files (x86)\Exact Audio Copy\FLAC\FLAC.EXE
Additional command line options : -6 -V -T "ARTIST=%artist%" -T "TITLE=%title%" -T "ALBUM=%albumtitle%" -T "DATE=%year%" -T "TRACKNUMBER=%tracknr%" -T "GENRE=%genre%" -T "COMMENT=%comment%" -T "BAND=%albuminterpret%" -T "ALBUMARTIST=%albuminterpret%" -T "COMPOSER=%composer%" %haslyrics%–tag-from-file=LYRICS="%lyricsfile%"%haslyrics% -T "DISCNUMBER=%cdnumber%" -T "TOTALDISCS=%totalcds%" -T "TOTALTRACKS=%numtracks%" %hascover%–picture="%coverfile%"%hascover% %source% -o %dest%


TOC of the extracted CD

Track | Start | Length | Start sector | End sector
––––––––––––––––––––––––––––-
1 | 0:00.00 | 4:56.47 | 0 | 22246
2 | 4:56.47 | 5:00.60 | 22247 | 44806
3 | 9:57.32 | 5:01.55 | 44807 | 67436
4 | 14:59.12 | 4:43.68 | 67437 | 88729
5 | 19:43.05 | 5:49.10 | 88730 | 114914
6 | 25:32.15 | 4:38.42 | 114915 | 135806
7 | 30:10.57 | 3:17.48 | 135807 | 150629
8 | 33:28.30 | 4:02.55 | 150630 | 168834
9 | 37:31.10 | 4:25.25 | 168835 | 188734
10 | 41:56.35 | 4:06.50 | 188735 | 207234
11 | 46:03.10 | 4:16.60 | 207235 | 226494
12 | 50:19.70 | 5:24.20 | 226495 | 250814
13 | 55:44.15 | 4:02.02 | 250815 | 268966
14 | 59:46.17 | 5:08.58 | 268967 | 292124
15 | 64:55.00 | 3:41.27 | 292125 | 308726


Track 1

Filename C:\Users\Admin\Documents\01 EAC Rips\01. Steady On - Shawn Colvin.wav

Pre-gap length 0:00:02.00

Peak level 98.8 %
Extraction speed 18.9 X
Test CRC BD29EABB
Copy CRC BD29EABB
Accurately ripped (confidence 5) [711C3F10] (AR v2)
Copy OK

Track 2

Filename C:\Users\Admin\Documents\01 EAC Rips\02. Diamond In The Rough - Shawn Colvin.wav

Peak level 98.8 %
Extraction speed 21.1 X
Test CRC 98B72C24
Copy CRC 98B72C24
Accurately ripped (confidence 5) [704FD8C9] (AR v2)
Copy OK

Track 3

Filename C:\Users\Admin\Documents\01 EAC Rips\03. Shotgun Down The Avalanche - Shawn Colvin.wav

Peak level 98.8 %
Extraction speed 23.1 X
Test CRC DE93CEED
Copy CRC DE93CEED
Accurately ripped (confidence 5) [DEA39BBC] (AR v2)
Copy OK

Track 4

Filename C:\Users\Admin\Documents\01 EAC Rips\04. Round Of Blues - Shawn Colvin.wav

Peak level 98.8 %
Extraction speed 24.9 X
Test CRC 66F36BA6
Copy CRC 66F36BA6
Accurately ripped (confidence 5) [C0F944FD] (AR v2)
Copy OK

Track 5

Filename C:\Users\Admin\Documents\01 EAC Rips\05. Polaroids - Shawn Colvin.wav

Peak level 98.6 %
Extraction speed 26.7 X
Test CRC 031CB4CA
Copy CRC 031CB4CA
Cannot be verified as accurate (confidence 23) [063E5A53], AccurateRip returned [6CB1C0A5] (AR v2)
Copy OK

Track 6

Filename C:\Users\Admin\Documents\01 EAC Rips\06. I Don't Know Why - Shawn Colvin.wav

Peak level 93.0 %
Extraction speed 28.4 X
Test CRC 4B20F2BD
Copy CRC 4B20F2BD
Accurately ripped (confidence 5) [29C9E76A] (AR v2)
Copy OK

Track 7

Filename C:\Users\Admin\Documents\01 EAC Rips\07. Every Little Thing (He) Does Is Magic - Shawn Colvin.wav

Pre-gap length 0:00:00.72

Peak level 98.8 %
Extraction speed 29.4 X
Test CRC 81F619F7
Copy CRC 81F619F7
Accurately ripped (confidence 5) [FC9DF419] (AR v2)
Copy OK

Track 8

Filename C:\Users\Admin\Documents\01 EAC Rips\08. This Must Be The Place (Naive Melody) - Shawn Colvin.wav

Pre-gap length 0:00:00.43

Peak level 98.8 %
Extraction speed 30.6 X
Test CRC 74C787E8
Copy CRC 74C787E8
Accurately ripped (confidence 5) [67EFC7DC] (AR v2)
Copy OK

Track 9

Filename C:\Users\Admin\Documents\01 EAC Rips\09. Sunny Came Home - Shawn Colvin.wav

Pre-gap length 0:00:00.73

Peak level 97.7 %
Extraction speed 31.8 X
Test CRC A43A8369
Copy CRC A43A8369
Accurately ripped (confidence 5) [50967E50] (AR v2)
Copy OK

Track 10

Filename C:\Users\Admin\Documents\01 EAC Rips\10. You And The Mona Lisa - Shawn Colvin.wav

Pre-gap length 0:00:00.58

Timing problem 0:02:13 - 0:02:26

Peak level 99.9 %
Extraction speed 4.4 X
Test CRC 62C7E497
Copy CRC 85910AA7
Cannot be verified as accurate (confidence 24) [FEAAC845], AccurateRip returned [791C364B] (AR v2)
Copy finished

Track 11

Filename C:\Users\Admin\Documents\01 EAC Rips\11. Get Out Of This House - Shawn Colvin.wav

Pre-gap length 0:00:00.45

Peak level 93.5 %
Extraction speed 7.9 X
Test CRC FB2F9CCC
Copy CRC FB2F9CCC
Accurately ripped (confidence 5) [F884EB24] (AR v2)
Copy OK

Track 12

Filename C:\Users\Admin\Documents\01 EAC Rips\12. The Facts About Jimmy - Shawn Colvin.wav

Pre-gap length 0:00:00.43

Peak level 100.0 %
Extraction speed 7.9 X
Test CRC 8C42B684
Copy CRC 8C42B684
Accurately ripped (confidence 5) [707C6F3C] (AR v2)
Copy OK

Track 13

Filename C:\Users\Admin\Documents\01 EAC Rips\13. Whole New You - Shawn Colvin.wav

Pre-gap length 0:00:00.20

Peak level 98.8 %
Extraction speed 7.9 X
Test CRC 9F1F9C73
Copy CRC 9F1F9C73
Accurately ripped (confidence 5) [1EEAFBDE] (AR v2)
Copy OK

Track 14

Filename C:\Users\Admin\Documents\01 EAC Rips\14. A Matter Of Minutes - Shawn Colvin.wav

Pre-gap length 0:00:00.47

Peak level 98.6 %
Extraction speed 7.9 X
Test CRC 79F25F37
Copy CRC 79F25F37
Accurately ripped (confidence 5) [D4754FC2] (AR v2)
Copy OK

Track 15

Filename C:\Users\Admin\Documents\01 EAC Rips\15. I'll Be Back (bonus track) - Shawn Colvin.wav

Pre-gap length 0:00:01.55

Peak level 94.2 %
Extraction speed 7.9 X
Test CRC CD8A9734
Copy CRC CD8A9734
Accurately ripped (confidence 5) [3CE5AFD8] (AR v2)
Copy OK


13 track(s) accurately ripped
2 track(s) could not be verified as accurate

Some tracks could not be verified as accurate

No errors occurred

End of status report