Tags
Language
Tags

Progresiv TM - Dreptul De A Visa (1976) [Reissue 2014]

Posted By: gribovar
Progresiv TM - Dreptul De A Visa (1976) [Reissue 2014]

Progresiv TM - Dreptul De A Visa (1976) [Reissue 2014]
EAC Rip | FLAC (tracks+.cue+log) - 220 MB | MP3 CBR 320 kbps (LAME 3.93) - 86 MB | Covers - 40 MB
Genre: Heavy Progressive Rock | RAR 3% Rec. | Label: Granadilla Music (GM 207C3)

The 70s were the decade of progressive rock music of all calibers. And it seems not one country of this world was spared when the new kind of sound spilled over like a giant wave of inspiration. Even the European Eastern Block countries where rock music was regarded as subversive by the authorities had their share of rock bands with a hippie, heavy or freaked out direction. We recall Omega from Hungary, SBB from Poland or Modry Efekt from the Czech Republic and of course Phoenix from Romania. The latter were the biggest rock music export of their home country but there were others with them building a solid spine for the still young and expanding rock scene. One of these nowadays rather unknown forces was Progresiv TM, a band not to categorize too easily. They loved big melodies with a yearning approach for the vocals, mixed up blues, folk, jazz and playfully twisted rock patterns. The guitar had a scratchy and fuzzy distortion that came close to what Tony Iommi ripped off his fretboard on the very early Sabbath albums even when the composition itself rather felt like a relaxed and jazzy ballad. What you get here on this debut album released in 1976 is a really captivating, well produced and even better played piece of rock music combining influences from everything that was cool at the time the band was formed, around 1972. Folky and catchy heavy rock like Golden Earring or Jethro Tull, dreamy Eastern rock like Omega and Phoenix, utterly grinding guitar power like early Black Sabbath and some wicked progressive freakouts along with jazzy breaks. If you are looking for a hot blooded and steaming, yet relaxed unique rock album from the 70s and can get along well with a band singing in its native tongue rather than English, grab this masterpiece.

Tracklist:
01. Omul E Valul
02. Nimeni Nu E Singur
03. Rusinea Soarelui
04. Clepsidra
05. Odata Doar Vei Rasari
06. Va Cadea O Stea
07. Dreptul De A Visa - Poetul Devenirii Noastre

Total time: 36:45

Exact Audio Copy V1.0 beta 1 from 15. November 2010

EAC extraction logfile from 8. January 2015, 19:46

Progresiv TM / Dreptul De A Visa

Used drive : SlimtypeDVD A DS8A4S Adapter: 1 ID: 0

Read mode : Secure
Utilize accurate stream : Yes
Defeat audio cache : Yes
Make use of C2 pointers : No

Read offset correction : 6
Overread into Lead-In and Lead-Out : No
Fill up missing offset samples with silence : Yes
Delete leading and trailing silent blocks : No
Null samples used in CRC calculations : Yes
Used interface : Installed external ASPI interface
Gap handling : Appended to previous track

Used output format : User Defined Encoder
Selected bitrate : 896 kBit/s
Quality : High
Add ID3 tag : No
Command line compressor : C:\Program Files\Exact Audio Copy\Flac\flac.exe
Additional command line options : -8 -V -T "ARTIST=%a" -T "TITLE=%t" -T "ALBUM=%g" -T "DATE=%y" -T "TRACKNUMBER=%n" -T "GENRE=%m" -T "COMMENT=EAC Secure Mode, Test & Copy, AccurateRip, FLAC -8" %s


TOC of the extracted CD

Track | Start | Length | Start sector | End sector
––––––––––––––––––––––––––––-
1 | 0:00.00 | 6:09.38 | 0 | 27712
2 | 6:09.38 | 3:47.53 | 27713 | 44790
3 | 9:57.16 | 3:28.01 | 44791 | 60391
4 | 13:25.17 | 4:33.57 | 60392 | 80923
5 | 17:58.74 | 3:31.20 | 80924 | 96768
6 | 21:30.19 | 4:22.04 | 96769 | 116422
7 | 25:52.23 | 10:52.17 | 116423 | 165339


Track 1

Filename D:\bzp01\Progresiv TM - Dreptul De A Visa (1973) [FLAC] {2014 GM207C3}\01 - Omul E Valul.wav

Pre-gap length 0:00:02.00

Peak level 98.2 %
Extraction speed 2.8 X
Track quality 100.0 %
Test CRC A10AA9FD
Copy CRC A10AA9FD
Track not present in AccurateRip database
Copy OK

Track 2

Filename D:\bzp01\Progresiv TM - Dreptul De A Visa (1973) [FLAC] {2014 GM207C3}\02 - Nimeni Nu E Singur.wav

Pre-gap length 0:00:02.00

Peak level 97.8 %
Extraction speed 3.0 X
Track quality 100.0 %
Test CRC 2F76D923
Copy CRC 2F76D923
Track not present in AccurateRip database
Copy OK

Track 3

Filename D:\bzp01\Progresiv TM - Dreptul De A Visa (1973) [FLAC] {2014 GM207C3}\03 - Rusinea Soarelui.wav

Pre-gap length 0:00:02.00

Peak level 98.5 %
Extraction speed 3.2 X
Track quality 100.0 %
Test CRC CBFB97CB
Copy CRC CBFB97CB
Track not present in AccurateRip database
Copy OK

Track 4

Filename D:\bzp01\Progresiv TM - Dreptul De A Visa (1973) [FLAC] {2014 GM207C3}\04 - Clepsidra.wav

Pre-gap length 0:00:02.00

Peak level 98.1 %
Extraction speed 3.5 X
Track quality 100.0 %
Test CRC AF8481C6
Copy CRC AF8481C6
Track not present in AccurateRip database
Copy OK

Track 5

Filename D:\bzp01\Progresiv TM - Dreptul De A Visa (1973) [FLAC] {2014 GM207C3}\05 - Odata Doar Vei Rasari.wav

Pre-gap length 0:00:02.00

Peak level 98.0 %
Extraction speed 3.6 X
Track quality 100.0 %
Test CRC 2C1164C2
Copy CRC 2C1164C2
Track not present in AccurateRip database
Copy OK

Track 6

Filename D:\bzp01\Progresiv TM - Dreptul De A Visa (1973) [FLAC] {2014 GM207C3}\06 - Va Cadea O Stea.wav

Pre-gap length 0:00:02.00

Peak level 98.0 %
Extraction speed 3.9 X
Track quality 100.0 %
Test CRC F97C6E2B
Copy CRC F97C6E2B
Track not present in AccurateRip database
Copy OK

Track 7

Filename D:\bzp01\Progresiv TM - Dreptul De A Visa (1973) [FLAC] {2014 GM207C3}\07 - Dreptul De A Visa - Poetul Devenirii Noastre.wav

Pre-gap length 0:00:02.00

Peak level 98.2 %
Extraction speed 4.7 X
Track quality 100.0 %
Test CRC 1B60946A
Copy CRC 1B60946A
Track not present in AccurateRip database
Copy OK


None of the tracks are present in the AccurateRip database

No errors occurred

End of status report

==== Log checksum A289D12E8FC05EF5DFC8779AFCD8447ADC002D6417E8724BF69289C97106BAF5 ====

[CUETools log; Date: 30.10.2020 13:11:18; Version: 2.1.4]
[CTDB TOCID: nyC6zz2yAflaxSM5_pTJ4Pgm8V0-] found.
Track | CTDB Status
1 | (6/6) Accurately ripped
2 | (6/6) Accurately ripped
3 | (6/6) Accurately ripped
4 | (6/6) Accurately ripped
5 | (6/6) Accurately ripped
6 | (6/6) Accurately ripped
7 | (6/6) Accurately ripped
[AccurateRip ID: 000909e0-00363beb-59089c07] found.
Track [ CRC | V2 ] Status
01 [d7a0ee63|3f1af525] (0+2/2) Accurately ripped
02 [0ec80cad|281bc2e0] (0+2/2) Accurately ripped
03 [10b19b93|66404928] (0+2/2) Accurately ripped
04 [bbeb396f|aeb5996a] (0+2/2) Accurately ripped
05 [a8d50ab2|75afe831] (0+2/2) Accurately ripped
06 [63203a4b|a30adceb] (0+2/2) Accurately ripped
07 [a3316776|4e3afb3d] (0+2/2) Accurately ripped

Track Peak [ CRC32 ] [W/O NULL] [ LOG ]
– 98,5 [C579A213] [986EF7C6]
01 98,2 [A10AA9FD] [C5CBDB0F] CRC32
02 97,8 [2F76D923] [91C1CC43] CRC32
03 98,5 [CBFB97CB] [ACEC25EB] CRC32
04 98,1 [AF8481C6] [B80C1B54] CRC32
05 98,0 [2C1164C2] [69851E56] CRC32
06 98,0 [F97C6E2B] [7971A491] CRC32
07 98,2 [1B60946A] [20F14F5B] CRC32

Thanks to bzp01