Subcategories
Tags
Language
Tags

Ludger Remy, Telemann-Kammerorchester Michaelstein - Telemann: The Cornett Cantatas (1998)

Posted By: ArlegZ
Ludger Remy, Telemann-Kammerorchester Michaelstein - Telemann: The Cornett Cantatas (1998)

Ludger Rémy, Telemann-Kammerorchester Michaelstein - Telemann: The Cornett Cantatas (1998)
EAC | FLAC | Image (Cue & Log) ~ 282 Mb | Total time: 51:28 | Scans included
Classical | Label: CPO | # 999542-2 | Recorded: 1997

Dass Georg Philipp Telemann durch seinen schier unerschöpflichen Einfallsreichtum immer wieder für Überraschungen gut ist, haben wir auf cpo schon oft bewiesen. Auch die jetzige Veröffentlichung zeigt wieder seine Originalität jenseits aller eingefahrenen Gleise. Wir veröffentlichen drei wunderschöne Kantaten aus Telemanns Frankfurter Zeit um 1720: »Sehet an die Exempel der Alten«, »Erhöre mich, wenn ich rufe« und »lch halte aber dafür«.
Das Besondere daran: Alle drei verbindet ihre außergewöhnliche Besetzung. Zu dem »normalen« instrumentalen Aufführungsapparat, der aus 2 Oboen, Streichern und B. c. besteht, verlangt Telemann zusätzlich ein Blechbläserensemble aus einem Zink und drei Posaunen. Das nimmt sich in der neuen, modernen Kirchenmusik des 18. Jahrhunderts sehr exotisch aus. Und genau mit diesem Kontrast von modernem Stil und altem Instrumentarium spielt (oder besser: arbeitet) Telemann hier ganz bewusst und schafft damit ganz unerhörte Wirkungen, die schon fast an Berlioz denken lassen!
Mona Spägele, Henning Voss, Wilfried Jochens und Klaus Mertens sind unsere bewährten hochkarätigen Gesangssolisten, das Bläserkollegium Leipzig und das Telemann-Kammerorchester Michaelstein stehen unter der Leitung von Ludger Remy.

Performer:
Henning Voss, alto
Mona Spägele, soprano
Wilfried Jochens, tenor
Klaus Mertens, bass
Bläserkollegium Leipzig
Telemann-Kammerorchester Michaelstein
Ludger Rémy, conductor

Track List:
Sehet an die Exempel der Alten, TV 1 no 1259
01. Coro : "Sehet an die Exempelt der Alten"
02. Recitativo (Alto) : "Es ist von allen keiner"
03. Aria (Tenor) : "Hofft auf den Herrn"
04. Recitativo (Bass) : "Es kommt die Hilfe zwar nicht allemal"
05. Aria (Alto) : "Die Stunde wird doch endlich schlagen"
06. Recitativo (Tenor) : "Und so soll keine Pein vermögend sein"
07. Aria (Soprano) : "Ich bleibe fest dabei"
08. Chorale (S/A/T/B) : "So sei nun, Seele, seine"
Erhöre mich, wenn ich rufe, TV 1 no 459
09. Tenor Solo : "Erhöre mich, wenn ich rufe"
10. Bass Solo : "Wahrlich, wahrlich ich sage euch"
11. Aria (Tenor) : "Ich rufe Tag und Nacht"
12. Aria (Bass) : "Noch keinen hat Gott je verlassen"
13. Recitativo (Tenor / Bass) : "Ach! Manches hab ich' ich ja begehret"
14. Duet (Tenor / Bass) : "Herr, auf Dein Wort verlaß ich mich"
15. Chorale (S/A/T/B) : "Und was der ew'ge güt'ge Gott"
Ich halte aber dafür, TV 1 no 840
16. Tenor Solo - Coro : "Ich halte aber dafür"
17. Recitativo (Alto) : "Gewiß, die Zeiten sind schon angegangen"
18. Aria (Bass) : "So will ich mich zufrieden geben"
19. Recitativo (Tenor) : "Der Trost bei allen Plagen"
20. Aria (Alto) : "Herr, die Kinder Deiner Knechte"
21. Recitativo (Bass) : "Ihr Sünder, Gott der heil'ge Geist"
22. Aria (Soprano) : "Nichts raubt mir das Herze"
23. Chorale (S/A/T/B) : "Du heil'ge Brunst, süßter Trost"


Exact Audio Copy V1.6 from 23. October 2020

EAC extraction logfile from 20. May 2021, 0:36

Georg Philipp Telemann / The Cornett Cantatas

Used drive : ASUS DRW-24B1ST j Adapter: 1 ID: 0

Read mode : Secure
Utilize accurate stream : Yes
Defeat audio cache : Yes
Make use of C2 pointers : No

Read offset correction : 6
Overread into Lead-In and Lead-Out : No
Fill up missing offset samples with silence : Yes
Delete leading and trailing silent blocks : No
Null samples used in CRC calculations : Yes
Used interface : Native Win32 interface for Win NT & 2000

Used output format : User Defined Encoder
Selected bitrate : 896 kBit/s
Quality : High
Add ID3 tag : No
Command line compressor : C:\Program Files (x86)\Exact Audio Copy\FLAC\FLAC.EXE
Additional command line options : -6 -V -T "ARTIST=%artist%" -T "TITLE=%title%" -T "ALBUM=%albumtitle%" -T "DATE=%year%" -T "TRACKNUMBER=%tracknr%" -T "GENRE=%genre%" -T "COMMENT=%comment%" -T "BAND=%albuminterpret%" -T "ALBUMARTIST=%albuminterpret%" -T "COMPOSER=%composer%" %haslyrics%–tag-from-file=LYRICS="%lyricsfile%"%haslyrics% -T "DISCNUMBER=%cdnumber%" -T "TOTALDISCS=%totalcds%" -T "TOTALTRACKS=%numtracks%" %hascover%–picture="%coverfile%"%hascover% %source% -o %dest%


TOC of the extracted CD

Track | Start | Length | Start sector | End sector
––––––––––––––––––––––––––––-
1 | 0:00.00 | 3:16.12 | 0 | 14711
2 | 3:16.12 | 1:33.70 | 14712 | 21756
3 | 4:50.07 | 4:06.03 | 21757 | 40209
4 | 8:56.10 | 1:11.62 | 40210 | 45596
5 | 10:07.72 | 3:20.10 | 45597 | 60606
6 | 13:28.07 | 0:48.38 | 60607 | 64244
7 | 14:16.45 | 1:09.60 | 64245 | 69479
8 | 15:26.30 | 0:54.22 | 69480 | 73551
9 | 16:20.52 | 1:45.25 | 73552 | 81451
10 | 18:06.02 | 1:26.23 | 81452 | 87924
11 | 19:32.25 | 2:13.32 | 87925 | 97931
12 | 21:45.57 | 2:50.03 | 97932 | 110684
13 | 24:35.60 | 3:50.37 | 110685 | 127971
14 | 28:26.22 | 3:14.20 | 127972 | 142541
15 | 31:40.42 | 0:57.33 | 142542 | 146849
16 | 32:38.00 | 2:58.37 | 146850 | 160236
17 | 35:36.37 | 1:34.35 | 160237 | 167321
18 | 37:10.72 | 4:23.63 | 167322 | 187109
19 | 41:34.60 | 1:03.25 | 187110 | 191859
20 | 42:38.10 | 3:59.40 | 191860 | 209824
21 | 46:37.50 | 0:54.35 | 209825 | 213909
22 | 47:32.10 | 2:44.07 | 213910 | 226216
23 | 50:16.17 | 1:10.00 | 226217 | 231466


Range status and errors

Selected range

Filename K:\Tubarec rips\Telemann - The Cornett Cantatas - Rémy\Georg Philipp Telemann - The Cornett Cantatas.wav

Peak level 97.4 %
Extraction speed 7.2 X
Range quality 100.0 %
Test CRC CD360A68
Copy CRC CD360A68
Copy OK

No errors occurred


AccurateRip summary

Track 1 accurately ripped (confidence 7) [5F453332] (AR v2)
Track 2 accurately ripped (confidence 7) [3A3242B0] (AR v2)
Track 3 accurately ripped (confidence 7) [6A61F432] (AR v2)
Track 4 accurately ripped (confidence 7) [EB21D596] (AR v2)
Track 5 accurately ripped (confidence 7) [1B617DFE] (AR v2)
Track 6 accurately ripped (confidence 7) [D9A19906] (AR v2)
Track 7 accurately ripped (confidence 7) [F7DA893A] (AR v2)
Track 8 accurately ripped (confidence 7) [6DB365F5] (AR v2)
Track 9 accurately ripped (confidence 7) [52F75F41] (AR v2)
Track 10 accurately ripped (confidence 7) [475B9CC1] (AR v2)
Track 11 accurately ripped (confidence 7) [8B789EDF] (AR v2)
Track 12 accurately ripped (confidence 7) [96405CA6] (AR v2)
Track 13 accurately ripped (confidence 7) [B8136BA7] (AR v2)
Track 14 accurately ripped (confidence 7) [AC4978E5] (AR v2)
Track 15 accurately ripped (confidence 7) [6E025484] (AR v2)
Track 16 accurately ripped (confidence 7) [AA4C2239] (AR v2)
Track 17 accurately ripped (confidence 7) [DA8E6B3B] (AR v2)
Track 18 accurately ripped (confidence 7) [7D5FECA9] (AR v2)
Track 19 accurately ripped (confidence 7) [8F6264DA] (AR v2)
Track 20 accurately ripped (confidence 7) [F2A2E215] (AR v2)
Track 21 accurately ripped (confidence 7) [A3D6D0C2] (AR v2)
Track 22 accurately ripped (confidence 7) [F367408F] (AR v2)
Track 23 accurately ripped (confidence 7) [3E2D6F83] (AR v2)

All tracks accurately ripped

End of status report

–– CUETools DB Plugin V2.1.6

[CTDB TOCID: lzPs8kdcCO2pjV0Jnnpo4_W.bTs-] found
Submit result: lzPs8kdcCO2pjV0Jnnpo4_W.bTs- has been confirmed
Track | CTDB Status
1 | (29/29) Accurately ripped
2 | (29/29) Accurately ripped
3 | (29/29) Accurately ripped
4 | (29/29) Accurately ripped
5 | (29/29) Accurately ripped
6 | (29/29) Accurately ripped
7 | (29/29) Accurately ripped
8 | (29/29) Accurately ripped
9 | (29/29) Accurately ripped
10 | (29/29) Accurately ripped
11 | (29/29) Accurately ripped
12 | (29/29) Accurately ripped
13 | (29/29) Accurately ripped
14 | (29/29) Accurately ripped
15 | (29/29) Accurately ripped
16 | (29/29) Accurately ripped
17 | (29/29) Accurately ripped
18 | (29/29) Accurately ripped
19 | (29/29) Accurately ripped
20 | (29/29) Accurately ripped
21 | (29/29) Accurately ripped
22 | (29/29) Accurately ripped
23 | (29/29) Accurately ripped


==== Log checksum 38FA8E7CF2BCE028486BD6A3025D4052F7CD44F3B68706A7BE97CBA5EBEB7833 ====

Ludger Remy, Telemann-Kammerorchester Michaelstein - Telemann: The Cornett Cantatas (1998)

Thanks to the original releaser