Subcategories
Tags
Language
Tags

Gene Ammons - Legends Of Acid Jazz [Recorded 1962-1971] (1997)

Posted By: gribovar
Gene Ammons - Legends Of Acid Jazz [Recorded 1962-1971] (1997)

Gene Ammons - Legends Of Acid Jazz [Recorded 1962-1971] (1997)
EAC Rip | FLAC (tracks+.cue+log) - 406 MB | MP3 CBR 320 kbps (LAME 3.93) - 182 MB | Covers (6 MB) included
Genre: Jazz, Soul Jazz | RAR 3% Rec. | Label: Prestige Records (PRCD-24188-2)

As is often the case in this CD reissue series, the music has little to do with acid jazz, but it does feature a few organists. Tenor saxophonist Gene Ammons is heard on music that formerly comprised two complete LPs from 1970-1971 (The Black Cat and As You Talk That Talk), plus a pair of titles from a 1962 date only previously out on a sampler. The Black Cat is an interesting if erratic set that finds Ammons (along with guitarist George Freeman, Harold Mabern on electric piano, bassist Ron Carter, and drummer Idris Muhammad) playing everything from the pop tune "Long Long Time" and George Harrison's "Something" (both of those tunes have unimaginative strings) to "Jug Eyes" and the boppish blues "Hi Ruth." As You Talk That Talk is a reunion with fellow tenor Sonny Stitt (they are joined by Freeman, Muhammad, and organist Leon Spencer), but it has a major problem. Stitt uses the electrified Varitone saxophone throughout the date, and his horn sounds even stranger than on his other Varitone dates, like a cross between an electric guitar and a dated keyboard; very eerie and odd. Ammons plays well enough (including on two throwaway numbers from 1962 with organist Don Patterson, guitarist Paul Weeden, and drummer Billy James).
Tracklist:

The Black Cat (1971):
01. The Black Cat
02. Long Long Time
03. Piece To Keep Away Evil Spirits
04. Jug Eyes
05. Something
06. Hi Ruth!

You Talk That Talk! (1971):
07. You Talk That Talk
08. Body And Soul
09. The People's Choice
10. Katea's Dance
11. The Sun Died
12. Out Of It

13. I Can't Stop Loving You
14. My Babe

Total time: 01:14:53

Exact Audio Copy V0.99 prebeta 3 from 28. July 2007

EAC extraction logfile from 11. January 2008, 7:58

Gene Ammons / Legends Of Acid Jazz

Used drive : TSSTcorpDVD+-RW TS-H553A Adapter: 0 ID: 2

Read mode : Secure
Utilize accurate stream : Yes
Defeat audio cache : Yes
Make use of C2 pointers : No

Read offset correction : 6
Overread into Lead-In and Lead-Out : No
Fill up missing offset samples with silence : Yes
Delete leading and trailing silent blocks : No
Null samples used in CRC calculations : Yes
Used interface : Native Win32 interface for Win NT & 2000
Gap handling : Appended to previous track

Used output format : User Defined Encoder
Selected bitrate : 768 kBit/s
Quality : High
Add ID3 tag : No
Command line compressor : C:\Program Files\Exact Audio Copy\FLAC\FLAC.EXE
Additional command line options : -6 -V -T "ARTIST=%a" -T "TITLE=%t" -T "ALBUM=%g" -T "DATE=%y" -T "TRACKNUMBER=%n" -T "GENRE=%m" -T "COMMENT=%e" %s -o %d


TOC of the extracted CD

Track | Start | Length | Start sector | End sector
––––––––––––––––––––––––––––-
1 | 0:00.00 | 5:36.69 | 0 | 25268
2 | 5:36.69 | 4:31.18 | 25269 | 45611
3 | 10:08.12 | 7:49.15 | 45612 | 80801
4 | 17:57.27 | 8:10.58 | 80802 | 117609
5 | 26:08.10 | 3:20.15 | 117610 | 132624
6 | 29:28.25 | 5:09.00 | 132625 | 155799
7 | 34:37.25 | 6:05.35 | 155800 | 183209
8 | 40:42.60 | 4:21.05 | 183210 | 202789
9 | 45:03.65 | 7:01.52 | 202790 | 234416
10 | 52:05.42 | 6:49.48 | 234417 | 265139
11 | 58:55.15 | 4:43.35 | 265140 | 286399
12 | 63:38.50 | 5:03.67 | 286400 | 309191
13 | 68:42.42 | 3:11.40 | 309192 | 323556
14 | 71:54.07 | 2:59.13 | 323557 | 336994


Track 1

Filename K:\New Rips\Gene Ammons - Legends Of Acid Jazz (1962) [FLAC]\01 - The Black Cat.wav

Pre-gap length 0:00:02.00

Peak level 100.0 %
Track quality 100.0 %
Test CRC 4298C914
Copy CRC 4298C914
Track not present in AccurateRip database
Copy OK

Track 2

Filename K:\New Rips\Gene Ammons - Legends Of Acid Jazz (1962) [FLAC]\02 - Long Long Time.wav

Pre-gap length 0:00:00.92

Peak level 67.2 %
Track quality 100.0 %
Test CRC 3504727C
Copy CRC 3504727C
Track not present in AccurateRip database
Copy OK

Track 3

Filename K:\New Rips\Gene Ammons - Legends Of Acid Jazz (1962) [FLAC]\03 - Piece To Keep Away Evil Spirits.wav

Pre-gap length 0:00:03.16

Peak level 100.0 %
Track quality 99.9 %
Test CRC AB527AED
Copy CRC AB527AED
Track not present in AccurateRip database
Copy OK

Track 4

Filename K:\New Rips\Gene Ammons - Legends Of Acid Jazz (1962) [FLAC]\04 - Jug Eyes.wav

Pre-gap length 0:00:01.26

Peak level 84.5 %
Track quality 99.9 %
Test CRC ABEC8467
Copy CRC ABEC8467
Track not present in AccurateRip database
Copy OK

Track 5

Filename K:\New Rips\Gene Ammons - Legends Of Acid Jazz (1962) [FLAC]\05 - Something.wav

Pre-gap length 0:00:02.80

Peak level 58.4 %
Track quality 100.0 %
Test CRC 51175CA0
Copy CRC 51175CA0
Track not present in AccurateRip database
Copy OK

Track 6

Filename K:\New Rips\Gene Ammons - Legends Of Acid Jazz (1962) [FLAC]\06 - Hi Ruth!.wav

Pre-gap length 0:00:02.33

Peak level 95.2 %
Track quality 100.0 %
Test CRC 5063940E
Copy CRC 5063940E
Track not present in AccurateRip database
Copy OK

Track 7

Filename K:\New Rips\Gene Ammons - Legends Of Acid Jazz (1962) [FLAC]\07 - You Talk That Talk.wav

Pre-gap length 0:00:01.44

Peak level 71.2 %
Track quality 100.0 %
Test CRC 56E6C50E
Copy CRC 56E6C50E
Track not present in AccurateRip database
Copy OK

Track 8

Filename K:\New Rips\Gene Ammons - Legends Of Acid Jazz (1962) [FLAC]\08 - Body And Soul.wav

Pre-gap length 0:00:02.57

Peak level 56.7 %
Track quality 100.0 %
Test CRC 2C7B5464
Copy CRC 2C7B5464
Track not present in AccurateRip database
Copy OK

Track 9

Filename K:\New Rips\Gene Ammons - Legends Of Acid Jazz (1962) [FLAC]\09 - The People's Choice.wav

Pre-gap length 0:00:01.93

Peak level 66.2 %
Track quality 99.9 %
Test CRC 10D7F4F9
Copy CRC 10D7F4F9
Track not present in AccurateRip database
Copy OK

Track 10

Filename K:\New Rips\Gene Ammons - Legends Of Acid Jazz (1962) [FLAC]\10 - Katea's Dance.wav

Pre-gap length 0:00:01.26

Peak level 67.7 %
Track quality 100.0 %
Test CRC 45DC04CF
Copy CRC 45DC04CF
Track not present in AccurateRip database
Copy OK

Track 11

Filename K:\New Rips\Gene Ammons - Legends Of Acid Jazz (1962) [FLAC]\11 - The Sun Died.wav

Pre-gap length 0:00:01.93

Peak level 49.1 %
Track quality 100.0 %
Test CRC 61EABC97
Copy CRC 61EABC97
Track not present in AccurateRip database
Copy OK

Track 12

Filename K:\New Rips\Gene Ammons - Legends Of Acid Jazz (1962) [FLAC]\12 - Out Of It.wav

Pre-gap length 0:00:02.84

Peak level 90.4 %
Track quality 100.0 %
Test CRC AF23ED0C
Copy CRC AF23ED0C
Track not present in AccurateRip database
Copy OK

Track 13

Filename K:\New Rips\Gene Ammons - Legends Of Acid Jazz (1962) [FLAC]\13 - I Can't Stop Loving You.wav

Pre-gap length 0:00:01.76

Peak level 44.4 %
Track quality 100.0 %
Test CRC 21AC8C33
Copy CRC 21AC8C33
Track not present in AccurateRip database
Copy OK

Track 14

Filename K:\New Rips\Gene Ammons - Legends Of Acid Jazz (1962) [FLAC]\14 - My Babe.wav

Pre-gap length 0:00:02.06

Peak level 47.4 %
Track quality 100.0 %
Test CRC 1B997596
Copy CRC 1B997596
Track not present in AccurateRip database
Copy OK


None of the tracks are present in the AccurateRip database

No errors occurred

End of status report

[CUETools log; Date: 30.04.2020 23:41:16; Version: 2.1.4]
[CTDB TOCID: uBTIRp5CDnIXlLdvKoj5DP2D5Vw-] found.
Track | CTDB Status
1 | (12/12) Accurately ripped
2 | (12/12) Accurately ripped
3 | (12/12) Accurately ripped
4 | (12/12) Accurately ripped
5 | (12/12) Accurately ripped
6 | (12/12) Accurately ripped
7 | (12/12) Accurately ripped
8 | (12/12) Accurately ripped
9 | (12/12) Accurately ripped
10 | (12/12) Accurately ripped
11 | (12/12) Accurately ripped
12 | (12/12) Accurately ripped
13 | (12/12) Accurately ripped
14 | (12/12) Accurately ripped
[AccurateRip ID: 0029309b-01b40ede-b7118d0e] found.
Track [ CRC | V2 ] Status
01 [cf1ddbb9|5747adf7] (0+4/4) Accurately ripped
02 [d5e71368|17be7577] (0+4/4) Accurately ripped
03 [bf9d8039|c494cf0d] (0+4/4) Accurately ripped
04 [a22508f3|a62b0ce2] (0+4/4) Accurately ripped
05 [5db5aaf5|2b6bcfb6] (0+4/4) Accurately ripped
06 [6a085026|80ae4929] (0+4/4) Accurately ripped
07 [fc50781e|3552630b] (0+4/4) Accurately ripped
08 [e61a1415|03e037c0] (0+4/4) Accurately ripped
09 [d21757af|9a5f89ee] (0+4/4) Accurately ripped
10 [bbf07b47|e28b60fe] (0+4/4) Accurately ripped
11 [69fa7e2c|517968e2] (0+4/4) Accurately ripped
12 [a3545a81|16fd514f] (0+4/4) Accurately ripped
13 [521a2099|1357386d] (0+4/4) Accurately ripped
14 [edc2ef2b|2a230969] (0+4/4) Accurately ripped

Track Peak [ CRC32 ] [W/O NULL] [ LOG ]
– 100,0 [E1B9507E] [61FF2DC0]
01 100,0 [4298C914] [CC08B4BC] CRC32
02 67,2 [3504727C] [F1DC7D6A] CRC32
03 100,0 [AB527AED] [1DA28428] CRC32
04 84,5 [ABEC8467] [D9F6230A] CRC32
05 58,4 [51175CA0] [3F0D1694] CRC32
06 95,2 [5063940E] [980A8EDE] CRC32
07 71,2 [56E6C50E] [1BA99D9A] CRC32
08 56,7 [2C7B5464] [AADD57CF] CRC32
09 66,2 [10D7F4F9] [B19397C7] CRC32
10 67,7 [45DC04CF] [F1BE1AEF] CRC32
11 49,1 [61EABC97] [EF5F0C8B] CRC32
12 90,4 [AF23ED0C] [61E363E9] CRC32
13 44,4 [21AC8C33] [32F386DF] CRC32
14 47,4 [1B997596] [26197425] CRC32

Thanks to the original releaser

See also: