Subcategories
Tags
Language
Tags

Elton John - Greatest Hits (1974) [DCC, GZS-1071]

Posted By: v3122
Elton John - Greatest Hits (1974) [DCC, GZS-1071]

Elton John - Greatest Hits (1974)
EAC | Flac(Image) + Cue + Log & MP3 CBR 320Kbps
1994 | DCC, GZS-1071 | ~ 292 or 117 Mb | Scans(jpg) -> 18 Mb
Pop Rock / Classic Rock

Rarely has a greatest-hits collection been as effective as Elton John's first compilation of Greatest Hits. Released at the end of 1974, after Goodbye Yellow Brick Road and Caribou had effectively established him as a superstar, Greatest Hits is exactly what it says it is – it features every one of his Top Ten singles ("Your Song," "Rocket Man," "Honky Cat," "Crocodile Rock," "Daniel," "Goodbye Yellow Brick Road," "Bennie and the Jets," "Don't Let the Sun Go Down on Me"), plus the number 12 "Saturday Night's Alright for Fighting" and radio and concert favorite "Border Song." Despite the exclusion of a couple of lesser hits from this era, most notably "Levon" and "Tiny Dancer," Greatest Hits is a nearly flawless collection, offering a perfect introduction to Elton John and providing casual fans with almost all the hits they need.

by Stephen Thomas Erlewine, allmusic
Elton John - Greatest Hits (1974) [DCC, GZS-1071]


Elton John - Greatest Hits (1974):

Elton John - Greatest Hits (1974) [DCC, GZS-1071]

Tracklist:

01. Your Song [04:02]
02. Daniel [03:53]
03. Honky Cat [05:13]
04. Goodbye Yellow Brick Road [03:15]
05. Saturday Night's Alright For Fighting [04:56]
06. Rocket Man [04:43]
07. Bennie And The Jets [05:23]
08. Don't Let The Sun Go Down On Me [05:37]
09. Border Song [03:21]
10. Crocodile Rock [03:54]
11. Candle In The Wind [03:50]

Exact Audio Copy V0.99 prebeta 5 from 4. May 2009

EAC extraction logfile from 22. October 2014, 9:22

ELTON JOHN / Greatest Hits ( GZS-1071 )

Used drive : ASUS DRW-24B3ST Adapter: 0 ID: 0

Read mode : Secure
Utilize accurate stream : Yes
Defeat audio cache : Yes
Make use of C2 pointers : No

Read offset correction : 6
Overread into Lead-In and Lead-Out : No
Fill up missing offset samples with silence : Yes
Delete leading and trailing silent blocks : No
Null samples used in CRC calculations : Yes
Used interface : Native Win32 interface for Win NT & 2000

Used output format : User Defined Encoder
Selected bitrate : 1024 kBit/s
Quality : High
Add ID3 tag : No
Command line compressor : C:\Program Files (x86)\EAC\WV\wavpack.exe
Additional command line options : -h -hh -m %s %d


TOC of the extracted CD

Track | Start | Length | Start sector | End sector
––––––––––––––––––––––––––––-
1 | 0:00.37 | 4:03.73 | 37 | 18334
2 | 4:04.35 | 3:54.55 | 18335 | 35939
3 | 7:59.15 | 5:16.30 | 35940 | 59669
4 | 13:15.45 | 3:16.57 | 59670 | 74426
5 | 16:32.27 | 4:57.35 | 74427 | 96736
6 | 21:29.62 | 4:44.13 | 96737 | 118049
7 | 26:14.00 | 5:24.32 | 118050 | 142381
8 | 31:38.32 | 5:38.13 | 142382 | 167744
9 | 37:16.45 | 3:24.00 | 167745 | 183044
10 | 40:40.45 | 3:56.07 | 183045 | 200751
11 | 44:36.52 | 3:50.58 | 200752 | 218059


Range status and errors

Selected range

Filename G:\24 KT GOLD\ELTON JOHN - Greatest Hits (1974) (US 1994 DCC Compact Classics, Inc. • GZS-1071)\ELTON JOHN - Greatest Hits ( GZS-1071 ).wav

Peak level 100.0 %
Range quality 100.0 %
Test CRC 3D56894D
Copy CRC 3D56894D
Copy OK

No errors occurred


AccurateRip summary

Track 1 accurately ripped (confidence 7) [E1C5DF8E]
Track 2 accurately ripped (confidence 7) [E5011310]
Track 3 accurately ripped (confidence 7) [6F64FB72]
Track 4 accurately ripped (confidence 7) [0589FDEC]
Track 5 accurately ripped (confidence 7) [06B2ECE4]
Track 6 accurately ripped (confidence 7) [DF2CAC5F]
Track 7 accurately ripped (confidence 7) [EE69E97B]
Track 8 accurately ripped (confidence 7) [8C668090]
Track 9 accurately ripped (confidence 7) [BFD93A62]
Track 10 accurately ripped (confidence 7) [EB4021C1]
Track 11 accurately ripped (confidence 7) [94E77BE2]

All tracks accurately ripped

End of status report

foobar2000 1.2.9 / Dynamic Range Meter 1.1.1
log date: 2017-02-27 12:46:42

––––––––––––––––––––––––––––––––––––––––
Analyzed: ELTON JOHN / Greatest Hits ( GZS-1071 )
––––––––––––––––––––––––––––––––––––––––

DR Peak RMS Duration Track
––––––––––––––––––––––––––––––––––––––––
DR12 0.00 dB -16.05 dB 4:04 01-Your Song
DR12 -0.69 dB -14.25 dB 3:55 02-Daniel
DR12 -1.38 dB -15.60 dB 5:16 03-Honky Cat
DR13 0.00 dB -15.86 dB 3:17 04-Goodbye Yellow Brick Road
DR12 0.00 dB -13.55 dB 4:57 05-Saturday Night's Alright For Fighting
DR13 0.00 dB -16.00 dB 4:44 06-Rocket Man (I Think It's Going To Be A Long, Long Time)
DR12 0.00 dB -14.68 dB 5:24 07-Bennie And The Jets
DR13 0.00 dB -16.42 dB 5:38 08-Don't Let The Sun Go Down On Me
DR12 -1.41 dB -18.20 dB 3:24 09-Border Song
DR12 0.00 dB -14.42 dB 3:56 10-Crocodile Rock
DR11 -0.88 dB -14.96 dB 3:51 11-Candle In The Wind*
––––––––––––––––––––––––––––––––––––––––

Number of tracks: 11
Official DR value: DR12

Samplerate: 44100 Hz
Channels: 2
Bits per sample: 16
Bitrate: 799 kbps
Codec: FLAC

[CUETools log; Date: 27.02.2017 12:46:31; Version: 2.1.4]
Pregap length 00:00:37.
[CTDB TOCID: firYM2U_cnIdJFvqVRiOVjH2G68-] found.
Track | CTDB Status
1 | (15/15) Accurately ripped
2 | (15/15) Accurately ripped
3 | (15/15) Accurately ripped
4 | (15/15) Accurately ripped
5 | (15/15) Accurately ripped
6 | (15/15) Accurately ripped
7 | (15/15) Accurately ripped
8 | (15/15) Accurately ripped
9 | (15/15) Accurately ripped
10 | (15/15) Accurately ripped
11 | (15/15) Accurately ripped
[AccurateRip ID: 0014116c-00aef64d-a40b5b0b] found.
Track [ CRC | V2 ] Status
01 [e1c5df8e|ab893720] (08+18/26) Accurately ripped
02 [e5011310|ad6bc729] (08+18/26) Accurately ripped
03 [6f64fb72|118360fc] (08+18/26) Accurately ripped
04 [0589fdec|afae82fd] (08+18/26) Accurately ripped
05 [06b2ece4|1f02b6f6] (08+18/26) Accurately ripped
06 [df2cac5f|7c9d3e2e] (08+18/26) Accurately ripped
07 [ee69e97b|8c9692f1] (08+18/26) Accurately ripped
08 [8c668090|5f840f0d] (08+18/26) Accurately ripped
09 [bfd93a62|3baebe37] (08+18/26) Accurately ripped
10 [eb4021c1|b7471290] (08+18/26) Accurately ripped
11 [94e77be2|27d97a1a] (08+18/26) Accurately ripped

Track Peak [ CRC32 ] [W/O NULL] [ LOG ]
– 100,0 [3D56894D] [EB125FF3] CRC32
01 100,0 [D8EC7745] [49B43E23]
02 92,3 [D35E7C49] [8FA12380]
03 85,3 [E4DB27D9] [F6C3D346]
04 100,0 [3B2EB14D] [9F4F7389]
05 100,0 [EA92F2AC] [2DF31AA2]
06 100,0 [F436663C] [1625FDA4]
07 100,0 [8492424B] [5115BD93]
08 100,0 [661F8DFC] [097EA179]
09 85,0 [B31C6114] [FF047F95]
10 100,0 [08E9C33E] [87CA8921]
11 90,4 [FF26C30E] [C6E25B21]

Elton John - Greatest Hits (1974) [DCC, GZS-1071]

All thanks go to the original releaser

Elton John in my Blog

Download Elton John - Greatest Hits (1974)):