Tags
Language
Tags
October 2022
Su Mo Tu We Th Fr Sa
25 26 27 28 29 30 1
2 3 4 5 6 7 8
9 10 11 12 13 14 15
16 17 18 19 20 21 22
23 24 25 26 27 28 29
30 31 1 2 3 4 5

Count Basie and His Orchestra - America's #1 Band! The Columbia Years [4CD Box Set] (2003)

Posted By: gribovar
Count Basie and His Orchestra - America's #1 Band! The Columbia Years [4CD Box Set] (2003)

Count Basie and His Orchestra - America's #1 Band! The Columbia Years [4CD Box Set] (2003)
EAC Rip | FLAC (tracks+.cue+log) - 779 MB | MP3 CBR 320 kbps (LAME 3.93) - 657 MB | Covers - 49 MB
Genre: Jazz, Swing, Big Band | RAR 3% Rec. | Label: Columbia

Count Basie's Columbia years have long been debated, subject to apocryphal written data and legend because of the willy-nilly nature of his tenure with the label and its subsidiaries. Producer Orrin Keepnews has thus assembled America's #1 Band: The Columbia Years, a compilation of Basie's Columbia years that not only makes sense historically; it is a treasure trove for listening. Aesthetics played a grand part in the decision-making process here, as did sound reproduction and discographical accuracy. Over four CDs, the Basie/Columbia collaboration is split into three parts. On disc one and roughly half of two, the small-group recordings are presented, from the original Smith-Jones quintet sessions in 1936 through the 1957 octet recordings. These bands include the 1936 Smith-Jones group that introduced Lester Young and bassist Walter Page to the world via recordings and also included Jimmy Rushing, Jo Jones, and of course, Carl "Tatti" Smith. In addition there is Basie's Bad Boys group, which listed Buck Clayton, Shad Collins, Dicky Wells, and Freddie Green in addition to Basie, Young, Rusing, Page, and Jones. Two selections from these sessions, "Goin' to Chicago Blues" and "Live and Love Tonight," display Basie's considerable abilities on the organ. Though these sessions were recorded in 1939, they didn't appear until 1951 on a 10" LP. Basie's Kansas City Seven - the previous rhythm section with Lester and Buck - also recorded in 1939 and are notable for introducing "Lester Leaps In," the saxophonist's signature tune into the canon. From 1942, there are eight cuts from Count Basie & His All American Rhythm Section, which added Don Byas to the smaller band on four. Finally there are two different octet sessions: the Neal Hefti-arranged 1950 octet session with Buddy DeFranco, Buddy Rich, Charlie Rouse, Serge Chaloff, Jimmy Lewis, and Clark Terry as well as Green and Basie, and another octet from 1957 with Wardell Gray, Gus Johnson, and Rudy Rutherford in the mix. There are 30 selections in all from the small groups. On the remainder of disc two and all of three, the Basie orchestra, beginning with the 1939 John Hammond session that resulted in "Rock-a-Bye Basie," is showcased. There are 39 cuts from the various Basie big bands that recorded for the label, including the Young, Clayton, Sweets Edison band that recorded "12th Street Rag," "Pound Cake," and "Nobody Knows" among others. The 1940 band arranged by Don Redman brought Buddy Tate, Vic Dickenson, and Earle Warren to the orchestra and recorded "Five O'Clock Whistle" and "One O'Clock Jump." Bands from 1941-1951 are also included with performances such as "Avenue C," "Stay on It," "Beaver Junction," "Hob Nail Boogie," and "Blue Skies." Finally, disc four portrays the live-in-the-club side of the band taken from radio broadcasts during the musician's union recording bans. The 1939 band recorded at the Famous Door has been often bootlegged but has never sounded this good. A rare broadcast from the Southland Theatre Restaurant from 1940 is excerpted here, and for the conditions it was recorded in, sounds amazing, as does the Café Society Uptown gig from 1941, which has also been bootlegged to death with dubious quality before now. In addition to the music, there is a very exhaustive set of notes that diaries the band's progress through the era and offers fine documentation as well as commentary about the developments of the band through the swing and bop eras. America's #1 Band: The Columbia Years and Miles Davis' Complete Jack Johnson Sessions - also a Legacy production - were the first real entries into the jazz Christmas present bag for 2003. Apart from that, this set in particular makes sense of a previously only sporadically documented period in the Basie repertoire and catalog. This is painstakingly executed reissue project is top-shelf for the Basie collector.
CD 1 Tracklist:
01. Shoe Shine Boy
02. Evenin'
03. Boogie Woogie (I May Be Wrong)
04. Oh, Lady Be Good
05. I Ain't Got Nobody
06. Goin' To Ghicago Blues
07. Live And Love Tonight
08. Love Me Or Leave Me
09. Dickie's Dream
10. Lester Leaps In
11. How Long Blues
12. Royal Garden Blues
13. Bugle Blues
14. Sugar Blues
15. Farewell Blues
16. Cafe Society Blues
17. Way Back Blues
18. St. Louis Blues
19. Neal's Deal
20. Bluebeard Blues
21. The Golden Bullet
22. You're My Baby, You

Total time: 01:07:05

CD 2 Tracklist:
01. Song Of The Islands
02. These Foolish Things (Remind Me Of You)
03. I'm Confessin' (That I Love You)
04. One O'Clock Jump
05. I Ain't Got Nobody
06. Little White Lies
07. I'll Remember April
08. Tootie
09. Rock-A-Bye Basie
10. One Hour
11. Taxi War Dance
12. Twelfth Street Rag
13. Miss Thing, Part 1
14. Miss Thing, Part 2
15. Nobody Knows (take 1)
16. Pound Cake
17. Song Of The Islands
18. Clap Hands! Here Comes Charlie
19. Tickle Toe
20. Louisiana
21. Easy Does It
22. Somebody Stole My Gal
23. I Want A Little Girl

Total time: 01:06:58

CD 3 Tracklist:
01. Five O'Clock Whistle
02. Broadway
03. It's The Same Old South
04. Jump The Blues Away
05. The Jitters
06. 9:20 Special
07. Goin' To Chicago Blues
08. Harvard Blues
09. One O'Clock Jump
10. It's Sand, Man
11. Ain't It The Truth
12. Taps Miller
13. Avenue C
14. Blue Skies
15. Queer Street
16. Lazy Lady Blues
17. Rambo
18. The King
19. Hob Nail Boogie
20. Mutton Leg
21. Stay On It
22. Little Pony
23. Beaver Junction

Total time: 01:11:08

CD 4 Tracklist:
01. One O'Clock Jump
02. Swingin' The Blues
03. Rock-A-Bye Basie
04. Don't Worry 'Bout Me
05. Time Out
06. Boogie Woogie Blues
07. Roseland Shuffle
08. White Sails
09. Clap Hand! Here Comes Charlie
10. One O'Clock Jump
11. They Can't Take That Away From Me
12. Swing, Brother Swing
13. I Can't Get Started
14. Moten Swing
15. Ebony Rhapsody
16. Darn That Dream
17. Take It, Pres
18. Baby, Don't Tell On Me
19. I Got Rhythm
20. 9:20 Special
21. Elmer's Tune
22. Jumpin' At The Woodside

Total time: 01:13:19

Exact Audio Copy V1.0 beta 3 from 29. August 2011

EAC extraction logfile from 17. February 2014, 13:14

Count Basie & His Orchestra / America's #1 Band! The Columbia Years

Used drive : HL-DT-STDVD+-RW GH82N Adapter: 0 ID: 1

Read mode : Secure
Utilize accurate stream : Yes
Defeat audio cache : Yes
Make use of C2 pointers : No

Read offset correction : 667
Overread into Lead-In and Lead-Out : No
Fill up missing offset samples with silence : Yes
Delete leading and trailing silent blocks : No
Null samples used in CRC calculations : Yes
Used interface : Native Win32 interface for Win NT & 2000
Gap handling : Appended to previous track

Used output format : User Defined Encoder
Selected bitrate : 1024 kBit/s
Quality : High
Add ID3 tag : No
Command line compressor : C:\Program Files (x86)\Exact Audio Copy\Flac\flac.exe
Additional command line options : -8 -V -T "ARTIST=%artist%" -T "TITLE=%title%" -T "ALBUM=%albumtitle%" -T "DATE=%year%" -T "TRACKNUMBER=%tracknr%" -T "GENRE=%genre%" -T "COMMENT=%comment%" -T "BAND=%albuminterpret%" -T "ALBUMARTIST=%albuminterpret%" -T "COMPOSER=%composer%" %haslyrics%–tag-from-file=LYRICS="%lyricsfile%"%haslyrics% -T "DISCNUMBER=%cdnumber%" -T "TOTALDISCS=%totalcds%" -T "TOTALTRACKS=%numtracks%" %hascover%–picture="%coverfile%"%hascover% %source% -o %dest%


TOC of the extracted CD

Track | Start | Length | Start sector | End sector
––––––––––––––––––––––––––––-
1 | 0:00.00 | 3:00.45 | 0 | 13544
2 | 3:00.45 | 2:56.70 | 13545 | 26814
3 | 5:57.40 | 3:16.00 | 26815 | 41514
4 | 9:13.40 | 3:08.07 | 41515 | 55621
5 | 12:21.47 | 2:58.58 | 55622 | 69029
6 | 15:20.30 | 3:09.45 | 69030 | 83249
7 | 18:30.00 | 3:11.65 | 83250 | 97639
8 | 21:41.65 | 2:34.60 | 97640 | 109249
9 | 24:16.50 | 3:10.32 | 109250 | 123531
10 | 27:27.07 | 3:13.28 | 123532 | 138034
11 | 30:40.35 | 3:00.60 | 138035 | 151594
12 | 33:41.20 | 3:09.10 | 151595 | 165779
13 | 36:50.30 | 2:23.50 | 165780 | 176554
14 | 39:14.05 | 2:59.30 | 176555 | 190009
15 | 42:13.35 | 3:19.12 | 190010 | 204946
16 | 45:32.47 | 3:19.63 | 204947 | 219934
17 | 48:52.35 | 3:30.32 | 219935 | 235716
18 | 52:22.67 | 3:22.13 | 235717 | 250879
19 | 55:45.05 | 2:47.50 | 250880 | 263454
20 | 58:32.55 | 3:05.67 | 263455 | 277396
21 | 61:38.47 | 2:29.48 | 277397 | 288619
22 | 64:08.20 | 2:56.40 | 288620 | 301859


Track 1

Filename C:\Rips\Count Basie - America's #1 Band! The Columbia Years\CD 1\01 Shoe Shine Boy.wav

Pre-gap length 0:00:02.00

Peak level 93.3 %
Extraction speed 1.5 X
Track quality 99.9 %
Copy CRC C988890B
Accurately ripped (confidence 9) [7FD59BB5] (AR v2)
Copy OK

Track 2

Filename C:\Rips\Count Basie - America's #1 Band! The Columbia Years\CD 1\02 Evenin'.wav

Pre-gap length 0:00:01.73

Peak level 92.7 %
Extraction speed 1.6 X
Track quality 99.9 %
Copy CRC 0878830A
Accurately ripped (confidence 9) [C3AA906A] (AR v2)
Copy OK

Track 3

Filename C:\Rips\Count Basie - America's #1 Band! The Columbia Years\CD 1\03 Boogie Woogie (I May Be Wrong).wav

Pre-gap length 0:00:02.03

Peak level 90.1 %
Extraction speed 2.1 X
Track quality 100.0 %
Copy CRC 16E4C16D
Accurately ripped (confidence 9) [5487FA5F] (AR v2)
Copy OK

Track 4

Filename C:\Rips\Count Basie - America's #1 Band! The Columbia Years\CD 1\04 Oh, Lady Be Good.wav

Pre-gap length 0:00:01.73

Peak level 99.5 %
Extraction speed 2.1 X
Track quality 100.0 %
Copy CRC FA0961A2
Accurately ripped (confidence 9) [EB4E045A] (AR v2)
Copy OK

Track 5

Filename C:\Rips\Count Basie - America's #1 Band! The Columbia Years\CD 1\05 I Ain't Got Nobody.wav

Pre-gap length 0:00:02.10

Peak level 100.0 %
Extraction speed 2.3 X
Track quality 100.0 %
Copy CRC 67E71C58
Accurately ripped (confidence 9) [CF232EA9] (AR v2)
Copy OK

Track 6

Filename C:\Rips\Count Basie - America's #1 Band! The Columbia Years\CD 1\06 Goin' to Chicago Blues.wav

Pre-gap length 0:00:02.08

Peak level 94.2 %
Extraction speed 2.4 X
Track quality 100.0 %
Copy CRC E962564A
Accurately ripped (confidence 9) [0E901F4D] (AR v2)
Copy OK

Track 7

Filename C:\Rips\Count Basie - America's #1 Band! The Columbia Years\CD 1\07 Live And Love Tonight.wav

Pre-gap length 0:00:01.25

Peak level 67.9 %
Extraction speed 2.2 X
Track quality 99.9 %
Copy CRC 47A9BD2F
Accurately ripped (confidence 9) [E0A9AFC0] (AR v2)
Copy OK

Track 8

Filename C:\Rips\Count Basie - America's #1 Band! The Columbia Years\CD 1\08 Love Me Or Leave Me.wav

Pre-gap length 0:00:02.10

Peak level 100.0 %
Extraction speed 2.5 X
Track quality 100.0 %
Copy CRC D609DB10
Accurately ripped (confidence 9) [F8F10B6C] (AR v2)
Copy OK

Track 9

Filename C:\Rips\Count Basie - America's #1 Band! The Columbia Years\CD 1\09 Dickie's Dream.wav

Pre-gap length 0:00:02.15

Peak level 86.7 %
Extraction speed 2.7 X
Track quality 100.0 %
Copy CRC E0A2CD80
Accurately ripped (confidence 9) [F9F131E5] (AR v2)
Copy OK

Track 10

Filename C:\Rips\Count Basie - America's #1 Band! The Columbia Years\CD 1\10 Lester Leaps In.wav

Pre-gap length 0:00:01.42

Peak level 98.2 %
Extraction speed 2.8 X
Track quality 100.0 %
Copy CRC 65C5E261
Accurately ripped (confidence 9) [A1B13459] (AR v2)
Copy OK

Track 11

Filename C:\Rips\Count Basie - America's #1 Band! The Columbia Years\CD 1\11 How Long Blues.wav

Peak level 94.2 %
Extraction speed 2.8 X
Track quality 100.0 %
Copy CRC 6C6F31D3
Accurately ripped (confidence 9) [22F36C51] (AR v2)
Copy OK

Track 12

Filename C:\Rips\Count Basie - America's #1 Band! The Columbia Years\CD 1\12 Royal Garden Blues.wav

Pre-gap length 0:00:01.43

Peak level 94.4 %
Extraction speed 2.9 X
Track quality 100.0 %
Copy CRC 4FF5AE47
Accurately ripped (confidence 9) [8CE1E4CF] (AR v2)
Copy OK

Track 13

Filename C:\Rips\Count Basie - America's #1 Band! The Columbia Years\CD 1\13 Bugle Blues.wav

Pre-gap length 0:00:02.05

Peak level 99.4 %
Extraction speed 2.8 X
Track quality 100.0 %
Copy CRC AEC89F8D
Accurately ripped (confidence 9) [A3727F2C] (AR v2)
Copy OK

Track 14

Filename C:\Rips\Count Basie - America's #1 Band! The Columbia Years\CD 1\14 Sugar Blues.wav

Pre-gap length 0:00:01.60

Peak level 92.3 %
Extraction speed 3.1 X
Track quality 100.0 %
Copy CRC D0CCCA34
Accurately ripped (confidence 9) [B2E5F754] (AR v2)
Copy OK

Track 15

Filename C:\Rips\Count Basie - America's #1 Band! The Columbia Years\CD 1\15 Farewell Blues.wav

Pre-gap length 0:00:02.23

Peak level 85.1 %
Extraction speed 3.2 X
Track quality 100.0 %
Copy CRC 33044BD4
Accurately ripped (confidence 9) [693CB487] (AR v2)
Copy OK

Track 16

Filename C:\Rips\Count Basie - America's #1 Band! The Columbia Years\CD 1\16 Cafe Society Blues.wav

Pre-gap length 0:00:01.67

Peak level 96.3 %
Extraction speed 2.8 X
Track quality 99.9 %
Copy CRC 4A4C20A3
Accurately ripped (confidence 9) [68F45476] (AR v2)
Copy OK

Track 17

Filename C:\Rips\Count Basie - America's #1 Band! The Columbia Years\CD 1\17 Way Back Blues.wav

Pre-gap length 0:00:02.23

Peak level 95.6 %
Extraction speed 3.3 X
Track quality 100.0 %
Copy CRC 2C995C52
Accurately ripped (confidence 9) [C5B2A263] (AR v2)
Copy OK

Track 18

Filename C:\Rips\Count Basie - America's #1 Band! The Columbia Years\CD 1\18 St. Louis Blues.wav

Pre-gap length 0:00:02.05

Peak level 87.4 %
Extraction speed 2.9 X
Track quality 99.9 %
Copy CRC 8109FA4E
Accurately ripped (confidence 9) [084A4DA3] (AR v2)
Copy OK

Track 19

Filename C:\Rips\Count Basie - America's #1 Band! The Columbia Years\CD 1\19 Neal's Deal.wav

Pre-gap length 0:00:02.25

Peak level 97.0 %
Extraction speed 2.8 X
Track quality 99.9 %
Copy CRC 6C8D145F
Accurately ripped (confidence 9) [3D198E70] (AR v2)
Copy OK

Track 20

Filename C:\Rips\Count Basie - America's #1 Band! The Columbia Years\CD 1\20 Bluebeard Blues.wav

Pre-gap length 0:00:02.00

Peak level 96.1 %
Extraction speed 3.0 X
Track quality 99.9 %
Copy CRC 6F1DFD8E
Accurately ripped (confidence 9) [8EC08C07] (AR v2)
Copy OK

Track 21

Filename C:\Rips\Count Basie - America's #1 Band! The Columbia Years\CD 1\21 The Golden Bullet.wav

Pre-gap length 0:00:02.00

Peak level 95.8 %
Extraction speed 3.4 X
Track quality 100.0 %
Copy CRC C2D2E0D9
Accurately ripped (confidence 9) [3F428C7B] (AR v2)
Copy OK

Track 22

Filename C:\Rips\Count Basie - America's #1 Band! The Columbia Years\CD 1\22 You're My Baby, You.wav

Pre-gap length 0:00:02.33

Peak level 86.5 %
Extraction speed 3.7 X
Track quality 100.0 %
Copy CRC F0516DF6
Accurately ripped (confidence 9) [E7A739E2] (AR v2)
Copy OK


All tracks accurately ripped

No errors occurred

End of status report

–– CUETools DB Plugin V2.1.3

[CTDB TOCID: 5AMImsBAOx2PwXvr1uBGKIkVFh0-] found, Submit result: already submitted
[ad79d3c5] (6/6) Accurately ripped


==== Log checksum AF80B39DA6E6051589E9F2982DE18050F682C4106257AEBC97739E5A9CF1E7D2 ====

[CUETools log; Date: 20.09.2019 0:59:13; Version: 2.1.4]
[CTDB TOCID: 5AMImsBAOx2PwXvr1uBGKIkVFh0-] found.
Track | CTDB Status
1 | (21/23) Accurately ripped
2 | (21/23) Accurately ripped
3 | (21/23) Accurately ripped
4 | (21/23) Accurately ripped
5 | (21/23) Accurately ripped
6 | (21/23) Accurately ripped
7 | (21/23) Accurately ripped
8 | (21/23) Accurately ripped
9 | (21/23) Accurately ripped
10 | (21/23) Accurately ripped
11 | (21/23) Accurately ripped
12 | (21/23) Accurately ripped
13 | (21/23) Accurately ripped
14 | (21/23) Accurately ripped
15 | (21/23) Accurately ripped
16 | (21/23) Accurately ripped
17 | (21/23) Accurately ripped
18 | (21/23) Accurately ripped
19 | (21/23) Accurately ripped
20 | (21/23) Accurately ripped
21 | (21/23) Accurately ripped
22 | (21/23) Accurately ripped
[AccurateRip ID: 00352d39-035318a1-1d0fb816] found.
Track [ CRC | V2 ] Status
01 [e59f6eaa|7fd59bb5] (14+13/31) Accurately ripped
02 [664d9535|c3aa906a] (14+13/31) Accurately ripped
03 [b425af7d|5487fa5f] (14+13/31) Accurately ripped
04 [e7b357dc|eb4e045a] (14+13/31) Accurately ripped
05 [197523d3|cf232ea9] (14+13/31) Accurately ripped
06 [7a7d11a5|0e901f4d] (14+13/31) Accurately ripped
07 [be2debbf|e0a9afc0] (14+13/31) Accurately ripped
08 [734a7095|f8f10b6c] (14+13/31) Accurately ripped
09 [575e0f75|f9f131e5] (14+13/31) Accurately ripped
10 [bd9e52d0|a1b13459] (14+13/31) Accurately ripped
11 [09cd4045|22f36c51] (14+13/31) Accurately ripped
12 [fc47db44|8ce1e4cf] (14+13/31) Accurately ripped
13 [c8d01413|a3727f2c] (14+13/31) Accurately ripped
14 [8809b835|b2e5f754] (14+13/31) Accurately ripped
15 [2111efd5|693cb487] (14+13/31) Accurately ripped
16 [62fdcb61|68f45476] (14+13/31) Accurately ripped
17 [c74c4f31|c5b2a263] (14+13/31) Accurately ripped
18 [90d8347d|084a4da3] (14+13/31) Accurately ripped
19 [f233a994|3d198e70] (14+13/31) Accurately ripped
20 [3b7e01d6|8ec08c07] (14+13/31) Accurately ripped
21 [e28bb377|3f428c7b] (14+13/31) Accurately ripped
22 [f5077156|e7a739e2] (14+13/31) Accurately ripped
Offsetted by -1060:
01 [3de027fe] (00/31) No match (V2 was not tested)
02 [061de35d] (00/31) No match (V2 was not tested)
03 [a5c31acd] (00/31) No match (V2 was not tested)
04 [7076c92c] (00/31) No match (V2 was not tested)
05 [52a380b7] (00/31) No match (V2 was not tested)
06 [d28ae3d1] (00/31) No match (V2 was not tested)
07 [94897b53] (00/31) No match (V2 was not tested)
08 [7bf15db9] (00/31) No match (V2 was not tested)
09 [3b71b3e9] (00/31) No match (V2 was not tested)
10 [a7a14b1c] (00/31) No match (V2 was not tested)
11 [9c9bffad] (00/31) No match (V2 was not tested)
12 [3e0140ac] (00/31) No match (V2 was not tested)
13 [d92a0b5b] (00/31) No match (V2 was not tested)
14 [0916f00d] (00/31) No match (V2 was not tested)
15 [d8fda129] (00/31) No match (V2 was not tested)
16 [4367dac5] (00/31) No match (V2 was not tested)
17 [9f221075] (00/31) No match (V2 was not tested)
18 [c89de7a1] (00/31) No match (V2 was not tested)
19 [9a2ff7a8] (00/31) No match (V2 was not tested)
20 [b8a0a9c2] (00/31) No match (V2 was not tested)
21 [caf9907f] (00/31) No match (V2 was not tested)
22 [0012cb12] (00/31) No match (V2 was not tested)

Track Peak [ CRC32 ] [W/O NULL] [ LOG ]
– 100,0 [2B179828] [9096FBC8]
01 93,3 [C988890B] [06627477] CRC32
02 92,7 [0878830A] [BD79B89C] CRC32
03 90,1 [16E4C16D] [5FF64F6C] CRC32
04 99,5 [FA0961A2] [66C5C952] CRC32
05 100,0 [67E71C58] [238B9196] CRC32
06 94,2 [E962564A] [3C979A6F] CRC32
07 67,9 [47A9BD2F] [2F0C9932] CRC32
08 100,0 [D609DB10] [8D601B41] CRC32
09 86,7 [E0A2CD80] [FA365374] CRC32
10 98,2 [65C5E261] [9D858842] CRC32
11 94,2 [6C6F31D3] [82E8B084] CRC32
12 94,4 [4FF5AE47] [ADF6570F] CRC32
13 99,4 [AEC89F8D] [9644836A] CRC32
14 92,3 [D0CCCA34] [04B6D170] CRC32
15 85,1 [33044BD4] [D369A635] CRC32
16 96,3 [4A4C20A3] [3AB43E21] CRC32
17 95,6 [2C995C52] [03B590BF] CRC32
18 87,4 [8109FA4E] [983F40CD] CRC32
19 97,0 [6C8D145F] [3728993C] CRC32
20 96,1 [6F1DFD8E] [CC9902F6] CRC32
21 95,8 [C2D2E0D9] [299DA940] CRC32
22 86,5 [F0516DF6] [C4FC9C8D] CRC32

Exact Audio Copy V1.0 beta 3 from 29. August 2011

EAC extraction logfile from 17. February 2014, 13:47

Count Basie & His Orchestra / America's #1 Band! The Columbia Years

Used drive : HL-DT-STDVD+-RW GH82N Adapter: 0 ID: 1

Read mode : Secure
Utilize accurate stream : Yes
Defeat audio cache : Yes
Make use of C2 pointers : No

Read offset correction : 667
Overread into Lead-In and Lead-Out : No
Fill up missing offset samples with silence : Yes
Delete leading and trailing silent blocks : No
Null samples used in CRC calculations : Yes
Used interface : Native Win32 interface for Win NT & 2000
Gap handling : Appended to previous track

Used output format : User Defined Encoder
Selected bitrate : 1024 kBit/s
Quality : High
Add ID3 tag : No
Command line compressor : C:\Program Files (x86)\Exact Audio Copy\Flac\flac.exe
Additional command line options : -8 -V -T "ARTIST=%artist%" -T "TITLE=%title%" -T "ALBUM=%albumtitle%" -T "DATE=%year%" -T "TRACKNUMBER=%tracknr%" -T "GENRE=%genre%" -T "COMMENT=%comment%" -T "BAND=%albuminterpret%" -T "ALBUMARTIST=%albuminterpret%" -T "COMPOSER=%composer%" %haslyrics%–tag-from-file=LYRICS="%lyricsfile%"%haslyrics% -T "DISCNUMBER=%cdnumber%" -T "TOTALDISCS=%totalcds%" -T "TOTALTRACKS=%numtracks%" %hascover%–picture="%coverfile%"%hascover% %source% -o %dest%


TOC of the extracted CD

Track | Start | Length | Start sector | End sector
––––––––––––––––––––––––––––-
1 | 0:00.00 | 2:53.17 | 0 | 12991
2 | 2:53.17 | 3:01.33 | 12992 | 26599
3 | 5:54.50 | 3:13.57 | 26600 | 41131
4 | 9:08.32 | 2:53.28 | 41132 | 54134
5 | 12:01.60 | 3:09.72 | 54135 | 68381
6 | 15:11.57 | 3:10.48 | 68382 | 82679
7 | 18:22.30 | 2:35.30 | 82680 | 94334
8 | 20:57.60 | 2:49.20 | 94335 | 107029
9 | 23:47.05 | 3:06.65 | 107030 | 121044
10 | 26:53.70 | 3:02.57 | 121045 | 134751
11 | 29:56.52 | 2:51.35 | 134752 | 147611
12 | 32:48.12 | 3:05.28 | 147612 | 161514
13 | 35:53.40 | 2:56.67 | 161515 | 174781
14 | 38:50.32 | 2:44.58 | 174782 | 187139
15 | 41:35.15 | 2:50.00 | 187140 | 199889
16 | 44:25.15 | 2:46.37 | 199890 | 212376
17 | 47:11.52 | 3:04.48 | 212377 | 226224
18 | 50:16.25 | 2:31.40 | 226225 | 237589
19 | 52:47.65 | 2:39.30 | 237590 | 249544
20 | 55:27.20 | 2:27.50 | 249545 | 260619
21 | 57:54.70 | 3:29.12 | 260620 | 276306
22 | 61:24.07 | 2:54.65 | 276307 | 289421
23 | 64:18.72 | 2:38.63 | 289422 | 301334


Track 1

Filename C:\Rips\Count Basie - America's #1 Band! The Columbia Years\CD 2\01 Song Of The Islands.wav

Pre-gap length 0:00:02.00

Peak level 100.0 %
Extraction speed 1.7 X
Track quality 100.0 %
Copy CRC 1514EE9A
Accurately ripped (confidence 9) [86AAC017] (AR v2)
Copy OK

Track 2

Filename C:\Rips\Count Basie - America's #1 Band! The Columbia Years\CD 2\02 These Foolish Things (Remind Me Of You).wav

Pre-gap length 0:00:01.55

Peak level 91.7 %
Extraction speed 1.9 X
Track quality 100.0 %
Copy CRC 02614EFB
Accurately ripped (confidence 9) [2D2378D2] (AR v2)
Copy OK

Track 3

Filename C:\Rips\Count Basie - America's #1 Band! The Columbia Years\CD 2\03 I'm Confessin' (That I Love You).wav

Pre-gap length 0:00:02.33

Peak level 98.4 %
Extraction speed 2.0 X
Track quality 100.0 %
Copy CRC BE18A39A
Accurately ripped (confidence 9) [8ADAC1AD] (AR v2)
Copy OK

Track 4

Filename C:\Rips\Count Basie - America's #1 Band! The Columbia Years\CD 2\04 One O'Clock Jump.wav

Pre-gap length 0:00:02.05

Peak level 100.0 %
Extraction speed 2.1 X
Track quality 100.0 %
Copy CRC B4E379C9
Accurately ripped (confidence 9) [750187D6] (AR v2)
Copy OK

Track 5

Filename C:\Rips\Count Basie - America's #1 Band! The Columbia Years\CD 2\05 I Ain't Got Nobody.wav

Pre-gap length 0:00:02.38

Peak level 98.2 %
Extraction speed 2.3 X
Track quality 100.0 %
Copy CRC 4782AEE2
Accurately ripped (confidence 9) [2C53F5EC] (AR v2)
Copy OK

Track 6

Filename C:\Rips\Count Basie - America's #1 Band! The Columbia Years\CD 2\06 Little White Lies.wav

Pre-gap length 0:00:02.02

Peak level 97.8 %
Extraction speed 2.4 X
Track quality 100.0 %
Copy CRC 60D1A714
Accurately ripped (confidence 9) [887454D7] (AR v2)
Copy OK

Track 7

Filename C:\Rips\Count Basie - America's #1 Band! The Columbia Years\CD 2\07 I'll Remember April.wav

Pre-gap length 0:00:01.63

Peak level 92.8 %
Extraction speed 2.4 X
Track quality 100.0 %
Copy CRC A5BE6A12
Accurately ripped (confidence 8) [515CB91A] (AR v2)
Copy OK

Track 8

Filename C:\Rips\Count Basie - America's #1 Band! The Columbia Years\CD 2\08 Tootie.wav

Pre-gap length 0:00:02.00

Peak level 100.0 %
Extraction speed 2.5 X
Track quality 100.0 %
Copy CRC 6F0F5A32
Accurately ripped (confidence 8) [E6161561] (AR v2)
Copy OK

Track 9

Filename C:\Rips\Count Basie - America's #1 Band! The Columbia Years\CD 2\09 Rock-A-Bye Basie.wav

Pre-gap length 0:00:03.33

Peak level 99.8 %
Extraction speed 2.2 X
Track quality 99.9 %
Copy CRC EA4D20DA
Accurately ripped (confidence 8) [7879C50A] (AR v2)
Copy OK

Track 10

Filename C:\Rips\Count Basie - America's #1 Band! The Columbia Years\CD 2\10 One Hour.wav

Pre-gap length 0:00:02.30

Peak level 100.0 %
Extraction speed 2.8 X
Track quality 100.0 %
Copy CRC 66451AD6
Accurately ripped (confidence 9) [F1420C65] (AR v2)
Copy OK

Track 11

Filename C:\Rips\Count Basie - America's #1 Band! The Columbia Years\CD 2\11 Taxi War Dance.wav

Pre-gap length 0:00:01.72

Peak level 96.4 %
Extraction speed 2.8 X
Track quality 100.0 %
Copy CRC A3FE5246
Accurately ripped (confidence 9) [9F819CA5] (AR v2)
Copy OK

Track 12

Filename C:\Rips\Count Basie - America's #1 Band! The Columbia Years\CD 2\12 Twelfth Street Rag.wav

Pre-gap length 0:00:01.40

Peak level 100.0 %
Extraction speed 2.9 X
Track quality 100.0 %
Copy CRC 9FC2CF55
Accurately ripped (confidence 9) [13186748] (AR v2)
Copy OK

Track 13

Filename C:\Rips\Count Basie - America's #1 Band! The Columbia Years\CD 2\13 Miss Thing, Part 1.wav

Pre-gap length 0:00:02.20

Peak level 99.8 %
Extraction speed 2.9 X
Track quality 100.0 %
Copy CRC F6E67A83
Accurately ripped (confidence 9) [594E4F06] (AR v2)
Copy OK

Track 14

Filename C:\Rips\Count Basie - America's #1 Band! The Columbia Years\CD 2\14 Miss Thing, Part 2.wav

Pre-gap length 0:00:02.47

Peak level 100.0 %
Extraction speed 3.0 X
Track quality 100.0 %
Copy CRC 70455ACD
Accurately ripped (confidence 9) [8F134368] (AR v2)
Copy OK

Track 15

Filename C:\Rips\Count Basie - America's #1 Band! The Columbia Years\CD 2\15 Nobody Knows (Take 1).wav

Pre-gap length 0:00:01.40

Peak level 96.0 %
Extraction speed 2.6 X
Track quality 99.9 %
Copy CRC 319ACC10
Accurately ripped (confidence 9) [C697BD46] (AR v2)
Copy OK

Track 16

Filename C:\Rips\Count Basie - America's #1 Band! The Columbia Years\CD 2\16 Pound Cake.wav

Pre-gap length 0:00:02.15

Peak level 99.7 %
Extraction speed 3.0 X
Track quality 100.0 %
Copy CRC F57A236F
Accurately ripped (confidence 9) [843B9F8A] (AR v2)
Copy OK

Track 17

Filename C:\Rips\Count Basie - America's #1 Band! The Columbia Years\CD 2\17 Song Of The Islands.wav

Pre-gap length 0:00:01.70

Peak level 100.0 %
Extraction speed 3.3 X
Track quality 100.0 %
Copy CRC B6A22FFD
Accurately ripped (confidence 9) [BB73C542] (AR v2)
Copy OK

Track 18

Filename C:\Rips\Count Basie - America's #1 Band! The Columbia Years\CD 2\18 Clap Hands, Here Comes Charlie.wav

Pre-gap length 0:00:02.33

Peak level 99.8 %
Extraction speed 3.3 X
Track quality 100.0 %
Copy CRC 96D7932F
Accurately ripped (confidence 9) [2A3EBD97] (AR v2)
Copy OK

Track 19

Filename C:\Rips\Count Basie - America's #1 Band! The Columbia Years\CD 2\19 Tickle Toe.wav

Pre-gap length 0:00:01.60

Peak level 100.0 %
Extraction speed 3.4 X
Track quality 100.0 %
Copy CRC 8B87FB93
Accurately ripped (confidence 9) [EEAFB862] (AR v2)
Copy OK

Track 20

Filename C:\Rips\Count Basie - America's #1 Band! The Columbia Years\CD 2\20 Louisiana.wav

Pre-gap length 0:00:01.63

Peak level 100.0 %
Extraction speed 3.2 X
Track quality 100.0 %
Copy CRC FEBE96FD
Accurately ripped (confidence 9) [8898A799] (AR v2)
Copy OK

Track 21

Filename C:\Rips\Count Basie - America's #1 Band! The Columbia Years\CD 2\21 Easy Does It.wav

Pre-gap length 0:00:02.20

Peak level 96.6 %
Extraction speed 3.1 X
Track quality 99.9 %
Copy CRC CAD4AA29
Accurately ripped (confidence 9) [AB768AA7] (AR v2)
Copy OK

Track 22

Filename C:\Rips\Count Basie - America's #1 Band! The Columbia Years\CD 2\22 Somebody Stole My Gal.wav

Pre-gap length 0:00:02.17

Peak level 100.0 %
Extraction speed 3.5 X
Track quality 100.0 %
Copy CRC 09C1CA1B
Accurately ripped (confidence 9) [AF459002] (AR v2)
Copy OK

Track 23

Filename C:\Rips\Count Basie - America's #1 Band! The Columbia Years\CD 2\23 I Want A Little Girl.wav

Pre-gap length 0:00:02.07

Peak level 100.0 %
Extraction speed 3.7 X
Track quality 100.0 %
Copy CRC 448BB398
Accurately ripped (confidence 9) [3B5B3E17] (AR v2)
Copy OK


All tracks accurately ripped

No errors occurred

End of status report

–– CUETools DB Plugin V2.1.3

[CTDB TOCID: FAw5l8ZPBTOzwVy6mXHR0IopWpA-] found, Submit result: already submitted
[76727a92] (5/6) Accurately ripped
[932d2f8f] (1/6) No match


==== Log checksum 729290FD5C16B696C5A1ED989259073DA7DB26CFE27A82E0FCBA4B16E045977F ====

[CUETools log; Date: 20.09.2019 1:00:07; Version: 2.1.4]
[CTDB TOCID: FAw5l8ZPBTOzwVy6mXHR0IopWpA-] found.
Track | CTDB Status
1 | (18/21) Accurately ripped
2 | (18/21) Accurately ripped
3 | (18/21) Accurately ripped
4 | (18/21) Accurately ripped
5 | (18/21) Accurately ripped
6 | (18/21) Accurately ripped
7 | (17/21) Accurately ripped
8 | (17/21) Accurately ripped
9 | (17/21) Accurately ripped
10 | (18/21) Accurately ripped
11 | (18/21) Accurately ripped
12 | (18/21) Accurately ripped
13 | (18/21) Accurately ripped
14 | (18/21) Accurately ripped
15 | (18/21) Accurately ripped
16 | (18/21) Accurately ripped
17 | (18/21) Accurately ripped
18 | (18/21) Accurately ripped
19 | (18/21) Accurately ripped
20 | (18/21) Accurately ripped
21 | (18/21) Accurately ripped
22 | (18/21) Accurately ripped
23 | (18/21) Accurately ripped
[AccurateRip ID: 0037f5f3-03a123e0-5d0fb117] found.
Track [ CRC | V2 ] Status
01 [5858ccc7|86aac017] (13+13/30) Accurately ripped
02 [ce6d0bc6|2d2378d2] (13+13/30) Accurately ripped
03 [c2217b2b|8adac1ad] (13+13/30) Accurately ripped
04 [f0cf0476|750187d6] (13+13/30) Accurately ripped
05 [54c1ca30|2c53f5ec] (13+13/30) Accurately ripped
06 [93046833|887454d7] (13+13/30) Accurately ripped
07 [834e095b|515cb91a] (13+12/29) Accurately ripped
08 [535889ea|e6161561] (13+12/29) Accurately ripped
09 [ba32d5cc|7879c50a] (13+12/29) Accurately ripped
10 [41d9fe36|f1420c65] (13+13/28) Accurately ripped
11 [f3763fd3|9f819ca5] (13+13/30) Accurately ripped
12 [1f8f2698|13186748] (12+13/29) Accurately ripped
13 [074638b7|594e4f06] (13+13/30) Accurately ripped
14 [012f1953|8f134368] (13+13/30) Accurately ripped
15 [95bd9b8e|c697bd46] (13+13/30) Accurately ripped
16 [f6641ba1|843b9f8a] (13+13/30) Accurately ripped
17 [6c11775c|bb73c542] (13+13/30) Accurately ripped
18 [fe230647|2a3ebd97] (13+13/30) Accurately ripped
19 [4cd978bb|eeafb862] (14+13/31) Accurately ripped
20 [6a410e17|8898a799] (14+13/31) Accurately ripped
21 [59aff647|ab768aa7] (14+13/31) Accurately ripped
22 [57dd97e9|af459002] (14+13/31) Accurately ripped
23 [e7b252d2|3b5b3e17] (14+13/31) Accurately ripped
Offsetted by 602:
01 [d0332039] (00/30) No match (V2 was not tested)
02 [9433d784] (00/30) No match (V2 was not tested)
03 [14c86391] (00/30) No match (V2 was not tested)
04 [b2a9ab5a] (00/30) No match (V2 was not tested)
05 [48213b16] (00/30) No match (V2 was not tested)
06 [5f010d0f] (00/30) No match (V2 was not tested)
07 [4310356b] (00/29) No match (V2 was not tested)
08 [2b59e342] (00/29) No match (V2 was not tested)
09 [3021fe90] (00/29) No match (V2 was not tested)
10 [0167e7ae] (00/28) No match (V2 was not tested)
11 [bb9e1fb9] (00/30) No match (V2 was not tested)
12 [268ccc28] (00/29) No match (V2 was not tested)
13 [fb70262b] (00/30) No match (V2 was not tested)
14 [a3a78e2f] (00/30) No match (V2 was not tested)
15 [77707c70] (00/30) No match (V2 was not tested)
16 [afcf0e37] (00/30) No match (V2 was not tested)
17 [79300de0] (00/30) No match (V2 was not tested)
18 [4a4da893] (00/30) No match (V2 was not tested)
19 [7e7a1c0f] (00/31) No match (V2 was not tested)
20 [afd91ba5] (00/31) No match (V2 was not tested)
21 [4130a4f3] (00/31) No match (V2 was not tested)
22 [4a9a0f6d] (00/31) No match (V2 was not tested)
23 [af7add0e] (00/31) No match (V2 was not tested)

Track Peak [ CRC32 ] [W/O NULL] [ LOG ]
– 100,0 [FD3B18D2] [9066778F]
01 100,0 [1514EE9A] [FB691EEA] CRC32
02 91,7 [02614EFB] [FEEC6FC0] CRC32
03 98,4 [BE18A39A] [F1C6FF74] CRC32
04 100,0 [B4E379C9] [775D9F9F] CRC32
05 98,2 [4782AEE2] [D3127A6A] CRC32
06 97,8 [60D1A714] [87B7BD7B] CRC32
07 92,8 [A5BE6A12] [55315002] CRC32
08 100,0 [6F0F5A32] [4D33521D] CRC32
09 99,8 [EA4D20DA] [44410BF6] CRC32
10 100,0 [66451AD6] [D46377A5] CRC32
11 96,4 [A3FE5246] [4292415F] CRC32
12 100,0 [9FC2CF55] [262652D2] CRC32
13 99,8 [F6E67A83] [4735DD98] CRC32
14 100,0 [70455ACD] [B5A521AA] CRC32
15 96,0 [319ACC10] [1A0D2F6A] CRC32
16 99,7 [F57A236F] [22764648] CRC32
17 100,0 [B6A22FFD] [0C8FBD02] CRC32
18 99,8 [96D7932F] [12ADEBD0] CRC32
19 100,0 [8B87FB93] [5EBA77CB] CRC32
20 100,0 [FEBE96FD] [E425F701] CRC32
21 96,6 [CAD4AA29] [57626C78] CRC32
22 100,0 [09C1CA1B] [29AC5740] CRC32
23 100,0 [448BB398] [C5E8EEE4] CRC32

Exact Audio Copy V1.0 beta 3 from 29. August 2011

EAC extraction logfile from 17. February 2014, 14:31

Count Basie & His Orchestra / America's #1 Band! The Columbia Years

Used drive : HL-DT-STDVD+-RW GH82N Adapter: 0 ID: 1

Read mode : Secure
Utilize accurate stream : Yes
Defeat audio cache : Yes
Make use of C2 pointers : No

Read offset correction : 667
Overread into Lead-In and Lead-Out : No
Fill up missing offset samples with silence : Yes
Delete leading and trailing silent blocks : No
Null samples used in CRC calculations : Yes
Used interface : Native Win32 interface for Win NT & 2000
Gap handling : Appended to previous track

Used output format : User Defined Encoder
Selected bitrate : 1024 kBit/s
Quality : High
Add ID3 tag : No
Command line compressor : C:\Program Files (x86)\Exact Audio Copy\Flac\flac.exe
Additional command line options : -8 -V -T "ARTIST=%artist%" -T "TITLE=%title%" -T "ALBUM=%albumtitle%" -T "DATE=%year%" -T "TRACKNUMBER=%tracknr%" -T "GENRE=%genre%" -T "COMMENT=%comment%" -T "BAND=%albuminterpret%" -T "ALBUMARTIST=%albuminterpret%" -T "COMPOSER=%composer%" %haslyrics%–tag-from-file=LYRICS="%lyricsfile%"%haslyrics% -T "DISCNUMBER=%cdnumber%" -T "TOTALDISCS=%totalcds%" -T "TOTALTRACKS=%numtracks%" %hascover%–picture="%coverfile%"%hascover% %source% -o %dest%


TOC of the extracted CD

Track | Start | Length | Start sector | End sector
––––––––––––––––––––––––––––-
1 | 0:00.00 | 3:06.27 | 0 | 13976
2 | 3:06.27 | 3:02.08 | 13977 | 27634
3 | 6:08.35 | 3:10.50 | 27635 | 41934
4 | 9:19.10 | 3:04.07 | 41935 | 55741
5 | 12:23.17 | 2:48.50 | 55742 | 68391
6 | 15:11.67 | 3:12.60 | 68392 | 82851
7 | 18:24.52 | 3:26.03 | 82852 | 98304
8 | 21:50.55 | 3:22.45 | 98305 | 113499
9 | 25:13.25 | 3:04.62 | 113500 | 127361
10 | 28:18.12 | 3:09.08 | 127362 | 141544
11 | 31:27.20 | 2:56.35 | 141545 | 154779
12 | 34:23.55 | 3:20.35 | 154780 | 169814
13 | 37:44.15 | 3:06.60 | 169815 | 183824
14 | 40:51.00 | 2:54.00 | 183825 | 196874
15 | 43:45.00 | 3:05.12 | 196875 | 210761
16 | 46:50.12 | 3:06.00 | 210762 | 224711
17 | 49:56.12 | 3:20.68 | 224712 | 239779
18 | 53:17.05 | 3:08.60 | 239780 | 253939
19 | 56:25.65 | 2:26.30 | 253940 | 264919
20 | 58:52.20 | 3:20.40 | 264920 | 279959
21 | 62:12.60 | 3:29.15 | 279960 | 295649
22 | 65:42.00 | 2:29.00 | 295650 | 306824
23 | 68:11.00 | 2:57.35 | 306825 | 320134


Track 1

Filename C:\Rips\Count Basie - America's #1 Band! The Columbia Years\CD 3\01 Five O'Clock Whistle.wav

Pre-gap length 0:00:02.00

Peak level 97.0 %
Extraction speed 1.8 X
Track quality 100.0 %
Copy CRC CC3DBADA
Accurately ripped (confidence 6) [7F6DFE82] (AR v2)
Copy OK

Track 2

Filename C:\Rips\Count Basie - America's #1 Band! The Columbia Years\CD 3\02 Broadway.wav

Pre-gap length 0:00:01.70

Peak level 98.4 %
Extraction speed 1.9 X
Track quality 100.0 %
Copy CRC 1238C000
Accurately ripped (confidence 6) [B42554F5] (AR v2)
Copy OK

Track 3

Filename C:\Rips\Count Basie - America's #1 Band! The Columbia Years\CD 3\03 It's The Same Old South.wav

Pre-gap length 0:00:01.55

Peak level 100.0 %
Extraction speed 2.1 X
Track quality 100.0 %
Copy CRC 668FD2E3
Accurately ripped (confidence 6) [D259FBD6] (AR v2)
Copy OK

Track 4

Filename C:\Rips\Count Basie - America's #1 Band! The Columbia Years\CD 3\04 Jump The Blues Away.wav

Pre-gap length 0:00:01.55

Peak level 99.8 %
Extraction speed 2.2 X
Track quality 100.0 %
Copy CRC AEA9ED5C
Accurately ripped (confidence 6) [94328F27] (AR v2)
Copy OK

Track 5

Filename C:\Rips\Count Basie - America's #1 Band! The Columbia Years\CD 3\05 The Jitters.wav

Pre-gap length 0:00:01.55

Peak level 100.0 %
Extraction speed 1.9 X
Track quality 99.9 %
Copy CRC 367B9058
Accurately ripped (confidence 6) [094C9796] (AR v2)
Copy OK

Track 6

Filename C:\Rips\Count Basie - America's #1 Band! The Columbia Years\CD 3\06 9-20 Special.wav

Pre-gap length 0:00:01.55

Peak level 99.3 %
Extraction speed 2.4 X
Track quality 100.0 %
Copy CRC 729937BA
Accurately ripped (confidence 6) [EB5887A7] (AR v2)
Copy OK

Track 7

Filename C:\Rips\Count Basie - America's #1 Band! The Columbia Years\CD 3\07 Goin' To Chicago Blues.wav

Pre-gap length 0:00:01.57

Peak level 99.8 %
Extraction speed 2.5 X
Track quality 100.0 %
Copy CRC DBD89241
Accurately ripped (confidence 6) [1827D0C6] (AR v2)
Copy OK

Track 8

Filename C:\Rips\Count Basie - America's #1 Band! The Columbia Years\CD 3\08 Harvard Blues.wav

Pre-gap length 0:00:01.55

Peak level 100.0 %
Extraction speed 2.7 X
Track quality 100.0 %
Copy CRC EDEF0C14
Accurately ripped (confidence 6) [DF5C24D6] (AR v2)
Copy OK

Track 9

Filename C:\Rips\Count Basie - America's #1 Band! The Columbia Years\CD 3\09 One O'Clock Jump.wav

Pre-gap length 0:00:01.55

Peak level 100.0 %
Extraction speed 2.7 X
Track quality 100.0 %
Copy CRC E340CD44
Accurately ripped (confidence 6) [6419C82D] (AR v2)
Copy OK

Track 10

Filename C:\Rips\Count Basie - America's #1 Band! The Columbia Years\CD 3\10 It's Sand, Man.wav

Pre-gap length 0:00:01.55

Peak level 94.4 %
Extraction speed 2.8 X
Track quality 100.0 %
Copy CRC 274AA9B3
Accurately ripped (confidence 6) [9AB255AD] (AR v2)
Copy OK

Track 11

Filename C:\Rips\Count Basie - America's #1 Band! The Columbia Years\CD 3\11 Ain't It The Truth.wav

Pre-gap length 0:00:01.55

Peak level 100.0 %
Extraction speed 2.8 X
Track quality 100.0 %
Copy CRC 2D185E84
Accurately ripped (confidence 6) [F78C3381] (AR v2)
Copy OK

Track 12

Filename C:\Rips\Count Basie - America's #1 Band! The Columbia Years\CD 3\12 Taps Miller.wav

Pre-gap length 0:00:01.58

Peak level 99.8 %
Extraction speed 2.9 X
Track quality 100.0 %
Copy CRC DADC8563
Accurately ripped (confidence 6) [90A6E8F0] (AR v2)
Copy OK

Track 13

Filename C:\Rips\Count Basie - America's #1 Band! The Columbia Years\CD 3\13 Avenue C.wav

Pre-gap length 0:00:01.55

Peak level 99.1 %
Extraction speed 3.0 X
Track quality 100.0 %
Copy CRC C75291C9
Accurately ripped (confidence 6) [544C0903] (AR v2)
Copy OK

Track 14

Filename C:\Rips\Count Basie - America's #1 Band! The Columbia Years\CD 3\14 Blue Skies.wav

Pre-gap length 0:00:01.38

Peak level 100.0 %
Extraction speed 3.1 X
Track quality 100.0 %
Copy CRC E1FF3A9A
Accurately ripped (confidence 6) [35F2DB12] (AR v2)
Copy OK

Track 15

Filename C:\Rips\Count Basie - America's #1 Band! The Columbia Years\CD 3\15 Queer Street.wav

Pre-gap length 0:00:01.53

Peak level 99.8 %
Extraction speed 3.1 X
Track quality 100.0 %
Copy CRC 0C7F5718
Accurately ripped (confidence 6) [091F3249] (AR v2)
Copy OK

Track 16

Filename C:\Rips\Count Basie - America's #1 Band! The Columbia Years\CD 3\16 Lazy Lady Blues.wav

Pre-gap length 0:00:01.57

Peak level 98.3 %
Extraction speed 3.3 X
Track quality 100.0 %
Copy CRC 61B99AD5
Accurately ripped (confidence 6) [2C895824] (AR v2)
Copy OK

Track 17

Filename C:\Rips\Count Basie - America's #1 Band! The Columbia Years\CD 3\17 Rambo.wav

Pre-gap length 0:00:01.55

Peak level 99.8 %
Extraction speed 3.4 X
Track quality 100.0 %
Copy CRC 91860C5E
Accurately ripped (confidence 6) [84AD9BFF] (AR v2)
Copy OK

Track 18

Filename C:\Rips\Count Basie - America's #1 Band! The Columbia Years\CD 3\18 The King.wav

Pre-gap length 0:00:01.58

Peak level 97.4 %
Extraction speed 3.4 X
Track quality 100.0 %
Copy CRC E1FEE57C
Accurately ripped (confidence 6) [1ECEFC61] (AR v2)
Copy OK

Track 19

Filename C:\Rips\Count Basie - America's #1 Band! The Columbia Years\CD 3\19 Hob Nail Boogie.wav

Pre-gap length 0:00:01.38

Peak level 98.7 %
Extraction speed 2.7 X
Track quality 99.9 %
Copy CRC DA0DC74F
Accurately ripped (confidence 6) [579053D2] (AR v2)
Copy OK

Track 20

Filename C:\Rips\Count Basie - America's #1 Band! The Columbia Years\CD 3\20 Mutton Leg.wav

Pre-gap length 0:00:01.55

Peak level 98.3 %
Extraction speed 1.7 X
Track quality 99.6 %
Copy CRC DCD21632
Accurately ripped (confidence 6) [A761CF54] (AR v2)
Copy OK

Track 21

Filename C:\Rips\Count Basie - America's #1 Band! The Columbia Years\CD 3\21 Stay On It.wav

Pre-gap length 0:00:01.23

Peak level 98.1 %
Extraction speed 3.7 X
Track quality 100.0 %
Copy CRC F01FB5EF
Accurately ripped (confidence 6) [F6AEC7CA] (AR v2)
Copy OK

Track 22

Filename C:\Rips\Count Basie - America's #1 Band! The Columbia Years\CD 3\22 Little Pony.wav

Pre-gap length 0:00:01.65

Suspicious position 0:01:59

Peak level 87.4 %
Extraction speed 0.2 X
Track quality 98.5 %
Copy CRC 4B46CD0F
Accurately ripped (confidence 6) [926AB07F] (AR v2)
Copy finished

Track 23

Filename C:\Rips\Count Basie - America's #1 Band! The Columbia Years\CD 3\23 Beaver Junction.wav

Pre-gap length 0:00:01.53

Peak level 89.1 %
Extraction speed 1.1 X
Track quality 99.4 %
Copy CRC EEA0BDE0
Cannot be verified as accurate (confidence 11) [2B103EDF], AccurateRip returned [0A2CD7DF] (AR v2)
Copy OK


22 track(s) accurately ripped
1 track(s) could not be verified as accurate

Some tracks could not be verified as accurate

There were errors

End of status report

–– CUETools DB Plugin V2.1.3

[CTDB TOCID: trFh2Qq4MusGQsGASoIPWnjCssI-] found, Submit result: trFh2Qq4MusGQsGASoIPWnjCssI- has been submitted
[24ce8ba4] (6/6) Differs in 34 samples @68:28:63-68:28:64
You can use CUETools to repair this rip.


==== Log checksum 5164F29592BABABA140FC2FA59C98BFCB3DD06D2298DDE43121057013CED1EC3 ====

[CUETools log; Date: 20.09.2019 1:01:59; Version: 2.1.4]
[CTDB TOCID: trFh2Qq4MusGQsGASoIPWnjCssI-] found.
Track | CTDB Status
1 | (23/25) Accurately ripped
2 | (23/25) Accurately ripped
3 | (22/25) Accurately ripped
4 | (23/25) Accurately ripped
5 | (23/25) Accurately ripped
6 | (21/25) Accurately ripped
7 | (23/25) Accurately ripped
8 | (23/25) Accurately ripped
9 | (23/25) Accurately ripped
10 | (23/25) Accurately ripped
11 | (23/25) Accurately ripped
12 | (23/25) Accurately ripped
13 | (23/25) Accurately ripped
14 | (23/25) Accurately ripped
15 | (23/25) Accurately ripped
16 | (23/25) Accurately ripped
17 | (23/25) Accurately ripped
18 | (23/25) Accurately ripped
19 | (23/25) Accurately ripped
20 | (23/25) Accurately ripped
21 | (23/25) Accurately ripped
22 | (23/25) Accurately ripped
23 | ( 1/25) Accurately ripped, or (19/25) differs in 34 samples @00:17:63-00:17:64
[AccurateRip ID: 003b19c8-03d8b25a-5810ac17] found.
Track [ CRC | V2 ] Status
01 [2495e232|7f6dfe82] (10+10/30) Accurately ripped
02 [9de9b38a|b42554f5] (11+10/32) Accurately ripped
03 [84449a0e|d259fbd6] (11+10/31) Accurately ripped
04 [71f66a20|94328f27] (11+10/32) Accurately ripped
05 [42da7b5a|094c9796] (11+10/31) Accurately ripped
06 [0902d39e|eb5887a7] (11+10/32) Accurately ripped
07 [9a387cb3|1827d0c6] (11+10/31) Accurately ripped
08 [2f39f2eb|df5c24d6] (11+10/32) Accurately ripped
09 [8c6840bb|6419c82d] (11+10/32) Accurately ripped
10 [8c106812|9ab255ad] (11+10/32) Accurately ripped
11 [571c007f|f78c3381] (11+10/31) Accurately ripped
12 [dedb71bb|90a6e8f0] (11+10/31) Accurately ripped
13 [fe1027e0|544c0903] (11+10/31) Accurately ripped
14 [56a22bf4|35f2db12] (11+10/31) Accurately ripped
15 [c6d01a13|091f3249] (11+10/31) Accurately ripped
16 [66bd11c0|2c895824] (11+10/32) Accurately ripped
17 [09a4e6ca|84ad9bff] (11+10/31) Accurately ripped
18 [19178eb7|1ecefc61] (11+10/31) Accurately ripped
19 [d3caf956|579053d2] (11+10/32) Accurately ripped
20 [05efe8b1|a761cf54] (11+10/32) Accurately ripped
21 [4126c0fd|f6aec7ca] (11+10/31) Accurately ripped
22 [04cb696e|926ab07f] (11+10/32) Accurately ripped
23 [201b336c|2b103edf] (00+00/31) No match
Offsetted by -273:
01 [738fc107] (00/30) No match (V2 was not tested)
02 [3c19a737] (00/32) No match (V2 was not tested)
03 [41eb67ee] (00/31) No match (V2 was not tested)
04 [2e88b5b7] (00/32) No match (V2 was not tested)
05 [a2468249] (00/31) No match (V2 was not tested)
06 [f652c648] (00/32) No match (V2 was not tested)
07 [d4f6173f] (00/31) No match (V2 was not tested)
08 [cee69a37] (00/32) No match (V2 was not tested)
09 [f4e4bc66] (00/32) No match (V2 was not tested)
10 [a9d8dc23] (00/32) No match (V2 was not tested)
11 [82c9e519] (00/31) No match (V2 was not tested)
12 [75263772] (00/31) No match (V2 was not tested)
13 [24054b20] (00/31) No match (V2 was not tested)
14 [a40cdfe2] (00/31) No match (V2 was not tested)
15 [363b6d5b] (00/31) No match (V2 was not tested)
16 [d08bfede] (00/32) No match (V2 was not tested)
17 [e818169d] (00/31) No match (V2 was not tested)
18 [ab85e64a] (00/31) No match (V2 was not tested)
19 [a43bbfc3] (00/32) No match (V2 was not tested)
20 [968930e7] (00/32) No match (V2 was not tested)
21 [330e8777] (00/31) No match (V2 was not tested)
22 [46c87a38] (00/32) No match (V2 was not tested)
23 [7617c1df] (00/31) No match (V2 was not tested)

Track Peak [ CRC32 ] [W/O NULL] [ LOG ]
– 100,0 [0B960D3C] [645EBD2A]
01 97,0 [CC3DBADA] [FB26F74C] CRC32
02 98,4 [1238C000] [CE1E5F30] CRC32
03 100,0 [668FD2E3] [5B51CE77] CRC32
04 99,8 [AEA9ED5C] [462009E6] CRC32
05 100,0 [367B9058] [D97275C7] CRC32
06 99,3 [729937BA] [D6D07B31] CRC32
07 99,8 [DBD89241] [0930AD3B] CRC32
08 100,0 [EDEF0C14] [CCB94992] CRC32
09 100,0 [E340CD44] [483F0E82] CRC32
10 94,4 [274AA9B3] [66F9C282] CRC32
11 100,0 [2D185E84] [DED8B66D] CRC32
12 99,8 [DADC8563] [7C046296] CRC32
13 99,1 [C75291C9] [6975F906] CRC32
14 100,0 [E1FF3A9A] [F4605BAD] CRC32
15 99,8 [0C7F5718] [362F7ED7] CRC32
16 98,2 [61B99AD5] [7ACEA76B] CRC32
17 99,8 [91860C5E] [1619ECD3] CRC32
18 97,4 [E1FEE57C] [F5152663] CRC32
19 98,7 [DA0DC74F] [F3BFD7DA] CRC32
20 98,3 [DCD21632] [F2EF1507] CRC32
21 98,1 [F01FB5EF] [B78AD190] CRC32
22 87,4 [4B46CD0F] [B2EEBD02] CRC32
23 89,1 [EEA0BDE0] [50DC6A98] CRC32

Exact Audio Copy V1.0 beta 3 from 29. August 2011

EAC extraction logfile from 17. February 2014, 15:20

Count Basie & His Orchestra / America's #1 Band! The Columbia Years

Used drive : HL-DT-STDVD+-RW GH82N Adapter: 0 ID: 1

Read mode : Secure
Utilize accurate stream : Yes
Defeat audio cache : Yes
Make use of C2 pointers : No

Read offset correction : 667
Overread into Lead-In and Lead-Out : No
Fill up missing offset samples with silence : Yes
Delete leading and trailing silent blocks : No
Null samples used in CRC calculations : Yes
Used interface : Native Win32 interface for Win NT & 2000
Gap handling : Appended to previous track

Used output format : User Defined Encoder
Selected bitrate : 1024 kBit/s
Quality : High
Add ID3 tag : No
Command line compressor : C:\Program Files (x86)\Exact Audio Copy\Flac\flac.exe
Additional command line options : -8 -V -T "ARTIST=%artist%" -T "TITLE=%title%" -T "ALBUM=%albumtitle%" -T "DATE=%year%" -T "TRACKNUMBER=%tracknr%" -T "GENRE=%genre%" -T "COMMENT=%comment%" -T "BAND=%albuminterpret%" -T "ALBUMARTIST=%albuminterpret%" -T "COMPOSER=%composer%" %haslyrics%–tag-from-file=LYRICS="%lyricsfile%"%haslyrics% -T "DISCNUMBER=%cdnumber%" -T "TOTALDISCS=%totalcds%" -T "TOTALTRACKS=%numtracks%" %hascover%–picture="%coverfile%"%hascover% %source% -o %dest%


TOC of the extracted CD

Track | Start | Length | Start sector | End sector
––––––––––––––––––––––––––––-
1 | 0:00.00 | 1:19.52 | 0 | 5976
2 | 1:19.52 | 4:26.25 | 5977 | 25951
3 | 5:46.02 | 3:42.43 | 25952 | 42644
4 | 9:28.45 | 3:10.07 | 42645 | 56901
5 | 12:38.52 | 3:05.63 | 56902 | 70839
6 | 15:44.40 | 3:17.45 | 70840 | 85659
7 | 19:02.10 | 2:13.67 | 85660 | 95701
8 | 21:16.02 | 2:12.00 | 95702 | 105601
9 | 23:28.02 | 3:35.43 | 105602 | 121769
10 | 27:03.45 | 3:08.25 | 121770 | 135894
11 | 30:11.70 | 3:24.12 | 135895 | 151206
12 | 33:36.07 | 1:50.38 | 151207 | 159494
13 | 35:26.45 | 2:47.37 | 159495 | 172056
14 | 38:14.07 | 4:23.13 | 172057 | 191794
15 | 42:37.20 | 3:11.50 | 191795 | 206169
16 | 45:48.70 | 3:56.07 | 206170 | 223876
17 | 49:45.02 | 3:40.03 | 223877 | 240379
18 | 53:25.05 | 3:46.42 | 240380 | 257371
19 | 57:11.47 | 5:23.00 | 257372 | 281596
20 | 62:34.47 | 3:25.73 | 281597 | 297044
21 | 66:00.45 | 2:58.17 | 297045 | 310411
22 | 68:58.62 | 4:20.63 | 310412 | 329974


Track 1

Filename C:\Rips\Count Basie - America's #1 Band! The Columbia Years\CD 4\01 One O'Clock Jump.wav

Pre-gap length 0:00:02.00

Peak level 99.8 %
Extraction speed 1.0 X
Track quality 99.8 %
Copy CRC 19016A6E
Accurately ripped (confidence 9) [7306FA18] (AR v2)
Copy OK

Track 2

Filename C:\Rips\Count Basie - America's #1 Band! The Columbia Years\CD 4\02 Swingin' The Blues.wav

Peak level 99.8 %
Extraction speed 2.0 X
Track quality 100.0 %
Copy CRC C0C221A5
Accurately ripped (confidence 9) [E32E5A73] (AR v2)
Copy OK

Track 3

Filename C:\Rips\Count Basie - America's #1 Band! The Columbia Years\CD 4\03 Rock-A-Bye Basie.wav

Peak level 97.7 %
Extraction speed 2.1 X
Track quality 100.0 %
Copy CRC 3E9936E2
Accurately ripped (confidence 9) [BE3FC389] (AR v2)
Copy OK

Track 4

Filename C:\Rips\Count Basie - America's #1 Band! The Columbia Years\CD 4\04 Don't Worry 'Bout Me.wav

Peak level 99.8 %
Extraction speed 2.1 X
Track quality 100.0 %
Copy CRC 67BA6F3F
Accurately ripped (confidence 9) [47523FEE] (AR v2)
Copy OK

Track 5

Filename C:\Rips\Count Basie - America's #1 Band! The Columbia Years\CD 4\05 Time Out.wav

Peak level 99.4 %
Extraction speed 2.3 X
Track quality 100.0 %
Copy CRC F9097716
Accurately ripped (confidence 9) [34EF990B] (AR v2)
Copy OK

Track 6

Filename C:\Rips\Count Basie - America's #1 Band! The Columbia Years\CD 4\06 Boogie Woogie Blues.wav

Peak level 99.8 %
Extraction speed 2.5 X
Track quality 100.0 %
Copy CRC C8ABFDC4
Accurately ripped (confidence 9) [920209F2] (AR v2)
Copy OK

Track 7

Filename C:\Rips\Count Basie - America's #1 Band! The Columbia Years\CD 4\07 Roseland Shuffle.wav

Peak level 99.8 %
Extraction speed 2.3 X
Track quality 100.0 %
Copy CRC 9A330DE8
Accurately ripped (confidence 9) [520D3993] (AR v2)
Copy OK

Track 8

Filename C:\Rips\Count Basie - America's #1 Band! The Columbia Years\CD 4\08 White Sails.wav

Peak level 99.8 %
Extraction speed 2.3 X
Track quality 100.0 %
Copy CRC 532B5298
Accurately ripped (confidence 9) [BAA54684] (AR v2)
Copy OK

Track 9

Filename C:\Rips\Count Basie - America's #1 Band! The Columbia Years\CD 4\09 Clap Hands! Here Comes Charlie.wav

Peak level 99.4 %
Extraction speed 2.7 X
Track quality 100.0 %
Copy CRC F3F3F1E1
Accurately ripped (confidence 9) [E24B4617] (AR v2)
Copy OK

Track 10

Filename C:\Rips\Count Basie - America's #1 Band! The Columbia Years\CD 4\10 One O'Clock Jump.wav

Peak level 98.6 %
Extraction speed 2.8 X
Track quality 100.0 %
Copy CRC 9A0B5298
Accurately ripped (confidence 9) [EDA291EB] (AR v2)
Copy OK

Track 11

Filename C:\Rips\Count Basie - America's #1 Band! The Columbia Years\CD 4\11 They Can't Take That Away From Me.wav

Pre-gap length 0:00:02.30

Peak level 100.0 %
Extraction speed 2.5 X
Track quality 99.9 %
Copy CRC F6E3B100
Accurately ripped (confidence 9) [CA29AC55] (AR v2)
Copy OK

Track 12

Filename C:\Rips\Count Basie - America's #1 Band! The Columbia Years\CD 4\12 Swing, Brother, Swing.wav

Peak level 88.7 %
Extraction speed 2.5 X
Track quality 100.0 %
Copy CRC 93C387C5
Accurately ripped (confidence 9) [4C258EC0] (AR v2)
Copy OK

Track 13

Filename C:\Rips\Count Basie - America's #1 Band! The Columbia Years\CD 4\13 I Can't Get Started.wav

Peak level 83.8 %
Extraction speed 2.8 X
Track quality 100.0 %
Copy CRC 9F818FA0
Accurately ripped (confidence 9) [8F6E0408] (AR v2)
Copy OK

Track 14

Filename C:\Rips\Count Basie - America's #1 Band! The Columbia Years\CD 4\14 Moten Swing.wav

Pre-gap length 0:00:02.20

Peak level 98.3 %
Extraction speed 3.2 X
Track quality 100.0 %
Copy CRC 3ADA2834
Accurately ripped (confidence 9) [70F7FD9E] (AR v2)
Copy OK

Track 15

Filename C:\Rips\Count Basie - America's #1 Band! The Columbia Years\CD 4\15 Ebony Rhapsody.wav

Pre-gap length 0:00:02.38

Peak level 100.0 %
Extraction speed 3.2 X
Track quality 100.0 %
Copy CRC 3DF6EE24
Accurately ripped (confidence 9) [227CC0BF] (AR v2)
Copy OK

Track 16

Filename C:\Rips\Count Basie - America's #1 Band! The Columbia Years\CD 4\16 Darn That Dream.wav

Pre-gap length 0:00:01.70

Peak level 87.5 %
Extraction speed 3.4 X
Track quality 100.0 %
Copy CRC 16F968CC
Accurately ripped (confidence 9) [21C7A157] (AR v2)
Copy OK

Track 17

Filename C:\Rips\Count Basie - America's #1 Band! The Columbia Years\CD 4\17 Take It, Pres.wav

Pre-gap length 0:00:02.55

Peak level 100.0 %
Extraction speed 3.3 X
Track quality 100.0 %
Copy CRC 12D6BE7F
Accurately ripped (confidence 9) [59C6609F] (AR v2)
Copy OK

Track 18

Filename C:\Rips\Count Basie - America's #1 Band! The Columbia Years\CD 4\18 Baby, Don't Tell on Me.wav

Pre-gap length 0:00:01.58

Peak level 100.0 %
Extraction speed 3.5 X
Track quality 100.0 %
Copy CRC 250056F2
Accurately ripped (confidence 9) [A425F515] (AR v2)
Copy OK

Track 19

Filename C:\Rips\Count Basie - America's #1 Band! The Columbia Years\CD 4\19 I Got Rhythm.wav

Pre-gap length 0:00:01.60

Peak level 100.0 %
Extraction speed 3.4 X
Track quality 99.9 %
Copy CRC 5106C607
Accurately ripped (confidence 9) [F98340FB] (AR v2)
Copy OK

Track 20

Filename C:\Rips\Count Basie - America's #1 Band! The Columbia Years\CD 4\20 9-20 Special.wav

Pre-gap length 0:00:01.00

Peak level 92.6 %
Extraction speed 3.7 X
Track quality 100.0 %
Copy CRC E1641B85
Accurately ripped (confidence 9) [F833936E] (AR v2)
Copy OK

Track 21

Filename C:\Rips\Count Basie - America's #1 Band! The Columbia Years\CD 4\21 Elmer's Tune.wav

Pre-gap length 0:00:01.45

Peak level 99.0 %
Extraction speed 3.6 X
Track quality 100.0 %
Copy CRC F92B74E4
Accurately ripped (confidence 9) [8606B13B] (AR v2)
Copy OK

Track 22

Filename C:\Rips\Count Basie - America's #1 Band! The Columbia Years\CD 4\22 Jumpin' At The Woodside.wav

Pre-gap length 0:00:01.10

Peak level 93.7 %
Extraction speed 4.0 X
Track quality 100.0 %
Copy CRC 97187739
Accurately ripped (confidence 9) [0F941CA2] (AR v2)
Copy OK


All tracks accurately ripped

No errors occurred

End of status report

–– CUETools DB Plugin V2.1.3

[CTDB TOCID: U1C3G5qx8w8kymB4npFIH8Q.8po-] found, Submit result: already submitted
[6b7d2843] (7/7) Accurately ripped


==== Log checksum D941FB40640818577FC5BA20C7514778D9FF7D126A7A6C835F1D3ABFADB6EA8A ====

[CUETools log; Date: 20.09.2019 1:02:32; Version: 2.1.4]
[CTDB TOCID: U1C3G5qx8w8kymB4npFIH8Q.8po-] found.
Track | CTDB Status
1 | (22/24) Accurately ripped
2 | (22/24) Accurately ripped
3 | (22/24) Accurately ripped
4 | (24/24) Accurately ripped
5 | (23/24) Accurately ripped
6 | (24/24) Accurately ripped
7 | (24/24) Accurately ripped
8 | (24/24) Accurately ripped
9 | (24/24) Accurately ripped
10 | (22/24) Accurately ripped
11 | (22/24) Accurately ripped
12 | (23/24) Accurately ripped
13 | (23/24) Accurately ripped
14 | (23/24) Accurately ripped
15 | (23/24) Accurately ripped
16 | (24/24) Accurately ripped
17 | (23/24) Accurately ripped
18 | (22/24) Accurately ripped
19 | (22/24) Accurately ripped
20 | (22/24) Accurately ripped
21 | (22/24) Accurately ripped
22 | (22/24) Accurately ripped
[AccurateRip ID: 003672c7-0371adbd-37112f16] found.
Track [ CRC | V2 ] Status
01 [e170f27f|7306fa18] (14+13/29) Accurately ripped
02 [d858c80c|e32e5a73] (14+13/29) Accurately ripped
03 [0389d84b|be3fc389] (14+13/29) Accurately ripped
04 [86252249|47523fee] (14+13/31) Accurately ripped
05 [d8c5b209|34ef990b] (14+13/29) Accurately ripped
06 [14b618a6|920209f2] (14+13/31) Accurately ripped
07 [2886ba7d|520d3993] (14+13/31) Accurately ripped
08 [96c5c26a|baa54684] (14+13/31) Accurately ripped
09 [e127b8e7|e24b4617] (14+13/31) Accurately ripped
10 [03d2dd3d|eda291eb] (14+13/29) Accurately ripped
11 [70acd99d|ca29ac55] (14+13/29) Accurately ripped
12 [60f91b83|4c258ec0] (14+13/31) Accurately ripped
13 [5b364222|8f6e0408] (14+13/29) Accurately ripped
14 [01661814|70f7fd9e] (14+13/31) Accurately ripped
15 [83fee919|227cc0bf] (14+13/31) Accurately ripped
16 [7fa1d4fd|21c7a157] (14+13/31) Accurately ripped
17 [8e388b43|59c6609f] (14+13/31) Accurately ripped
18 [2353d496|a425f515] (14+13/29) Accurately ripped
19 [d8b0369f|f98340fb] (14+13/29) Accurately ripped
20 [2ea02557|f833936e] (14+13/29) Accurately ripped
21 [a1af490c|8606b13b] (14+13/29) Accurately ripped
22 [16c34912|0f941ca2] (14+13/29) Accurately ripped
Offsetted by 682:
01 [0546a456] (00/29) No match (V2 was not tested)
02 [defcc79e] (00/29) No match (V2 was not tested)
03 [527cb0e9] (00/29) No match (V2 was not tested)
04 [8fbb5b28] (02/31) Accurately ripped
05 [d6fe772d] (00/29) No match (V2 was not tested)
06 [22e8ba48] (02/31) Accurately ripped
07 [b38ef935] (02/31) Accurately ripped
08 [d8f31a76] (02/31) Accurately ripped
09 [539e0c1c] (02/31) Accurately ripped
10 [17cf6214] (00/29) No match (V2 was not tested)
11 [3730b939] (00/29) No match (V2 was not tested)
12 [208e9cf3] (02/31) Accurately ripped
13 [9c8b9dca] (00/29) No match (V2 was not tested)
14 [a62dd244] (02/31) Accurately ripped
15 [0be11013] (02/31) Accurately ripped
16 [0afcef93] (02/31) Accurately ripped
17 [8972040d] (02/31) Accurately ripped
18 [bd3fa7ee] (00/29) No match (V2 was not tested)
19 [2421688b] (00/29) No match (V2 was not tested)
20 [3964e673] (00/29) No match (V2 was not tested)
21 [dae49cfc] (00/29) No match (V2 was not tested)
22 [ffbee820] (00/29) No match (V2 was not tested)

Track Peak [ CRC32 ] [W/O NULL] [ LOG ]
– 100,0 [478266EC] [CA7556F1]
01 99,8 [19016A6E] [3079B311] CRC32
02 99,8 [C0C221A5] [4E32BBBF] CRC32
03 97,7 [3E9936E2] [CCB2FDE4] CRC32
04 99,8 [67BA6F3F] [BD697533] CRC32
05 99,4 [F9097716] [C528F5CE] CRC32
06 99,8 [C8ABFDC4] [AAB9369E] CRC32
07 99,8 [9A330DE8] [4350D2D5] CRC32
08 99,8 [532B5298] [E86E83EA] CRC32
09 99,4 [F3F3F1E1] [CECEC533] CRC32
10 98,6 [9A0B5298] [77685D3F] CRC32
11 100,0 [F6E3B100] [47FCD60D] CRC32
12 88,7 [93C387C5] [A74698A3] CRC32
13 83,8 [9F818FA0] [90DB0FCD] CRC32
14 98,3 [3ADA2834] [4882DDE5] CRC32
15 100,0 [3DF6EE24] [812C9F94] CRC32
16 87,5 [16F968CC] [9F623286] CRC32
17 100,0 [12D6BE7F] [B16FACA7] CRC32
18 100,0 [250056F2] [05ECBDDE] CRC32
19 100,0 [5106C607] [06114A8F] CRC32
20 92,6 [E1641B85] [9B580262] CRC32
21 99,0 [F92B74E4] [F32EBD54] CRC32
22 93,7 [97187739] [75E851C9] CRC32

Thanks to hoppyharrington

See also:

Count Basie - Count Basie At Newport (1957) [Reissue 2007]
Count Basie - The Complete Atomic Basie (1958) [Reissue 1994]
Count Basie - Chairman Of The Board (1959) [Reissue 2003]
Joe Williams & Count Basie - Memories Ad-Lib (1959)
Count Basie & His Orchestr...n' Again (1962) [Reissue 2009]
Count Basie - Count Basie And The Kansas City 7 (1962) [Reissue 1996]
Frank Sinatra & Count Basi... Historic Musical First (1962)
Count Basie - Li'l Ol' Groovemaker… Basie! (1963)
Count Basie - This Time by Bas...mp; 60's (1963) [Reissue 2012]
Count Basie - Basie Land (1964) [Reissue 2009]
Ella Fitzgerald & Count Ba...unny Side Of The Street (1963)
Sammy Davis & Count Basie - Our Shining Hour (1965)
Count Basie & His Orchestr...atle Bag (1966) [Reissue 1998]
Count Basie And His Orchestra - Basic Basie (1969)
Count Basie & Joe Turner - The Bosses (1974) [Reissue 1994]
Count Basie - Basie Big Band (1975)
Count Basie - Kansas City 5 (1977) [Reissue 1996]
Count Basie - Count Basie Jam (Montreux '77) (1977) [Reissue 1989]
Count Basie and Dizzy Gillespi...ted Ones (1977) [Reissue 1996]
Oscar Peterson & Count Bas...0;.Again (1978) [Reissue 2006]
Ella Fitzgerald & Count Basie - A Perfect Match (1979)
Ella Fitzgerald & Count Basie - A Classy Pair (1979)
Count Basie - Kansas City 7 (1980) [Reissue 1992]
Count Basie and Orchestra - On The Road (1980)
Sarah Vaughan and The Count Ba...e Clowns (1981) [Reissue 2006]
The Count Basie Kansas City Se...s…and Some Others (1986)
Count Basie & His Orchestr... Europe [Recorded 1977] (1989)
Count Basie And His Orchestra ...: Live in '38 & '39 (1991)
Count Basie - The Complete Dec...1937-1939, 3CD Box Set] (1992)
Count Basie - RCA Years In Com...1947-1950] (3CD Box Set, 1994)
Count Basie - Palais de Chaillot - Mar. 29th, 1960 (2002)
Count Basie - Jazz Moods - Hot [Recorded 1936-1964] (2004)
Count Basie - Classic Jazz Archive [Recorded 1937-1947] (2004)
Count Basie And His Orchestra - 1952-1953 (2005)
Count Basie - On The Sunny Sid...et [Recorded 1969-1970] (2006)
Count Basie And His Orchestra - 1953-1954 (2007)
Count Basie and his Orchestra - Four Classic Albums (2008)