Tags
Language
Tags
July 2024
Su Mo Tu We Th Fr Sa
30 1 2 3 4 5 6
7 8 9 10 11 12 13
14 15 16 17 18 19 20
21 22 23 24 25 26 27
28 29 30 31 1 2 3

Chris Neal - Winds Of Isis (1974) [Reissue 2020]

Posted By: gribovar
Chris Neal - Winds Of Isis (1974) [Reissue 2020]

Chris Neal - Winds Of Isis (1974) [Reissue 2020]
EAC Rip | FLAC (image+.cue+log) - 217 MB | MP3 CBR 320 kbps (LAME 3.93) - 99 MB | Covers - 34 MB
Genre: Instrumental Progressive Rock | RAR 3% Rec. | Label: Paisley Press (PP 152)

Chris Neal is an Australian composer and multi instrumentalist who has done most of his tune smithing far from the world of progressive rock. His focus has been on soundtracks for movies and television for much of his 40 plus years in the music business. What brings Chris Neal to the attention of the progressive rock community is the album "Winds Of Isis", an Australian rarity from 1974. In this work Neal offers up large doses of Mellotron vibes, plus gives us passages where he could be mistaken for Mike Oldfield or David Greenslade or Keith Emerson in the given moment as he takes on playing duties for almost all the instruments used. "Winds Of Isis" is largely a keyboard-driven work, though Neal proves he is a bona fide guitarist and drummer as well as someone prepared to put almost anything through the Mu-tron synthesiser.

Tracklist:
01. Prelude
02. Into The Valley Of The Ancients - A Glimpse Of Isis
03. Full Moon Lightning - The Acid Taste
04. Ritual Eternal - Initiation Of The Searcher
05. The Legend
I. From The Castle The Winds Arose…
II. Through The Corridors Of Time, Including The March Of The Undead - Temptation To Turn Back
III. Carnival Of The People - A Brief Respite
IV. Nightmare - Isis Unveiled
V. Dance Of The Astral Shadows - Beyond The Point Of No Return
VI. Flight From The Unknown
VII. Ashes To Ashes

Total time: 42:16

Exact Audio Copy V1.3 from 2. September 2016

Отчёт EAC об извлечении, выполненном 30. декабря 2020, 18:41

Chris Neal / Wind Of Isis

Дисковод: ATAPI iHAS122 F Adapter: 1 ID: 0

Режим чтения : Достоверность
Использование точного потока : Да
Отключение кэша аудио : Да
Использование указателей C2 : Нет

Коррекция смещения при чтении : 6
Способность читать области Lead-in и Lead-out : Нет
Заполнение пропущенных сэмплов тишиной : Да
Удаление блоков с тишиной в начале и конце : Нет
При вычислениях CRC использовались нулевые сэмплы : Да
Интерфейс : Встроенный Win32-интерфейс для Win NT/2000

Выходной формат : Пользовательский кодировщик
Выбранный битрейт : 1024 kBit/s
Качество : Высокий
Добавление ID3-тега : Нет
Утилита сжатия : C:\Program Files (x86)\Exact Audio Copy\Flac\flac.exe
Дополнительные параметры : -V -8 -T "Date=%year%" -T "Genre=%genre%" %source%


TOC извлечённого CD

Трек | Старт | Длительность | Начальный сектор | Конечный сектор
––––––––––––––––––––––––––––––––––-
1 | 0:00.00 | 3:13.60 | 0 | 14534
2 | 3:13.60 | 6:39.51 | 14535 | 44510
3 | 9:53.36 | 3:52.26 | 44511 | 61936
4 | 13:45.62 | 8:32.01 | 61937 | 100337
5 | 22:17.63 | 19:58.19 | 100338 | 190206


Характеристики диапазона извлечения и сообщения об ошибках

Выбранный диапазон

Имя файла E:\Torrents\Chris Neal - 1974 - Winds Of Isis\Chris Neal - Wind Of Isis.wav

Пиковый уровень 100.0 %
Скорость извлечения 8.1 X
Качество диапазона 100.0 %
CRC теста 2F47C3A4
CRC копии 2F47C3A4
Копирование… OK

Ошибок не произошло


AccurateRip: сводка

Трек 1 отсутствует в базе данных
Трек 2 отсутствует в базе данных
Трек 3 отсутствует в базе данных
Трек 4 отсутствует в базе данных
Трек 5 отсутствует в базе данных

Ни одного трека нет в базе AccurateRip

Конец отчёта

==== Контрольная сумма отчёта 3902956474B6B902B5330D0F5FD988D0C80947A7A171BE548E22EBE513C3A439 ====

[CUETools log; Date: 10.07.2024 17:24:37; Version: 2.1.4]
[CTDB TOCID: 04OHNUhqXv0pHr.SzIBGmqYj4rs-] found.
Track | CTDB Status
1 | (1/1) Accurately ripped
2 | (1/1) Accurately ripped
3 | (1/1) Accurately ripped
4 | (1/1) Accurately ripped
5 | (1/1) Accurately ripped
[AccurateRip ID: 00064788-001f54a4-4509e805] found.
Track [ CRC | V2 ] Status
01 [bb95619f|ceef19bd] (0+1/1) Accurately ripped
02 [8f172057|44d0c4ef] (0+1/1) Accurately ripped
03 [c2342b98|68a6ffe7] (0+1/1) Accurately ripped
04 [c4d0fbd7|05c6b083] (0+1/1) Accurately ripped
05 [b3640a20|3360d552] (0+1/1) Accurately ripped

Track Peak [ CRC32 ] [W/O NULL] [ LOG ]
– 100,0 [2F47C3A4] [9D73A202] CRC32
01 100,0 [749F9D29] [D61F0120]
02 91,6 [0B11C289] [D46F09D3]
03 100,0 [FE36E389] [E67B7A3A]
04 100,0 [517EF661] [B0E795E3]
05 100,0 [BF03A589] [8C765292]

Thanks to Condrаt