Subcategories
Tags
Language
Tags

Alexander O'Neal - Hearsay (1987) [2CDs] {Tabu}

Posted By: tiburon
Alexander O'Neal - Hearsay (1987) [2CDs] {Tabu}

Alexander O'Neal - Hearsay (1987) [2CDs] {Tabu}
EAC 1.0b2 | FLAC tracks level 8 | Cue+Log+M3U | Full Scans 300dpi | 640MB + 5% Recovery
MP3 CBR 320 Kbps | 213MB + 5% Recovery
Genre: Funk, Soul

Alexander O'Neal almost achieved the breakout he needed for crossover success with his second album. It cracked the Top 30 on the pop album chart, earned a gold record, and included O'Neal's two strongest uptempo tunes, "Fake" and "Criticize." Jam and Lewis linked the material with "party" dialogue and patter, providing their finest and tightest production for any O'Neal record. The beats were catchy, the songs hook-laden, and O'Neal's voice alternately explosive, sensitive and bemused. This 2 CD set, packaged in a sumptuous casebound book, contains the lyrics and newly-authored liner notes by A. Scott Galloway, and features additional remixes and alternate versions of the singles.
Track List

CD1
01. Intro 0:36
02. (What can I say) To make you love me 4:28
03. Intro 0:54
04. Hearsay 4:01
05. Intro 0:13
06. The Lovers 4:39
07. Intro 0:43
08. Fake 3:57
09. Intro 0:36
10. Critisize 4:08
11. Intro 0:28
12. Never knew Love like this 5:10
13. Interlude 0:16
14. Sunshine 5:38
15. Interlude 0:21
16. Crying Overtime 5:14
17. Intro 0:24
18. When the Party's over 3:32

CD2 (Bonus Tracks)
01. Criticize [single edit] 4:03
02. Criticize [Critical Mix] 5:36
03. Criticize [Critical Dub] 4:36
04. Criticize [Critical Edit] 3:54
05. Criticize [Nag Mix] 1:37
06. Fake [edit] 3:10
07. Fake [Patty Mix] 3:16
08. Fake [instrumental] 4:43
09. Never Knew Love Like This [edit] 3:32
10. Sunshine [edit] 4:04
11. Hearsay ‘89 3:42
12. The Lovers [Bonus Beats] 5:02

Produced by Jimmy Jam and Terry Lewis


Exact Audio Copy V1.0 beta 2 from 29. April 2011

EAC extraction logfile from 18. May 2013, 12:54

Alexander O'Neal / Hearsay (Deluxe Edition) CD1

Used drive : Optiarc DVD RW AD-7260S Adapter: 3 ID: 0

Read mode : Secure
Utilize accurate stream : Yes
Defeat audio cache : Yes
Make use of C2 pointers : No

Read offset correction : 48
Overread into Lead-In and Lead-Out : No
Fill up missing offset samples with silence : Yes
Delete leading and trailing silent blocks : No
Null samples used in CRC calculations : Yes
Used interface : Native Win32 interface for Win NT & 2000
Gap handling : Appended to previous track

Used output format : User Defined Encoder
Selected bitrate : 768 kBit/s
Quality : High
Add ID3 tag : No
Command line compressor : D:\Program Files\Exact Audio Copy1.0\FLAC\FLAC.EXE
Additional command line options : -8 -V -T "ARTIST=%artist%" -T "TITLE=%title%" -T "ALBUM=%albumtitle%" -T "DATE=%year%" -T "TRACKNUMBER=%tracknr%" -T "GENRE=%genre%" -T "PERFORMER=%albuminterpret%" -T "COMPOSER=%composer%" %haslyrics%–tag-from-file=LYRICS


TOC of the extracted CD

Track | Start | Length | Start sector | End sector
––––––––––––––––––––––––––––-
1 | 0:00.00 | 0:35.73 | 0 | 2697
2 | 0:35.73 | 4:28.07 | 2698 | 22804
3 | 5:04.05 | 0:54.15 | 22805 | 26869
4 | 5:58.20 | 4:01.12 | 26870 | 44956
5 | 9:59.32 | 0:13.20 | 44957 | 45951
6 | 10:12.52 | 4:39.11 | 45952 | 66887
7 | 14:51.63 | 0:43.29 | 66888 | 70141
8 | 15:35.17 | 3:56.52 | 70142 | 87893
9 | 19:31.69 | 0:36.16 | 87894 | 90609
10 | 20:08.10 | 4:08.03 | 90610 | 109212
11 | 24:16.13 | 0:28.11 | 109213 | 111323
12 | 24:44.24 | 5:09.48 | 111324 | 134546
13 | 29:53.72 | 0:16.24 | 134547 | 135770
14 | 30:10.21 | 5:38.01 | 135771 | 161121
15 | 35:48.22 | 0:21.21 | 161122 | 162717
16 | 36:09.43 | 5:13.61 | 162718 | 186253
17 | 41:23.29 | 0:23.58 | 186254 | 188036
18 | 41:47.12 | 3:32.18 | 188037 | 203954


Track 1

Filename E:\EAC\Alexander O'Neal - Hearsay - 2CD - 1987 (2013 Deluxe Edition) - FLAC\Disc One\01 - Intro.wav

Pre-gap length 0:00:02.00

Peak level 42.1 %
Extraction speed 1.3 X
Track quality 100.0 %
Test CRC 4182D9D9
Copy CRC 4182D9D9
Track not present in AccurateRip database
Copy OK

Track 2

Filename E:\EAC\Alexander O'Neal - Hearsay - 2CD - 1987 (2013 Deluxe Edition) - FLAC\Disc One\02 - (What can I say) To make you love me.wav

Peak level 89.1 %
Extraction speed 2.5 X
Track quality 100.0 %
Test CRC 43F256C5
Copy CRC 43F256C5
Track not present in AccurateRip database
Copy OK

Track 3

Filename E:\EAC\Alexander O'Neal - Hearsay - 2CD - 1987 (2013 Deluxe Edition) - FLAC\Disc One\03 - Intro.wav

Peak level 41.5 %
Extraction speed 1.8 X
Track quality 100.0 %
Test CRC BA7655FB
Copy CRC BA7655FB
Track not present in AccurateRip database
Copy OK

Track 4

Filename E:\EAC\Alexander O'Neal - Hearsay - 2CD - 1987 (2013 Deluxe Edition) - FLAC\Disc One\04 - Hearsay.wav

Peak level 89.1 %
Extraction speed 2.8 X
Track quality 100.0 %
Test CRC 9E9BDD03
Copy CRC 9E9BDD03
Track not present in AccurateRip database
Copy OK

Track 5

Filename E:\EAC\Alexander O'Neal - Hearsay - 2CD - 1987 (2013 Deluxe Edition) - FLAC\Disc One\05 - Intro.wav

Peak level 16.9 %
Extraction speed 0.5 X
Track quality 99.1 %
Test CRC 7049A8F8
Copy CRC 7049A8F8
Track not present in AccurateRip database
Copy OK

Track 6

Filename E:\EAC\Alexander O'Neal - Hearsay - 2CD - 1987 (2013 Deluxe Edition) - FLAC\Disc One\06 - The Lovers.wav

Peak level 85.7 %
Extraction speed 3.1 X
Track quality 100.0 %
Test CRC 518A169C
Copy CRC 518A169C
Track not present in AccurateRip database
Copy OK

Track 7

Filename E:\EAC\Alexander O'Neal - Hearsay - 2CD - 1987 (2013 Deluxe Edition) - FLAC\Disc One\07 - Intro.wav

Peak level 34.6 %
Extraction speed 1.9 X
Track quality 100.0 %
Test CRC CB80F8D9
Copy CRC CB80F8D9
Track not present in AccurateRip database
Copy OK

Track 8

Filename E:\EAC\Alexander O'Neal - Hearsay - 2CD - 1987 (2013 Deluxe Edition) - FLAC\Disc One\08 - Fake.wav

Peak level 95.5 %
Extraction speed 2.9 X
Track quality 99.9 %
Test CRC CFBF0F9D
Copy CRC CFBF0F9D
Track not present in AccurateRip database
Copy OK

Track 9

Filename E:\EAC\Alexander O'Neal - Hearsay - 2CD - 1987 (2013 Deluxe Edition) - FLAC\Disc One\09 - Intro.wav

Peak level 24.2 %
Extraction speed 1.8 X
Track quality 100.0 %
Test CRC 7198103A
Copy CRC 7198103A
Track not present in AccurateRip database
Copy OK

Track 10

Filename E:\EAC\Alexander O'Neal - Hearsay - 2CD - 1987 (2013 Deluxe Edition) - FLAC\Disc One\10 - Critisize.wav

Peak level 87.2 %
Extraction speed 3.5 X
Track quality 100.0 %
Test CRC A3609BAA
Copy CRC A3609BAA
Track not present in AccurateRip database
Copy OK

Track 11

Filename E:\EAC\Alexander O'Neal - Hearsay - 2CD - 1987 (2013 Deluxe Edition) - FLAC\Disc One\11 - Intro.wav

Pre-gap length 0:00:00.85

Peak level 71.4 %
Extraction speed 1.7 X
Track quality 100.0 %
Test CRC 275C6F77
Copy CRC 275C6F77
Track not present in AccurateRip database
Copy OK

Track 12

Filename E:\EAC\Alexander O'Neal - Hearsay - 2CD - 1987 (2013 Deluxe Edition) - FLAC\Disc One\12 - Never knew Love like this.wav

Pre-gap length 0:00:00.90

Peak level 94.0 %
Extraction speed 3.8 X
Track quality 100.0 %
Test CRC FFDFBD91
Copy CRC FFDFBD91
Track not present in AccurateRip database
Copy OK

Track 13

Filename E:\EAC\Alexander O'Neal - Hearsay - 2CD - 1987 (2013 Deluxe Edition) - FLAC\Disc One\13 - Interlude.wav

Peak level 27.1 %
Extraction speed 1.3 X
Track quality 100.0 %
Test CRC 3B966827
Copy CRC 3B966827
Track not present in AccurateRip database
Copy OK

Track 14

Filename E:\EAC\Alexander O'Neal - Hearsay - 2CD - 1987 (2013 Deluxe Edition) - FLAC\Disc One\14 - Sunshine.wav

Peak level 85.5 %
Extraction speed 4.1 X
Track quality 100.0 %
Test CRC FB3FEA22
Copy CRC FB3FEA22
Track not present in AccurateRip database
Copy OK

Track 15

Filename E:\EAC\Alexander O'Neal - Hearsay - 2CD - 1987 (2013 Deluxe Edition) - FLAC\Disc One\15 - Interlude.wav

Peak level 39.8 %
Extraction speed 1.7 X
Track quality 100.0 %
Test CRC 192203EC
Copy CRC 192203EC
Track not present in AccurateRip database
Copy OK

Track 16

Filename E:\EAC\Alexander O'Neal - Hearsay - 2CD - 1987 (2013 Deluxe Edition) - FLAC\Disc One\16 - Crying Overtime.wav

Peak level 86.2 %
Extraction speed 4.4 X
Track quality 100.0 %
Test CRC C834B451
Copy CRC C834B451
Track not present in AccurateRip database
Copy OK

Track 17

Filename E:\EAC\Alexander O'Neal - Hearsay - 2CD - 1987 (2013 Deluxe Edition) - FLAC\Disc One\17 - Intro.wav

Peak level 40.4 %
Extraction speed 1.8 X
Track quality 100.0 %
Test CRC 30FE8CFA
Copy CRC 30FE8CFA
Track not present in AccurateRip database
Copy OK

Track 18

Filename E:\EAC\Alexander O'Neal - Hearsay - 2CD - 1987 (2013 Deluxe Edition) - FLAC\Disc One\18 - When the Party's over.wav

Peak level 93.6 %
Extraction speed 4.4 X
Track quality 100.0 %
Test CRC 65DECF49
Copy CRC 65DECF49
Track not present in AccurateRip database
Copy OK


None of the tracks are present in the AccurateRip database

No errors occurred

End of status report

==== Log checksum 330C74B8F9423C2B972FF286BAD6FFEA31145828F230D6D6429BD81387E7667D ====
___________________________________________________________________________________________
Exact Audio Copy V1.0 beta 2 from 29. April 2011

EAC extraction logfile from 18. May 2013, 9:39

Alexander O'Neal / Hearsay (Deluxe Edition) CD2

Used drive : Optiarc DVD RW AD-7260S Adapter: 3 ID: 0

Read mode : Secure
Utilize accurate stream : Yes
Defeat audio cache : Yes
Make use of C2 pointers : No

Read offset correction : 48
Overread into Lead-In and Lead-Out : No
Fill up missing offset samples with silence : Yes
Delete leading and trailing silent blocks : No
Null samples used in CRC calculations : Yes
Used interface : Native Win32 interface for Win NT & 2000
Gap handling : Appended to previous track

Used output format : User Defined Encoder
Selected bitrate : 768 kBit/s
Quality : High
Add ID3 tag : No
Command line compressor : D:\Program Files\Exact Audio Copy1.0\FLAC\FLAC.EXE
Additional command line options : -8 -V -T "ARTIST=%artist%" -T "TITLE=%title%" -T "ALBUM=%albumtitle%" -T "DATE=%year%" -T "TRACKNUMBER=%tracknr%" -T "GENRE=%genre%" -T "PERFORMER=%albuminterpret%" -T "COMPOSER=%composer%" %haslyrics%–tag-from-file=LYRICS


TOC of the extracted CD

Track | Start | Length | Start sector | End sector
––––––––––––––––––––––––––––-
1 | 0:00.00 | 4:03.31 | 0 | 18255
2 | 4:03.31 | 5:35.43 | 18256 | 43423
3 | 9:38.74 | 4:36.07 | 43424 | 64130
4 | 14:15.06 | 3:53.65 | 64131 | 81670
5 | 18:08.71 | 1:37.31 | 81671 | 88976
6 | 19:46.27 | 3:09.73 | 88977 | 103224
7 | 22:56.25 | 3:16.09 | 103225 | 117933
8 | 26:12.34 | 4:42.71 | 117934 | 139154
9 | 30:55.30 | 3:32.31 | 139155 | 155085
10 | 34:27.61 | 4:04.07 | 155086 | 173392
11 | 38:31.68 | 3:42.21 | 173393 | 190063
12 | 42:14.14 | 5:01.43 | 190064 | 212681


Track 1

Filename E:\EAC\Alexander O'Neal - Hearsay - 2CD - 1987 (2013 Deluxe Edition) - FLAC\Disc Two\01 - Criticize [single edit].wav

Pre-gap length 0:00:02.00

Peak level 99.4 %
Extraction speed 2.4 X
Track quality 100.0 %
Test CRC 293AAB16
Copy CRC 293AAB16
Track not present in AccurateRip database
Copy OK

Track 2

Filename E:\EAC\Alexander O'Neal - Hearsay - 2CD - 1987 (2013 Deluxe Edition) - FLAC\Disc Two\02 - Criticize [Critical Mix].wav

Pre-gap length 0:00:01.80

Peak level 96.0 %
Extraction speed 2.8 X
Track quality 100.0 %
Test CRC 6E6FB0CE
Copy CRC 6E6FB0CE
Track not present in AccurateRip database
Copy OK

Track 3

Filename E:\EAC\Alexander O'Neal - Hearsay - 2CD - 1987 (2013 Deluxe Edition) - FLAC\Disc Two\03 - Criticize [Critical Dub].wav

Pre-gap length 0:00:01.80

Peak level 99.4 %
Extraction speed 3.0 X
Track quality 100.0 %
Test CRC 979797DE
Copy CRC 979797DE
Track not present in AccurateRip database
Copy OK

Track 4

Filename E:\EAC\Alexander O'Neal - Hearsay - 2CD - 1987 (2013 Deluxe Edition) - FLAC\Disc Two\04 - Criticize [Critical Edit].wav

Pre-gap length 0:00:01.80

Peak level 97.1 %
Extraction speed 3.2 X
Track quality 100.0 %
Test CRC CF109B46
Copy CRC CF109B46
Track not present in AccurateRip database
Copy OK

Track 5

Filename E:\EAC\Alexander O'Neal - Hearsay - 2CD - 1987 (2013 Deluxe Edition) - FLAC\Disc Two\05 - Criticize [Nag Mix].wav

Pre-gap length 0:00:01.80

Peak level 99.4 %
Extraction speed 2.8 X
Track quality 100.0 %
Test CRC 7B229DF9
Copy CRC 7B229DF9
Track not present in AccurateRip database
Copy OK

Track 6

Filename E:\EAC\Alexander O'Neal - Hearsay - 2CD - 1987 (2013 Deluxe Edition) - FLAC\Disc Two\06 - Fake [edit].wav

Peak level 99.4 %
Extraction speed 3.4 X
Track quality 100.0 %
Test CRC 708EA295
Copy CRC 708EA295
Track not present in AccurateRip database
Copy OK

Track 7

Filename E:\EAC\Alexander O'Neal - Hearsay - 2CD - 1987 (2013 Deluxe Edition) - FLAC\Disc Two\07 - Fake [Patty Mix].wav

Pre-gap length 0:00:01.80

Peak level 99.4 %
Extraction speed 3.5 X
Track quality 100.0 %
Test CRC 115C6394
Copy CRC 115C6394
Track not present in AccurateRip database
Copy OK

Track 8

Filename E:\EAC\Alexander O'Neal - Hearsay - 2CD - 1987 (2013 Deluxe Edition) - FLAC\Disc Two\08 - Fake [instrumental].wav

Pre-gap length 0:00:01.80

Peak level 99.4 %
Extraction speed 3.9 X
Track quality 100.0 %
Test CRC DB9DF62D
Copy CRC DB9DF62D
Track not present in AccurateRip database
Copy OK

Track 9

Filename E:\EAC\Alexander O'Neal - Hearsay - 2CD - 1987 (2013 Deluxe Edition) - FLAC\Disc Two\09 - Never Knew Love Like This [edit].wav

Pre-gap length 0:00:01.80

Peak level 99.4 %
Extraction speed 3.9 X
Track quality 100.0 %
Test CRC C28E4895
Copy CRC C28E4895
Track not present in AccurateRip database
Copy OK

Track 10

Filename E:\EAC\Alexander O'Neal - Hearsay - 2CD - 1987 (2013 Deluxe Edition) - FLAC\Disc Two\10 - Sunshine [edit].wav

Pre-gap length 0:00:01.80

Peak level 99.4 %
Extraction speed 4.1 X
Track quality 100.0 %
Test CRC 300D3E51
Copy CRC 300D3E51
Track not present in AccurateRip database
Copy OK

Track 11

Filename E:\EAC\Alexander O'Neal - Hearsay - 2CD - 1987 (2013 Deluxe Edition) - FLAC\Disc Two\11 - Hearsay ‘89.wav

Pre-gap length 0:00:01.80

Peak level 79.1 %
Extraction speed 4.2 X
Track quality 100.0 %
Test CRC 0F36A88B
Copy CRC 0F36A88B
Track not present in AccurateRip database
Copy OK

Track 12

Filename E:\EAC\Alexander O'Neal - Hearsay - 2CD - 1987 (2013 Deluxe Edition) - FLAC\Disc Two\12 - The Lovers [Bonus Beats].wav

Pre-gap length 0:00:01.80

Peak level 93.3 %
Extraction speed 4.6 X
Track quality 100.0 %
Test CRC D7397D56
Copy CRC D7397D56
Track not present in AccurateRip database
Copy OK


None of the tracks are present in the AccurateRip database

No errors occurred

End of status report

==== Log checksum 6095929B19E1B15B96FDC39AB2C5FD47177D231BDB0DABD79B18539FE0B749BC ====


––––––––––––––––––––––––––––––––––––––––
Analyzed: Alexander O'Neal / Hearsay (Deluxe Edition) CD1
––––––––––––––––––––––––––––––––––––––––

DR Peak RMS Duration Track
––––––––––––––––––––––––––––––––––––––––
DR12 -7.50 dB -23.70 dB 0:36 01-Intro
DR13 -1.00 dB -15.90 dB 4:28 02-(What can I say) To make you love me
DR14 -7.62 dB -26.13 dB 0:54 03-Intro
DR13 -1.00 dB -15.95 dB 4:01 04-Hearsay
DR12 -15.44 dB -30.53 dB 0:13 05-Intro
DR13 -1.34 dB -17.00 dB 4:39 06-The Lovers
DR13 -9.21 dB -27.54 dB 0:43 07-Intro
DR14 -0.40 dB -16.56 dB 3:57 08-Fake
DR14 -12.30 dB -28.86 dB 0:36 09-Intro
DR12 -1.18 dB -16.02 dB 4:08 10-Critisize
DR11 -2.92 dB -18.18 dB 0:28 11-Intro
DR12 -0.54 dB -15.12 dB 5:10 12-Never knew Love like this
DR11 -11.32 dB -28.73 dB 0:16 13-Interlude
DR11 -1.36 dB -15.02 dB 5:38 14-Sunshine
DR13 -7.99 dB -27.41 dB 0:21 15-Interlude
DR13 -1.28 dB -16.23 dB 5:14 16-Crying Overtime
DR14 -7.85 dB -23.68 dB 0:24 17-Intro
DR12 -0.57 dB -15.60 dB 3:32 18-When the Party's over
––––––––––––––––––––––––––––––––––––––––

Number of tracks: 18
Official DR value: DR13

Samplerate: 44100 Hz
Channels: 2
Bits per sample: 16
Bitrate: 881 kbps
Codec: FLAC
================================================================================
––––––––––––––––––––––––––––––––––––––––
Analyzed: Alexander O'Neal / Hearsay (Deluxe Edition) CD2
––––––––––––––––––––––––––––––––––––––––

DR Peak RMS Duration Track
––––––––––––––––––––––––––––––––––––––––
DR12 -0.05 dB -14.34 dB 4:03 01-Criticize [single edit]
DR13 -0.35 dB -15.61 dB 5:36 02-Criticize [Critical Mix]
DR13 -0.05 dB -15.45 dB 4:36 03-Criticize [Critical Dub]
DR13 -0.25 dB -14.64 dB 3:54 04-Criticize [Critical Edit]
DR15 -0.05 dB -18.03 dB 1:37 05-Criticize [Nag Mix]
DR11 -0.05 dB -12.66 dB 3:10 06-Fake [edit]
DR13 -0.05 dB -14.78 dB 3:16 07-Fake [Patty Mix]
DR14 -0.05 dB -15.28 dB 4:43 08-Fake [instrumental]
DR11 -0.05 dB -12.98 dB 3:32 09-Never Knew Love Like This [edit]
DR11 -0.05 dB -12.86 dB 4:04 10-Sunshine [edit]
DR10 -2.03 dB -13.45 dB 3:42 11-Hearsay ‘89
DR13 -0.60 dB -14.84 dB 5:02 12-The Lovers [Bonus Beats]
––––––––––––––––––––––––––––––––––––––––

Number of tracks: 12
Official DR value: DR12

Samplerate: 44100 Hz
Channels: 2
Bits per sample: 16
Bitrate: 866 kbps
Codec: FLAC
================================================================================

Alexander O'Neal - Hearsay (1987) [2CDs] {Tabu}
Alexander O'Neal - Hearsay (1987) [2CDs] {Tabu}
Alexander O'Neal - Hearsay (1987) [2CDs] {Tabu}


Thanks to the original ripper