Subcategories

Various Artists - Slow Grind Fever Vol. 3 & 4 (2015) {Stag-O-Lee Records STAG-O-066}

Posted By: ruskaval
Various Artists - Slow Grind Fever Vol. 3 & 4 (2015) {Stag-O-Lee Records STAG-O-066}

Various Artists - Slow Grind Fever Vol. 3 & 4 (2015) {Stag-O-Lee Records STAG-O-066}
EAC rip (secure mode) | FLAC (tracks)+CUE+LOG -> 401 Mb | MP3 @320 -> 175 Mb
Full Artwork @ 300 dpi (jpg) -> 33 Mb | 5% repair rar
© 2015 Stag-O-Lee Records | STAG-O-066
Rhythm & Blues / Rockabilly / Soul / Groove / Doo-Wop / Rock & Roll

The soundtrack to a smoky late night bar in Chicago, or a hot Sunday afternoon down at the Popcorn.
If you feel the cold sweat of soul, and the cool chills of haunted crooners singing out their final swansong, or the sinful shakes of R&B in it's twilight years, then you have a bad case of Slow Grind Fever!

This is a collection of haunting, hungry, heartbroken humdingers full of swing, sway and sleaze.
With obscure B-sides sitting next to some of these great artists' last outings on wax. –Stag-O-Lee Records
Various Artists - Slow Grind Fever Vol. 3 & 4 (2015) {Stag-O-Lee Records STAG-O-066}

Various Artists - Slow Grind Fever Vol. 3 & 4 (2015) {Stag-O-Lee Records STAG-O-066}


tracklist:
01 - The Notes - Cha Jezabel
02 - The El Torros - Yellow Hand
03 - Eddie Cooley And The Dimples - Driftwood
04 - The Isley Brothers With Ray Ellis & Orchestra - Teach Me How To Shimmy
05 - Donna Dee - Nobody's Gonna Hurt You
06 - Charlie Williams - Playin' Guitar And Missin' You
07 - Henry Thome - Wolf Bait
08 - Bob Lee - Wanted For Questioning
09 - Little Willie John - Young Girl
10 - Elisabeth Waldo - Balsa Boat
11 - Bobby Rebel - Valley Of Tears
12 - Jessie Hill - My Love
13 - The Flamingos - I Only Have Eyes For You
14 - Jimmy Scott - Home
15 - Jay Hawkins - Well, I Tried
16 - Yvonne Fair And The James Brown Band - If I Knew
17 - Nappy Brown - The Right Time
18 - Bobby Peterson Quintet - One Day
19 - Big Daddy And His Boys - Bacon Fat
20 - Roy Brown - Slow Down Little Eva
21 - Varetta Dillard - So Many Ways
22 - John Greer And His Combo - Night Crawlin'
23 - Duane Eddy - Stalkin'
24 - Howlin' Wolf - Going Down Slow
25 - Elmore James - Anna Lee
26 - The Jaguars - Roundabout
27 - Yvonne Baker & The Sensations - Eyes
28 - The Stone Crushers - Crawfish
29 - Cozy Cole - Bad
30 - El Pauling & The Royalton - Now Baby Don't Do It

Exact Audio Copy V1.0 beta 6 from 9. April 2015

EAC extraction logfile from 30. May 2015, 20:06

Various Artists / Slow Grind Fever 3 & 4

Used drive : TSSTcorpCDDVDW SH-224BB Adapter: 1 ID: 0

Read mode : Secure
Utilize accurate stream : Yes
Defeat audio cache : Yes
Make use of C2 pointers : No

Read offset correction : 6
Overread into Lead-In and Lead-Out : No
Fill up missing offset samples with silence : Yes
Delete leading and trailing silent blocks : No
Null samples used in CRC calculations : Yes
Used interface : Native Win32 interface for Win NT & 2000
Gap handling : Appended to previous track

Used output format : User Defined Encoder
Selected bitrate : 128 kBit/s
Quality : High
Add ID3 tag : No
Command line compressor : C:\Program Files (x86)\Exact Audio Copy\Flac\flac.exe
Additional command line options : -8 -V -T "ARTIST=%artist%" -T "TITLE=%title%" -T "ALBUM=%albumtitle%" -T "DATE=%year%" -T "TRACKNUMBER=%tracknr%" -T "TOTALTRACKS=%numtracks%" -T "GENRE=%genre%" -T "ALBUMARTIST=%albumartist%" -T "ALBUM ARTIST=%albumartist%" -T "COMMENT=EAC Secure Mode, Test & Copy, AccurateRip, FLAC -8" %source%


TOC of the extracted CD

Track | Start | Length | Start sector | End sector
––––––––––––––––––––––––––––-
1 | 0:00.00 | 2:54.04 | 0 | 13053
2 | 2:54.04 | 2:18.67 | 13054 | 23470
3 | 5:12.71 | 2:49.12 | 23471 | 36157
4 | 8:02.08 | 2:29.17 | 36158 | 47349
5 | 10:31.25 | 2:27.02 | 47350 | 58376
6 | 12:58.27 | 2:23.33 | 58377 | 69134
7 | 15:21.60 | 2:38.11 | 69135 | 80995
8 | 17:59.71 | 2:22.28 | 80996 | 91673
9 | 20:22.24 | 2:53.66 | 91674 | 104714
10 | 23:16.15 | 3:05.36 | 104715 | 118625
11 | 26:21.51 | 2:28.65 | 118626 | 129790
12 | 28:50.41 | 2:42.52 | 129791 | 141992
13 | 31:33.18 | 3:21.69 | 141993 | 157136
14 | 34:55.12 | 2:56.28 | 157137 | 170364
15 | 37:51.40 | 2:32.38 | 170365 | 181802
16 | 40:24.03 | 2:25.25 | 181803 | 192702
17 | 42:49.28 | 2:59.05 | 192703 | 206132
18 | 45:48.33 | 2:16.20 | 206133 | 216352
19 | 48:04.53 | 2:50.59 | 216353 | 229161
20 | 50:55.37 | 2:24.13 | 229162 | 239974
21 | 53:19.50 | 2:44.04 | 239975 | 252278
22 | 56:03.54 | 2:31.42 | 252279 | 263645
23 | 58:35.21 | 2:21.17 | 263646 | 274237
24 | 60:56.38 | 3:10.30 | 274238 | 288517
25 | 64:06.68 | 2:51.31 | 288518 | 301373
26 | 66:58.24 | 1:51.13 | 301374 | 309711
27 | 68:49.37 | 2:15.68 | 309712 | 319904
28 | 71:05.30 | 2:25.49 | 319905 | 330828
29 | 73:31.04 | 2:09.34 | 330829 | 340537
30 | 75:40.38 | 2:54.67 | 340538 | 353654


Track 1

Filename C:\Rips\Various Artists - Slow Grind Fever 3 & 4 (2015) [FLAC]\01 - The Notes - Cha Jezabel.wav

Pre-gap length 0:00:02.00

Peak level 100.0 %
Extraction speed 2.6 X
Track quality 100.0 %
Test CRC 275F1117
Copy CRC 275F1117
Track not present in AccurateRip database
Copy OK

Track 2

Filename C:\Rips\Various Artists - Slow Grind Fever 3 & 4 (2015) [FLAC]\02 - The El Torros - Yellow Hand.wav

Peak level 100.0 %
Extraction speed 2.7 X
Track quality 100.0 %
Test CRC B424617A
Copy CRC B424617A
Track not present in AccurateRip database
Copy OK

Track 3

Filename C:\Rips\Various Artists - Slow Grind Fever 3 & 4 (2015) [FLAC]\03 - Eddie Cooley And The Dimples - Driftwood.wav

Peak level 100.0 %
Extraction speed 2.9 X
Track quality 100.0 %
Test CRC 76CAD06D
Copy CRC 76CAD06D
Track not present in AccurateRip database
Copy OK

Track 4

Filename C:\Rips\Various Artists - Slow Grind Fever 3 & 4 (2015) [FLAC]\04 - The Isley Brothers With Ray Ellis & Orchestra - Teach Me How To Shimmy.wav

Peak level 100.0 %
Extraction speed 3.0 X
Track quality 100.0 %
Test CRC 99C0A6D5
Copy CRC 99C0A6D5
Track not present in AccurateRip database
Copy OK

Track 5

Filename C:\Rips\Various Artists - Slow Grind Fever 3 & 4 (2015) [FLAC]\05 - Donna Dee - Nobody's Gonna Hurt You.wav

Peak level 100.0 %
Extraction speed 2.2 X
Track quality 99.9 %
Test CRC DE52DB3A
Copy CRC DE52DB3A
Track not present in AccurateRip database
Copy OK

Track 6

Filename C:\Rips\Various Artists - Slow Grind Fever 3 & 4 (2015) [FLAC]\06 - Charlie Williams - Playin' Guitar And Missin' You.wav

Peak level 99.7 %
Extraction speed 2.2 X
Track quality 99.9 %
Test CRC 6C6BB5D8
Copy CRC 6C6BB5D8
Track not present in AccurateRip database
Copy OK

Track 7

Filename C:\Rips\Various Artists - Slow Grind Fever 3 & 4 (2015) [FLAC]\07 - Henry Thome - Wolf Bait.wav

Peak level 100.0 %
Extraction speed 3.4 X
Track quality 100.0 %
Test CRC F93E861E
Copy CRC F93E861E
Track not present in AccurateRip database
Copy OK

Track 8

Filename C:\Rips\Various Artists - Slow Grind Fever 3 & 4 (2015) [FLAC]\08 - Bob Lee - Wanted For Questioning.wav

Peak level 98.5 %
Extraction speed 3.5 X
Track quality 100.0 %
Test CRC 86881921
Copy CRC 86881921
Track not present in AccurateRip database
Copy OK

Track 9

Filename C:\Rips\Various Artists - Slow Grind Fever 3 & 4 (2015) [FLAC]\09 - Little Willie John - Young Girl.wav

Peak level 100.0 %
Extraction speed 3.7 X
Track quality 100.0 %
Test CRC 6C364E6E
Copy CRC 6C364E6E
Track not present in AccurateRip database
Copy OK

Track 10

Filename C:\Rips\Various Artists - Slow Grind Fever 3 & 4 (2015) [FLAC]\10 - Elisabeth Waldo - Balsa Boat.wav

Peak level 100.0 %
Extraction speed 3.9 X
Track quality 100.0 %
Test CRC 46645435
Copy CRC 46645435
Track not present in AccurateRip database
Copy OK

Track 11

Filename C:\Rips\Various Artists - Slow Grind Fever 3 & 4 (2015) [FLAC]\11 - Bobby Rebel - Valley Of Tears.wav

Peak level 100.0 %
Extraction speed 3.8 X
Track quality 100.0 %
Test CRC 8676C0E4
Copy CRC 8676C0E4
Track not present in AccurateRip database
Copy OK

Track 12

Filename C:\Rips\Various Artists - Slow Grind Fever 3 & 4 (2015) [FLAC]\12 - Jessie Hill - My Love.wav

Peak level 100.0 %
Extraction speed 2.8 X
Track quality 99.9 %
Test CRC ED829559
Copy CRC ED829559
Track not present in AccurateRip database
Copy OK

Track 13

Filename C:\Rips\Various Artists - Slow Grind Fever 3 & 4 (2015) [FLAC]\13 - The Flamingos - I Only Have Eyes For You.wav

Peak level 99.0 %
Extraction speed 4.3 X
Track quality 100.0 %
Test CRC 90769645
Copy CRC 90769645
Track not present in AccurateRip database
Copy OK

Track 14

Filename C:\Rips\Various Artists - Slow Grind Fever 3 & 4 (2015) [FLAC]\14 - Jimmy Scott - Home.wav

Peak level 100.0 %
Extraction speed 4.3 X
Track quality 100.0 %
Test CRC DBA5D517
Copy CRC DBA5D517
Track not present in AccurateRip database
Copy OK

Track 15

Filename C:\Rips\Various Artists - Slow Grind Fever 3 & 4 (2015) [FLAC]\15 - Jay Hawkins - Well, I Tried.wav

Peak level 98.5 %
Extraction speed 4.3 X
Track quality 100.0 %
Test CRC 75815901
Copy CRC 75815901
Track not present in AccurateRip database
Copy OK

Track 16

Filename C:\Rips\Various Artists - Slow Grind Fever 3 & 4 (2015) [FLAC]\16 - Yvonne Fair And The James Brown Band - If I Knew.wav

Peak level 98.8 %
Extraction speed 4.3 X
Track quality 100.0 %
Test CRC C67E1026
Copy CRC C67E1026
Track not present in AccurateRip database
Copy OK

Track 17

Filename C:\Rips\Various Artists - Slow Grind Fever 3 & 4 (2015) [FLAC]\17 - Nappy Brown - The Right Time.wav

Peak level 99.8 %
Extraction speed 4.6 X
Track quality 100.0 %
Test CRC 99C58E7C
Copy CRC 99C58E7C
Track not present in AccurateRip database
Copy OK

Track 18

Filename C:\Rips\Various Artists - Slow Grind Fever 3 & 4 (2015) [FLAC]\18 - Bobby Peterson Quintet - One Day.wav

Peak level 100.0 %
Extraction speed 4.4 X
Track quality 100.0 %
Test CRC 3583E3E7
Copy CRC 3583E3E7
Track not present in AccurateRip database
Copy OK

Track 19

Filename C:\Rips\Various Artists - Slow Grind Fever 3 & 4 (2015) [FLAC]\19 - Big Daddy And His Boys - Bacon Fat.wav

Peak level 99.3 %
Extraction speed 4.7 X
Track quality 100.0 %
Test CRC 2D96C9F4
Copy CRC 2D96C9F4
Track not present in AccurateRip database
Copy OK

Track 20

Filename C:\Rips\Various Artists - Slow Grind Fever 3 & 4 (2015) [FLAC]\20 - Roy Brown - Slow Down Little Eva.wav

Peak level 98.8 %
Extraction speed 4.7 X
Track quality 100.0 %
Test CRC 3C1C7C0C
Copy CRC 3C1C7C0C
Track not present in AccurateRip database
Copy OK

Track 21

Filename C:\Rips\Various Artists - Slow Grind Fever 3 & 4 (2015) [FLAC]\21 - Varetta Dillard - So Many Ways.wav

Peak level 98.8 %
Extraction speed 4.8 X
Track quality 100.0 %
Test CRC AA3FDCF8
Copy CRC AA3FDCF8
Track not present in AccurateRip database
Copy OK

Track 22

Filename C:\Rips\Various Artists - Slow Grind Fever 3 & 4 (2015) [FLAC]\22 - John Greer And His Combo - Night Crawlin'.wav

Peak level 100.0 %
Extraction speed 4.8 X
Track quality 100.0 %
Test CRC 2EBFC4E9
Copy CRC 2EBFC4E9
Track not present in AccurateRip database
Copy OK

Track 23

Filename C:\Rips\Various Artists - Slow Grind Fever 3 & 4 (2015) [FLAC]\23 - Duane Eddy - Stalkin'.wav

Peak level 90.4 %
Extraction speed 4.8 X
Track quality 100.0 %
Test CRC 617563D9
Copy CRC 617563D9
Track not present in AccurateRip database
Copy OK

Track 24

Filename C:\Rips\Various Artists - Slow Grind Fever 3 & 4 (2015) [FLAC]\24 - Howlin' Wolf - Going Down Slow.wav

Peak level 93.7 %
Extraction speed 5.2 X
Track quality 100.0 %
Test CRC 7076E93B
Copy CRC 7076E93B
Track not present in AccurateRip database
Copy OK

Track 25

Filename C:\Rips\Various Artists - Slow Grind Fever 3 & 4 (2015) [FLAC]\25 - Elmore James - Anna Lee.wav

Peak level 98.2 %
Extraction speed 5.2 X
Track quality 100.0 %
Test CRC 6BFD7DFF
Copy CRC 6BFD7DFF
Track not present in AccurateRip database
Copy OK

Track 26

Filename C:\Rips\Various Artists - Slow Grind Fever 3 & 4 (2015) [FLAC]\26 - The Jaguars - Roundabout.wav

Peak level 93.3 %
Extraction speed 4.8 X
Track quality 100.0 %
Test CRC A88FE677
Copy CRC A88FE677
Track not present in AccurateRip database
Copy OK

Track 27

Filename C:\Rips\Various Artists - Slow Grind Fever 3 & 4 (2015) [FLAC]\27 - Yvonne Baker & The Sensations - Eyes.wav

Peak level 100.0 %
Extraction speed 5.1 X
Track quality 100.0 %
Test CRC 8D6BEC06
Copy CRC 8D6BEC06
Track not present in AccurateRip database
Copy OK

Track 28

Filename C:\Rips\Various Artists - Slow Grind Fever 3 & 4 (2015) [FLAC]\28 - The Stone Crushers - Crawfish.wav

Peak level 98.9 %
Extraction speed 5.2 X
Track quality 100.0 %
Test CRC ACDC9B39
Copy CRC ACDC9B39
Track not present in AccurateRip database
Copy OK

Track 29

Filename C:\Rips\Various Artists - Slow Grind Fever 3 & 4 (2015) [FLAC]\29 - Cozy Cole - Bad.wav

Peak level 91.7 %
Extraction speed 3.5 X
Track quality 99.9 %
Test CRC ACD86B6F
Copy CRC ACD86B6F
Track not present in AccurateRip database
Copy OK

Track 30

Filename C:\Rips\Various Artists - Slow Grind Fever 3 & 4 (2015) [FLAC]\30 - El Pauling & The Royalton - Now Baby Don't Do It.wav

Peak level 100.0 %
Extraction speed 5.4 X
Track quality 100.0 %
Test CRC F739A3C1
Copy CRC F739A3C1
Track not present in AccurateRip database
Copy OK


None of the tracks are present in the AccurateRip database

No errors occurred

End of status report

–– CUETools DB Plugin V2.1.6

[CTDB TOCID: 4vIxuK6ZzL5aBGyuFOGjTqn3GU4-] disk not present in database
Submit result: 4vIxuK6ZzL5aBGyuFOGjTqn3GU4- has been uploaded


==== Log checksum 8382BAA595EE36F26D224B1E77BFC847F6624AB4C7B81D9A56B2FC6A33F8EC4E ====


Various Artists - Slow Grind Fever Vol. 3 & 4 (2015) {Stag-O-Lee Records STAG-O-066}

Various Artists - Slow Grind Fever Vol. 3 & 4 (2015) {Stag-O-Lee Records STAG-O-066}


see more Slow Grind Fever Series…


===