Tags
Language
Tags
April 2024
Su Mo Tu We Th Fr Sa
31 1 2 3 4 5 6
7 8 9 10 11 12 13
14 15 16 17 18 19 20
21 22 23 24 25 26 27
28 29 30 1 2 3 4

VA - Now 100 Hits: Classic Rock (2019)

Posted By: delpotro
VA - Now 100 Hits: Classic Rock (2019)

VA - Now 100 Hits: Classic Rock (2019)
EAC Rip | FLAC (tracks+log+.cue) - 2,8 Gb | Covers - 9 Mb | 06:58:07
Classic Rock, Folk Rock, Hard Rock, Blues Rock, Alternative Rock, Soft Rock | Label: Sony Music

This instalment of the popular 'NOW 100 Hits' series comprises a number of guitar-filled anthems, ranging from Meat Loaf's 'Bat Out of Hell' and Rainbow's 'Since You Been Gone', to Rod Stewart's 'Maggie May' and The Clash's 'Should I Stay Or Should I Go'.
Tracklist:
Disc 1 (01:08:34)
1. Queen – We Will Rock You (Remastered) (02:04)
2. Def Leppard – Pour Some Sugar On Me (04:52)
3. Bon Jovi – You Give Love A Bad Name (03:44)
4. The Rolling Stones – Start Me Up (Remastered) (03:33)
5. Nickelback – Rockstar (04:13)
6. Stevie Nicks – Edge Of Seventeen (05:26)
7. Run-DMC – Walk This Way (feat. Aerosmith) (03:37)
8. Meat Loaf – Bat Out Of Hell (09:47)
9. Thin Lizzy – The Boys Are Back In Town (04:24)
10. The Kinks – You Really Got Me (02:13)
11. Bob Dylan – Like A Rolling Stone (06:08)
12. Chuck Berry – Johnny B.Goode (02:39)
13. Motörhead – Ace Of Spades (02:46)
14. Soundgarden – Black Hole Sun (05:20)
15. ZZ Top – La Grange (03:51)
16. Ram Jam – Black Betty (03:57)

Disc 2 (01:10:53)
1. Survivor – Eye Of The Tiger (03:47)
2. Boston – More Than A Feeling (04:43)
3. Europe – The Final Countdown (03:56)
4. Kiss – I Was Made For Lovin' You (04:31)
5. Deep Purple – Smoke On The Water (Remastered) (05:40)
6. Free – All Right Now (04:14)
7. Heart – Barracuda (04:22)
8. Judas Priest – Living After Midnight (03:31)
9. Alien Ant Farm – Smooth Criminal (03:27)
10. Bowling For Soup – Girl All the Bad Guys Want (03:18)
11. The Cars – Just What I Needed (03:45)
12. John Cougar Mellencamp – Authority Song (03:49)
13. The Doobie Brothers – Long Train Runnin' (03:27)
14. The Allman Brothers Band – Ramblin' Man (04:48)
15. Faces – Stay With Me (04:39)
16. Joe Walsh – Life's Been Good (08:56)

Disc 3 (01:09:58)
1. The Stone Roses – I Wanna Be Adored (03:29)
2. Spin Doctors – Two Princes (04:13)
3. Stereophonics – Dakota (04:58)
4. Whitesnake – Here I Go Again (03:53)
5. Status Quo – Down Down (03:48)
6. Rainbow – Since You Been Gone (03:15)
7. Paul McCartney & Wings – Live And Let Die (Remastered) (03:13)
8. The Police – Roxanne (03:12)
9. Santana – Black Magic Woman (03:16)
10. Toto – Africa (04:55)
11. Warren Zevon – Werewolves Of London (03:25)
12. Uriah Heep – July Morning (7" Single Edit) (03:33)
13. Scorpions – Rock You Like A Hurricane (04:13)
14. Lynyrd Skynyrd – Free Bird (09:08)
15. Rod Stewart – Maggie May (03:43)
16. Mott The Hoople – All The Young Dudes (03:30)
17. Lou Reed – Walk On The Wild Side (04:14)

Disc 4 (01:11:15)
1. Fleetwood Mac – Don't Stop (03:11)
2. Blue Öyster Cult – (Don't Fear) The Reaper (Single Version) (03:49)
3. Deep Blue Something – Breakfast At Tiffany's (04:17)
4. The Clash – Should I Stay Or Should I Go (03:08)
5. Bachman-Turner Overdrive – You Ain't Seen Nothing Yet (Single Version) (03:38)
6. Cheap Trick – I Want You To Want Me (03:10)
7. The Guess Who – American Woman (7" Version) (03:53)
8. George Thorogood & The Destroyers – Bad To The Bone (03:38)
9. Wheatus – Teenage Dirtbag (04:02)
10. Lenny Kravitz – Are You Gonna Go My Way (03:32)
11. Foreigner – Juke Box Hero (Remastered Radio Edit) (04:04)
12. Foghat – Slow Ride (Single Version) (03:58)
13. Kansas – Carry On Wayward Son (03:27)
14. Evanescence – Bring Me To Life (03:57)
15. Ted Nugent – Stranglehold (08:24)
16. Yes – Roundabout (08:31)
17. Buffalo Springfield – For What It's Worth (02:36)

Disc 5 (01:04:56)
1. REO Speedwagon – Can't Fight This Feeling (04:47)
2. The Animals – The House Of The Rising Sun (04:29)
3. Iggy Pop – The Passenger (04:40)
4. Mountain – Mississippi Queen (02:31)
5. Primal Scream – Rocks (03:34)
6. The Runaways – Cherry Bomb (02:19)
7. The Knack – My Sharona (04:00)
8. Robert Palmer – Addicted Tom Love (03:57)
9. Ramones – Baby,I Love You (03:46)
10. Roxy Music – Love Is The Drug (04:07)
11. Rush – Tom Sawyer (04:33)
12. The Stranglers – No More Heroes (03:28)
13. James Gang – Funk #48 (03:55)
14. Janis Joplin – Piece Of My Heart (04:27)
15. Jefferson Airplane – Somebody To love (02:59)
16. Status Quo – Caroline (03:45)
17. Stevie Ray Vaughan & Double Trouble – Pride And Joy (03:39)

Disc 6 (01:12:31)
1. Nickelback – How You Remind Me (03:43)
2. Whitesnake – Fool For Your Loving (04:18)
3. Bob Seger And The Silver Bullet Band – American Storm (04:02)
4. Toto – Hold The Line (03:32)
5. Rainbow – I Surrender (03:25)
6. Billy Idol – Rebel Yell (04:47)
7. The Edgar Winter Group – Free Ride (03:08)
8. Steve Miller Band – The Joker (03:37)
9. Thunderclap Newman – Something In The Air (03:56)
10. Argent – God gave Rock And Roll To You (03:22)
11. The Velvet Underground & Nico – I'm Waiting For The Man (Remastered) (04:39)
12. Slade – Cum On Feel The Noize (04:26)
13. T. Rex – 20th Century Boy (03:39)
14. Kiss – Crazy Crazy Nights (03:45)
15. Electric Light Orchestra – Don't Bring Me Down (04:03)
16. U2 – New Year's Day (05:34)
17. The Who – Won't Get Fooled Again (08:35)

Exact Audio Copy V1.3 from 2. September 2016

EAC extraction logfile from 3. July 2019, 11:35

Various Artists / Now - 100 Hits - Classic Rock

Used drive : ASUS DRW-24D5MT Adapter: 1 ID: 0

Read mode : Secure
Utilize accurate stream : Yes
Defeat audio cache : Yes
Make use of C2 pointers : No

Read offset correction : 6
Overread into Lead-In and Lead-Out : No
Fill up missing offset samples with silence : Yes
Delete leading and trailing silent blocks : No
Null samples used in CRC calculations : Yes
Used interface : Native Win32 interface for Win NT & 2000
Gap handling : Appended to previous track

Used output format : User Defined Encoder
Selected bitrate : 896 kBit/s
Quality : High
Add ID3 tag : No
Command line compressor : C:\Program Files (x86)\Exact Audio Copy\FLAC\FLAC.EXE
Additional command line options : -6 -V -T "ARTIST=%artist%" -T "TITLE=%title%" -T "ALBUM=%albumtitle%" -T "DATE=%year%" -T "TRACKNUMBER=%tracknr%" -T "GENRE=%genre%" -T "COMMENT=%comment%" -T "BAND=%albuminterpret%" -T "ALBUMARTIST=%albuminterpret%" -T "COMPOSER=%composer%" %haslyrics%–tag-from-file=LYRICS="%lyricsfile%"%haslyrics% -T "DISCNUMBER=%cdnumber%" -T "TOTALDISCS=%totalcds%" -T "TOTALTRACKS=%numtracks%" %hascover%–picture="%coverfile%"%hascover% %source% -o %dest%


TOC of the extracted CD

Track | Start | Length | Start sector | End sector
––––––––––––––––––––––––––––-
1 | 0:00.00 | 2:03.42 | 0 | 9266
2 | 2:03.42 | 4:52.34 | 9267 | 31200
3 | 6:56.01 | 3:44.01 | 31201 | 48001
4 | 10:40.02 | 3:32.54 | 48002 | 63955
5 | 14:12.56 | 4:12.60 | 63956 | 82915
6 | 18:25.41 | 5:25.67 | 82916 | 107357
7 | 23:51.33 | 3:36.68 | 107358 | 123625
8 | 27:28.26 | 9:46.67 | 123626 | 167642
9 | 37:15.18 | 4:24.04 | 167643 | 187446
10 | 41:39.22 | 2:13.20 | 187447 | 197441
11 | 43:52.42 | 6:08.14 | 197442 | 225055
12 | 50:00.56 | 2:39.17 | 225056 | 236997
13 | 52:39.73 | 2:46.21 | 236998 | 249468
14 | 55:26.19 | 5:19.69 | 249469 | 273462
15 | 60:46.13 | 3:51.14 | 273463 | 290801
16 | 64:37.27 | 3:57.05 | 290802 | 308581


Track 1

Filename L:\22\VA - Now 100 Hits Classic Rock (2019) [FLAC CD]\CD1\01. Queen - We Will Rock You.wav

Pre-gap length 0:00:02.00

Peak level 97.5 %
Extraction speed 4.0 X
Track quality 100.0 %
Test CRC 5569160C
Copy CRC 5569160C
Accurately ripped (confidence 1) [DF79B56C] (AR v2)
Copy OK

Track 2

Filename L:\22\VA - Now 100 Hits Classic Rock (2019) [FLAC CD]\CD1\02. Def Leppard - Pour Some Sugar On Me.wav

Peak level 99.9 %
Extraction speed 5.0 X
Track quality 100.0 %
Test CRC A179DD38
Copy CRC A179DD38
Accurately ripped (confidence 1) [FCBF57F6] (AR v2)
Copy OK

Track 3

Filename L:\22\VA - Now 100 Hits Classic Rock (2019) [FLAC CD]\CD1\03. Bon Jovi - You Give Love A Bad Name.wav

Peak level 99.7 %
Extraction speed 5.3 X
Track quality 100.0 %
Test CRC 7FD522AF
Copy CRC 7FD522AF
Accurately ripped (confidence 1) [AF0180E8] (AR v2)
Copy OK

Track 4

Filename L:\22\VA - Now 100 Hits Classic Rock (2019) [FLAC CD]\CD1\04. The Rolling Stones - Start Me Up.wav

Peak level 86.4 %
Extraction speed 5.7 X
Track quality 100.0 %
Test CRC 9718B77C
Copy CRC 9718B77C
Accurately ripped (confidence 1) [14B76743] (AR v2)
Copy OK

Track 5

Filename L:\22\VA - Now 100 Hits Classic Rock (2019) [FLAC CD]\CD1\05. Nickelback - Rockstar.wav

Peak level 82.6 %
Extraction speed 5.7 X
Track quality 100.0 %
Test CRC 7CBDB6A0
Copy CRC 7CBDB6A0
Accurately ripped (confidence 1) [A053A953] (AR v2)
Copy OK

Track 6

Filename L:\22\VA - Now 100 Hits Classic Rock (2019) [FLAC CD]\CD1\06. Stevie Nicks - Edge Of Seventeen.wav

Peak level 100.0 %
Extraction speed 6.6 X
Track quality 100.0 %
Test CRC D7FA271C
Copy CRC D7FA271C
Accurately ripped (confidence 1) [52C64DD5] (AR v2)
Copy OK

Track 7

Filename L:\22\VA - Now 100 Hits Classic Rock (2019) [FLAC CD]\CD1\07. Run - DMC Feat Aerosmith - Walk This Way.wav

Peak level 98.9 %
Extraction speed 6.7 X
Track quality 100.0 %
Test CRC 5A3C88E6
Copy CRC 5A3C88E6
Accurately ripped (confidence 1) [D917EB4F] (AR v2)
Copy OK

Track 8

Filename L:\22\VA - Now 100 Hits Classic Rock (2019) [FLAC CD]\CD1\08. Meat Loaf - Bat Out Of Hell.wav

Peak level 98.8 %
Extraction speed 7.5 X
Track quality 100.0 %
Test CRC 8227025C
Copy CRC 8227025C
Accurately ripped (confidence 1) [CB4578E4] (AR v2)
Copy OK

Track 9

Filename L:\22\VA - Now 100 Hits Classic Rock (2019) [FLAC CD]\CD1\09. Thin Lizzy - The Boys Are Back In Town.wav

Peak level 89.5 %
Extraction speed 7.7 X
Track quality 100.0 %
Test CRC 3B681819
Copy CRC 3B681819
Accurately ripped (confidence 1) [990C67C4] (AR v2)
Copy OK

Track 10

Filename L:\22\VA - Now 100 Hits Classic Rock (2019) [FLAC CD]\CD1\10. The Kinks - You Really Got Me.wav

Peak level 87.0 %
Extraction speed 7.1 X
Track quality 100.0 %
Test CRC D1E7964F
Copy CRC D1E7964F
Accurately ripped (confidence 1) [54AF6728] (AR v2)
Copy OK

Track 11

Filename L:\22\VA - Now 100 Hits Classic Rock (2019) [FLAC CD]\CD1\11. Bob Dylan - Like A Rolling Stone.wav

Peak level 98.7 %
Extraction speed 7.5 X
Track quality 99.9 %
Test CRC DE969E24
Copy CRC DE969E24
Accurately ripped (confidence 1) [F67937AD] (AR v2)
Copy OK

Track 12

Filename L:\22\VA - Now 100 Hits Classic Rock (2019) [FLAC CD]\CD1\12. Chuck Berry - Johnny B. Goode.wav

Peak level 98.7 %
Extraction speed 7.8 X
Track quality 100.0 %
Test CRC D8C69CD2
Copy CRC D8C69CD2
Accurately ripped (confidence 1) [F857031F] (AR v2)
Copy OK

Track 13

Filename L:\22\VA - Now 100 Hits Classic Rock (2019) [FLAC CD]\CD1\13. Motorhead - Ace Of Spades.wav

Peak level 98.7 %
Extraction speed 8.1 X
Track quality 100.0 %
Test CRC 5423D702
Copy CRC 5423D702
Accurately ripped (confidence 1) [A7D01B6D] (AR v2)
Copy OK

Track 14

Filename L:\22\VA - Now 100 Hits Classic Rock (2019) [FLAC CD]\CD1\14. Soundgarden - Black Hole Sun.wav

Peak level 76.6 %
Extraction speed 9.0 X
Track quality 100.0 %
Test CRC AA41AE46
Copy CRC AA41AE46
Accurately ripped (confidence 1) [AA5B8AFE] (AR v2)
Copy OK

Track 15

Filename L:\22\VA - Now 100 Hits Classic Rock (2019) [FLAC CD]\CD1\15. ZZ Top - La Grange.wav

Peak level 98.7 %
Extraction speed 8.9 X
Track quality 100.0 %
Test CRC 2C4E8A12
Copy CRC 2C4E8A12
Accurately ripped (confidence 1) [CEF10E93] (AR v2)
Copy OK

Track 16

Filename L:\22\VA - Now 100 Hits Classic Rock (2019) [FLAC CD]\CD1\16. Ram Jam - Black Betty.wav

Peak level 94.6 %
Extraction speed 7.4 X
Track quality 99.9 %
Test CRC 25F6A723
Copy CRC 25F6A723
Accurately ripped (confidence 1) [4F37D2A8] (AR v2)
Copy OK


All tracks accurately ripped

No errors occurred

End of status report

–– AcoustID Plugin V1.2.0

Total fingerprints: 16


–– CUETools DB Plugin V2.1.6

[CTDB TOCID: M4IAU6bvR4BdLyUn.4zEHSi7JKc-] found
Submit result: M4IAU6bvR4BdLyUn.4zEHSi7JKc- has been confirmed
Track | CTDB Status
1 | (8/8) Accurately ripped
2 | (8/8) Accurately ripped
3 | (8/8) Accurately ripped
4 | (8/8) Accurately ripped
5 | (8/8) Accurately ripped
6 | (8/8) Accurately ripped
7 | (8/8) Accurately ripped
8 | (8/8) Accurately ripped
9 | (8/8) Accurately ripped
10 | (8/8) Accurately ripped
11 | (8/8) Accurately ripped
12 | (8/8) Accurately ripped
13 | (8/8) Accurately ripped
14 | (8/8) Accurately ripped
15 | (8/8) Accurately ripped
16 | (8/8) Accurately ripped


==== Log checksum 0248081DE1538C8C13D8BA0CAD532D3D29EE1B1FDEB681491AFC2B39DB5B5D2D ====
Exact Audio Copy V1.3 from 2. September 2016

EAC extraction logfile from 3. July 2019, 11:35

Various Artists / NOW 100 Hits: Classic Rock

Used drive : TSSTcorpCD/DVDW SH-S182D Adapter: 1 ID: 1

Read mode : Secure
Utilize accurate stream : Yes
Defeat audio cache : Yes
Make use of C2 pointers : No

Read offset correction : 6
Overread into Lead-In and Lead-Out : No
Fill up missing offset samples with silence : Yes
Delete leading and trailing silent blocks : No
Null samples used in CRC calculations : Yes
Used interface : Native Win32 interface for Win NT & 2000
Gap handling : Appended to previous track

Used output format : User Defined Encoder
Selected bitrate : 896 kBit/s
Quality : High
Add ID3 tag : No
Command line compressor : C:\Program Files (x86)\Exact Audio Copy\FLAC\FLAC.EXE
Additional command line options : -6 -V -T "ARTIST=%artist%" -T "TITLE=%title%" -T "ALBUM=%albumtitle%" -T "DATE=%year%" -T "TRACKNUMBER=%tracknr%" -T "GENRE=%genre%" -T "COMMENT=%comment%" -T "BAND=%albuminterpret%" -T "ALBUMARTIST=%albuminterpret%" -T "COMPOSER=%composer%" %haslyrics%–tag-from-file=LYRICS="%lyricsfile%"%haslyrics% -T "DISCNUMBER=%cdnumber%" -T "TOTALDISCS=%totalcds%" -T "TOTALTRACKS=%numtracks%" %hascover%–picture="%coverfile%"%hascover% %source% -o %dest%


TOC of the extracted CD

Track | Start | Length | Start sector | End sector
––––––––––––––––––––––––––––-
1 | 0:00.00 | 3:47.21 | 0 | 17045
2 | 3:47.21 | 4:43.36 | 17046 | 38306
3 | 8:30.57 | 3:56.25 | 38307 | 56031
4 | 12:27.07 | 4:30.64 | 56032 | 76345
5 | 16:57.71 | 5:40.01 | 76346 | 101846
6 | 22:37.72 | 4:14.00 | 101847 | 120896
7 | 26:51.72 | 4:22.34 | 120897 | 140580
8 | 31:14.31 | 3:31.08 | 140581 | 156413
9 | 34:45.39 | 3:27.05 | 156414 | 171943
10 | 38:12.44 | 3:18.02 | 171944 | 186795
11 | 41:30.46 | 3:44.58 | 186796 | 203653
12 | 45:15.29 | 3:48.69 | 203654 | 220822
13 | 49:04.23 | 3:26.54 | 220823 | 236326
14 | 52:31.02 | 4:48.18 | 236327 | 257944
15 | 57:19.20 | 4:38.64 | 257945 | 278858
16 | 61:58.09 | 8:56.08 | 278859 | 319066


Track 1

Filename L:\22\VA - Now 100 Hits Classic Rock (2019) [FLAC CD]\CD2\01. Survivor - Eye of the Tiger.wav

Pre-gap length 0:00:02.00

Peak level 99.0 %
Extraction speed 4.7 X
Track quality 100.0 %
Test CRC 9D642D3B
Copy CRC 9D642D3B
Track not present in AccurateRip database
Copy OK

Track 2

Filename L:\22\VA - Now 100 Hits Classic Rock (2019) [FLAC CD]\CD2\02. Boston - More Than a Feeling.wav

Peak level 97.5 %
Extraction speed 5.2 X
Track quality 100.0 %
Test CRC 52ECDE6C
Copy CRC 52ECDE6C
Track not present in AccurateRip database
Copy OK

Track 3

Filename L:\22\VA - Now 100 Hits Classic Rock (2019) [FLAC CD]\CD2\03. Europe - The Final Countdown.wav

Peak level 98.9 %
Extraction speed 5.6 X
Track quality 100.0 %
Test CRC FFA1F399
Copy CRC FFA1F399
Track not present in AccurateRip database
Copy OK

Track 4

Filename L:\22\VA - Now 100 Hits Classic Rock (2019) [FLAC CD]\CD2\04. KISS - I Was Made for Lovin’ You.wav

Peak level 95.9 %
Extraction speed 6.1 X
Track quality 100.0 %
Test CRC 32E5FED3
Copy CRC 32E5FED3
Track not present in AccurateRip database
Copy OK

Track 5

Filename L:\22\VA - Now 100 Hits Classic Rock (2019) [FLAC CD]\CD2\05. Deep Purple - Smoke on the Water.wav

Peak level 97.9 %
Extraction speed 6.6 X
Track quality 100.0 %
Test CRC 2980B957
Copy CRC 2980B957
Track not present in AccurateRip database
Copy OK

Track 6

Filename L:\22\VA - Now 100 Hits Classic Rock (2019) [FLAC CD]\CD2\06. Free - All Right Now.wav

Peak level 98.8 %
Extraction speed 6.8 X
Track quality 100.0 %
Test CRC 3405F6D3
Copy CRC 3405F6D3
Track not present in AccurateRip database
Copy OK

Track 7

Filename L:\22\VA - Now 100 Hits Classic Rock (2019) [FLAC CD]\CD2\07. Heart - Barracuda.wav

Peak level 87.0 %
Extraction speed 7.2 X
Track quality 100.0 %
Test CRC A8484B67
Copy CRC A8484B67
Track not present in AccurateRip database
Copy OK

Track 8

Filename L:\22\VA - Now 100 Hits Classic Rock (2019) [FLAC CD]\CD2\08. Judas Priest - Living After Midnight.wav

Peak level 97.8 %
Extraction speed 7.2 X
Track quality 100.0 %
Test CRC 48945C60
Copy CRC 48945C60
Track not present in AccurateRip database
Copy OK

Track 9

Filename L:\22\VA - Now 100 Hits Classic Rock (2019) [FLAC CD]\CD2\09. Alien Ant Farm - Smooth Criminal.wav

Peak level 63.2 %
Extraction speed 7.3 X
Track quality 100.0 %
Test CRC 09425007
Copy CRC 09425007
Track not present in AccurateRip database
Copy OK

Track 10

Filename L:\22\VA - Now 100 Hits Classic Rock (2019) [FLAC CD]\CD2\10. Bowling for Soup - Girl All the Bad Guys Want.wav

Peak level 87.4 %
Extraction speed 7.5 X
Track quality 100.0 %
Test CRC C82C70B5
Copy CRC C82C70B5
Track not present in AccurateRip database
Copy OK

Track 11

Filename L:\22\VA - Now 100 Hits Classic Rock (2019) [FLAC CD]\CD2\11. The Cars - Just What I Needed.wav

Peak level 100.0 %
Extraction speed 6.9 X
Track quality 99.9 %
Test CRC DC8200F9
Copy CRC DC8200F9
Track not present in AccurateRip database
Copy OK

Track 12

Filename L:\22\VA - Now 100 Hits Classic Rock (2019) [FLAC CD]\CD2\12. John Mellencamp - Authority Song.wav

Peak level 98.7 %
Extraction speed 8.0 X
Track quality 100.0 %
Test CRC BBD19F95
Copy CRC BBD19F95
Track not present in AccurateRip database
Copy OK

Track 13

Filename L:\22\VA - Now 100 Hits Classic Rock (2019) [FLAC CD]\CD2\13. The Doobie Brothers - Long Train Runnin’.wav

Peak level 98.8 %
Extraction speed 8.1 X
Track quality 100.0 %
Test CRC E06A633A
Copy CRC E06A633A
Track not present in AccurateRip database
Copy OK

Track 14

Filename L:\22\VA - Now 100 Hits Classic Rock (2019) [FLAC CD]\CD2\14. The Allman Brothers Band - Ramblin’ Man.wav

Peak level 99.1 %
Extraction speed 8.7 X
Track quality 100.0 %
Test CRC 09420538
Copy CRC 09420538
Track not present in AccurateRip database
Copy OK

Track 15

Filename L:\22\VA - Now 100 Hits Classic Rock (2019) [FLAC CD]\CD2\15. Faces - Stay With Me.wav

Peak level 98.7 %
Extraction speed 8.1 X
Track quality 99.9 %
Test CRC AF492DF0
Copy CRC AF492DF0
Track not present in AccurateRip database
Copy OK

Track 16

Filename L:\22\VA - Now 100 Hits Classic Rock (2019) [FLAC CD]\CD2\16. Joe Walsh - Life’s Been Good.wav

Peak level 98.9 %
Extraction speed 9.7 X
Track quality 100.0 %
Test CRC C5332777
Copy CRC C5332777
Track not present in AccurateRip database
Copy OK


None of the tracks are present in the AccurateRip database

No errors occurred

End of status report

–– AcoustID Plugin V1.2.0

Total fingerprints: 16


–– CUETools DB Plugin V2.1.6

[CTDB TOCID: CNEufYUR8ks0eLic0Knvlyvb6R0-] found
Submit result: CNEufYUR8ks0eLic0Knvlyvb6R0- has been confirmed
Track | CTDB Status
1 | (6/6) Accurately ripped
2 | (6/6) Accurately ripped
3 | (6/6) Accurately ripped
4 | (6/6) Accurately ripped
5 | (6/6) Accurately ripped
6 | (6/6) Accurately ripped
7 | (6/6) Accurately ripped
8 | (6/6) Accurately ripped
9 | (6/6) Accurately ripped
10 | (6/6) Accurately ripped
11 | (6/6) Accurately ripped
12 | (6/6) Accurately ripped
13 | (6/6) Accurately ripped
14 | (6/6) Accurately ripped
15 | (6/6) Accurately ripped
16 | (6/6) Accurately ripped


==== Log checksum BC8723DA36EBE3219410C684B1EA94872584F49DD2C624695C2683323651C9C8 ====
Exact Audio Copy V1.3 from 2. September 2016

EAC extraction logfile from 3. July 2019, 12:16

Various Artists / Now - 100 Hits - Classic Rock

Used drive : ASUS DRW-24D5MT Adapter: 1 ID: 0

Read mode : Secure
Utilize accurate stream : Yes
Defeat audio cache : Yes
Make use of C2 pointers : No

Read offset correction : 6
Overread into Lead-In and Lead-Out : No
Fill up missing offset samples with silence : Yes
Delete leading and trailing silent blocks : No
Null samples used in CRC calculations : Yes
Used interface : Native Win32 interface for Win NT & 2000
Gap handling : Appended to previous track

Used output format : User Defined Encoder
Selected bitrate : 896 kBit/s
Quality : High
Add ID3 tag : No
Command line compressor : C:\Program Files (x86)\Exact Audio Copy\FLAC\FLAC.EXE
Additional command line options : -6 -V -T "ARTIST=%artist%" -T "TITLE=%title%" -T "ALBUM=%albumtitle%" -T "DATE=%year%" -T "TRACKNUMBER=%tracknr%" -T "GENRE=%genre%" -T "COMMENT=%comment%" -T "BAND=%albuminterpret%" -T "ALBUMARTIST=%albuminterpret%" -T "COMPOSER=%composer%" %haslyrics%–tag-from-file=LYRICS="%lyricsfile%"%haslyrics% -T "DISCNUMBER=%cdnumber%" -T "TOTALDISCS=%totalcds%" -T "TOTALTRACKS=%numtracks%" %hascover%–picture="%coverfile%"%hascover% %source% -o %dest%


TOC of the extracted CD

Track | Start | Length | Start sector | End sector
––––––––––––––––––––––––––––-
1 | 0:00.00 | 3:29.00 | 0 | 15674
2 | 3:29.00 | 4:13.08 | 15675 | 34657
3 | 7:42.08 | 4:57.38 | 34658 | 56970
4 | 12:39.46 | 3:53.08 | 56971 | 74453
5 | 16:32.54 | 3:47.43 | 74454 | 91521
6 | 20:20.22 | 3:14.73 | 91522 | 106144
7 | 23:35.20 | 3:12.58 | 106145 | 120602
8 | 26:48.03 | 3:11.67 | 120603 | 134994
9 | 29:59.70 | 3:15.67 | 134995 | 149686
10 | 33:15.62 | 4:54.53 | 149687 | 171789
11 | 38:10.40 | 3:25.32 | 171790 | 187196
12 | 41:35.72 | 3:32.59 | 187197 | 203155
13 | 45:08.56 | 4:12.46 | 203156 | 222101
14 | 49:21.27 | 9:08.03 | 222102 | 263204
15 | 58:29.30 | 3:42.38 | 263205 | 279892
16 | 62:11.68 | 3:29.65 | 279893 | 295632
17 | 65:41.58 | 4:13.73 | 295633 | 314680


Track 1

Filename L:\22\VA - Now 100 Hits Classic Rock (2019) [FLAC CD]\CD3\01. The Stone Roses - I Wanna Be Adored.wav

Pre-gap length 0:00:02.00

Peak level 98.7 %
Extraction speed 4.6 X
Track quality 100.0 %
Test CRC 279DBC17
Copy CRC 279DBC17
Track not present in AccurateRip database
Copy OK

Track 2

Filename L:\22\VA - Now 100 Hits Classic Rock (2019) [FLAC CD]\CD3\02. Spin Doctors - Two Princes.wav

Peak level 95.8 %
Extraction speed 5.1 X
Track quality 100.0 %
Test CRC 70F295AB
Copy CRC 70F295AB
Track not present in AccurateRip database
Copy OK

Track 3

Filename L:\22\VA - Now 100 Hits Classic Rock (2019) [FLAC CD]\CD3\03. Stereophonics - Dakota.wav

Peak level 81.1 %
Extraction speed 5.7 X
Track quality 100.0 %
Test CRC A5AF84E9
Copy CRC A5AF84E9
Track not present in AccurateRip database
Copy OK

Track 4

Filename L:\22\VA - Now 100 Hits Classic Rock (2019) [FLAC CD]\CD3\04. Whitesnake - Here I Go Again.wav

Peak level 79.6 %
Extraction speed 5.9 X
Track quality 100.0 %
Test CRC AC9F027D
Copy CRC AC9F027D
Track not present in AccurateRip database
Copy OK

Track 5

Filename L:\22\VA - Now 100 Hits Classic Rock (2019) [FLAC CD]\CD3\05. Status Quo - Down Down.wav

Peak level 93.9 %
Extraction speed 6.2 X
Track quality 100.0 %
Test CRC 2A991E6E
Copy CRC 2A991E6E
Track not present in AccurateRip database
Copy OK

Track 6

Filename L:\22\VA - Now 100 Hits Classic Rock (2019) [FLAC CD]\CD3\06. Rainbow - Since You Been Gone.wav

Peak level 95.3 %
Extraction speed 6.3 X
Track quality 100.0 %
Test CRC BEBA5444
Copy CRC BEBA5444
Track not present in AccurateRip database
Copy OK

Track 7

Filename L:\22\VA - Now 100 Hits Classic Rock (2019) [FLAC CD]\CD3\07. Paul McCartney & Wings - Live And Let Die.wav

Peak level 98.7 %
Extraction speed 6.6 X
Track quality 100.0 %
Test CRC D7345149
Copy CRC D7345149
Track not present in AccurateRip database
Copy OK

Track 8

Filename L:\22\VA - Now 100 Hits Classic Rock (2019) [FLAC CD]\CD3\08. The Police - Roxanne.wav

Peak level 98.9 %
Extraction speed 5.5 X
Track quality 99.9 %
Test CRC 9BB0E611
Copy CRC 9BB0E611
Track not present in AccurateRip database
Copy OK

Track 9

Filename L:\22\VA - Now 100 Hits Classic Rock (2019) [FLAC CD]\CD3\09. Santana - Black Magic Woman.wav

Peak level 98.7 %
Extraction speed 5.6 X
Track quality 99.9 %
Test CRC A4FE2715
Copy CRC A4FE2715
Track not present in AccurateRip database
Copy OK

Track 10

Filename L:\22\VA - Now 100 Hits Classic Rock (2019) [FLAC CD]\CD3\10. Toto - Africa.wav

Peak level 98.9 %
Extraction speed 7.6 X
Track quality 100.0 %
Test CRC 6172EF20
Copy CRC 6172EF20
Track not present in AccurateRip database
Copy OK

Track 11

Filename L:\22\VA - Now 100 Hits Classic Rock (2019) [FLAC CD]\CD3\11. Warren Zevon - Werewolves Of London.wav

Peak level 98.7 %
Extraction speed 7.5 X
Track quality 100.0 %
Test CRC 166D9C4A
Copy CRC 166D9C4A
Track not present in AccurateRip database
Copy OK

Track 12

Filename L:\22\VA - Now 100 Hits Classic Rock (2019) [FLAC CD]\CD3\12. Uriah Heep - July Morning.wav

Peak level 98.7 %
Extraction speed 6.3 X
Track quality 99.9 %
Test CRC D661E441
Copy CRC D661E441
Track not present in AccurateRip database
Copy OK

Track 13

Filename L:\22\VA - Now 100 Hits Classic Rock (2019) [FLAC CD]\CD3\13. Scorpions - Rock You Like A Hurricane.wav

Peak level 83.0 %
Extraction speed 8.1 X
Track quality 100.0 %
Test CRC 026E8642
Copy CRC 026E8642
Track not present in AccurateRip database
Copy OK

Track 14

Filename L:\22\VA - Now 100 Hits Classic Rock (2019) [FLAC CD]\CD3\14. Lynyrd Skynyrd - Free Bird.wav

Peak level 98.7 %
Extraction speed 9.1 X
Track quality 100.0 %
Test CRC 6DAF03A0
Copy CRC 6DAF03A0
Track not present in AccurateRip database
Copy OK

Track 15

Filename L:\22\VA - Now 100 Hits Classic Rock (2019) [FLAC CD]\CD3\15. Rod Stewart - Maggie May.wav

Peak level 98.9 %
Extraction speed 8.7 X
Track quality 100.0 %
Test CRC 14083B55
Copy CRC 14083B55
Track not present in AccurateRip database
Copy OK

Track 16

Filename L:\22\VA - Now 100 Hits Classic Rock (2019) [FLAC CD]\CD3\16. Mott The Hoople - All The Young Dudes.wav

Peak level 98.2 %
Extraction speed 8.8 X
Track quality 100.0 %
Test CRC 3B70364D
Copy CRC 3B70364D
Track not present in AccurateRip database
Copy OK

Track 17

Filename L:\22\VA - Now 100 Hits Classic Rock (2019) [FLAC CD]\CD3\17. Lou Reed - Walk On The Wild Side.wav

Peak level 98.8 %
Extraction speed 7.6 X
Track quality 99.9 %
Test CRC 850ECE1C
Copy CRC 850ECE1C
Track not present in AccurateRip database
Copy OK


None of the tracks are present in the AccurateRip database

No errors occurred

End of status report

–– AcoustID Plugin V1.2.0

Total fingerprints: 17


–– CUETools DB Plugin V2.1.6

[CTDB TOCID: OdKNU4DrjscptdidZu4fNWVNsow-] found
Submit result: OdKNU4DrjscptdidZu4fNWVNsow- has been confirmed
Track | CTDB Status
1 | (5/5) Accurately ripped
2 | (5/5) Accurately ripped
3 | (5/5) Accurately ripped
4 | (5/5) Accurately ripped
5 | (5/5) Accurately ripped
6 | (5/5) Accurately ripped
7 | (5/5) Accurately ripped
8 | (5/5) Accurately ripped
9 | (5/5) Accurately ripped
10 | (5/5) Accurately ripped
11 | (5/5) Accurately ripped
12 | (5/5) Accurately ripped
13 | (5/5) Accurately ripped
14 | (5/5) Accurately ripped
15 | (5/5) Accurately ripped
16 | (5/5) Accurately ripped
17 | (5/5) Accurately ripped


==== Log checksum 1F337BD8161A08D72A730F5240A96287A9780204A642802B3D16C9FC7E371FC5 ====
Exact Audio Copy V1.3 from 2. September 2016

EAC extraction logfile from 3. July 2019, 12:16

Various Artists / NOW 100 Hits: Classic Rock

Used drive : TSSTcorpCD/DVDW SH-S182D Adapter: 1 ID: 1

Read mode : Secure
Utilize accurate stream : Yes
Defeat audio cache : Yes
Make use of C2 pointers : No

Read offset correction : 6
Overread into Lead-In and Lead-Out : No
Fill up missing offset samples with silence : Yes
Delete leading and trailing silent blocks : No
Null samples used in CRC calculations : Yes
Used interface : Native Win32 interface for Win NT & 2000
Gap handling : Appended to previous track

Used output format : User Defined Encoder
Selected bitrate : 896 kBit/s
Quality : High
Add ID3 tag : No
Command line compressor : C:\Program Files (x86)\Exact Audio Copy\FLAC\FLAC.EXE
Additional command line options : -6 -V -T "ARTIST=%artist%" -T "TITLE=%title%" -T "ALBUM=%albumtitle%" -T "DATE=%year%" -T "TRACKNUMBER=%tracknr%" -T "GENRE=%genre%" -T "COMMENT=%comment%" -T "BAND=%albuminterpret%" -T "ALBUMARTIST=%albuminterpret%" -T "COMPOSER=%composer%" %haslyrics%–tag-from-file=LYRICS="%lyricsfile%"%haslyrics% -T "DISCNUMBER=%cdnumber%" -T "TOTALDISCS=%totalcds%" -T "TOTALTRACKS=%numtracks%" %hascover%–picture="%coverfile%"%hascover% %source% -o %dest%


TOC of the extracted CD

Track | Start | Length | Start sector | End sector
––––––––––––––––––––––––––––-
1 | 0:00.00 | 3:11.16 | 0 | 14340
2 | 3:11.16 | 3:48.38 | 14341 | 31478
3 | 6:59.54 | 4:17.16 | 31479 | 50769
4 | 11:16.70 | 3:07.73 | 50770 | 64867
5 | 14:24.68 | 3:38.37 | 64868 | 81254
6 | 18:03.30 | 3:10.16 | 81255 | 95520
7 | 21:13.46 | 3:52.40 | 95521 | 112960
8 | 25:06.11 | 3:38.37 | 112961 | 129347
9 | 28:44.48 | 4:01.73 | 129348 | 147495
10 | 32:46.46 | 3:31.62 | 147496 | 163382
11 | 36:18.33 | 4:03.67 | 163383 | 181674
12 | 40:22.25 | 3:57.45 | 181675 | 199494
13 | 44:19.70 | 3:26.49 | 199495 | 214993
14 | 47:46.44 | 3:56.73 | 214994 | 232766
15 | 51:43.42 | 8:24.25 | 232767 | 270591
16 | 60:07.67 | 8:31.00 | 270592 | 308916
17 | 68:38.67 | 2:35.38 | 308917 | 320579


Track 1

Filename L:\22\VA - Now 100 Hits Classic Rock (2019) [FLAC CD]\CD4\01. Fleetwood Mac - Don’t Stop.wav

Pre-gap length 0:00:02.00

Peak level 98.8 %
Extraction speed 4.0 X
Track quality 99.9 %
Test CRC B85F1411
Copy CRC B85F1411
Track not present in AccurateRip database
Copy OK

Track 2

Filename L:\22\VA - Now 100 Hits Classic Rock (2019) [FLAC CD]\CD4\02. Blue Öyster Cult - (Don’t Fear) The Reaper.wav

Peak level 97.8 %
Extraction speed 5.1 X
Track quality 100.0 %
Test CRC E81CF100
Copy CRC E81CF100
Track not present in AccurateRip database
Copy OK

Track 3

Filename L:\22\VA - Now 100 Hits Classic Rock (2019) [FLAC CD]\CD4\03. Deep Blue Something - Breakfast at Tiffany’s.wav

Peak level 91.9 %
Extraction speed 5.6 X
Track quality 100.0 %
Test CRC 982C46F7
Copy CRC 982C46F7
Track not present in AccurateRip database
Copy OK

Track 4

Filename L:\22\VA - Now 100 Hits Classic Rock (2019) [FLAC CD]\CD4\04. The Clash - Should I Stay or Should I Go.wav

Peak level 99.0 %
Extraction speed 5.6 X
Track quality 100.0 %
Test CRC E90EEAD0
Copy CRC E90EEAD0
Track not present in AccurateRip database
Copy OK

Track 5

Filename L:\22\VA - Now 100 Hits Classic Rock (2019) [FLAC CD]\CD4\05. Bachman–Turner Overdrive - You Ain’t Seen Nothing Yet.wav

Peak level 98.8 %
Extraction speed 6.0 X
Track quality 100.0 %
Test CRC A51E3E8C
Copy CRC A51E3E8C
Track not present in AccurateRip database
Copy OK

Track 6

Filename L:\22\VA - Now 100 Hits Classic Rock (2019) [FLAC CD]\CD4\06. Cheap Trick - I Want You to Want Me.wav

Peak level 98.7 %
Extraction speed 5.3 X
Track quality 99.9 %
Test CRC 519D3DFA
Copy CRC 519D3DFA
Track not present in AccurateRip database
Copy OK

Track 7

Filename L:\22\VA - Now 100 Hits Classic Rock (2019) [FLAC CD]\CD4\07. The Guess Who - American Woman.wav

Peak level 98.0 %
Extraction speed 6.7 X
Track quality 100.0 %
Test CRC EBDFD468
Copy CRC EBDFD468
Track not present in AccurateRip database
Copy OK

Track 8

Filename L:\22\VA - Now 100 Hits Classic Rock (2019) [FLAC CD]\CD4\08. George Thorogood & the Destroyers - Bad to the Bone.wav

Peak level 97.9 %
Extraction speed 6.8 X
Track quality 100.0 %
Test CRC CA77B2E9
Copy CRC CA77B2E9
Track not present in AccurateRip database
Copy OK

Track 9

Filename L:\22\VA - Now 100 Hits Classic Rock (2019) [FLAC CD]\CD4\09. Wheatus - Teenage Dirtbag.wav

Peak level 82.5 %
Extraction speed 7.1 X
Track quality 100.0 %
Test CRC 6844D450
Copy CRC 6844D450
Track not present in AccurateRip database
Copy OK

Track 10

Filename L:\22\VA - Now 100 Hits Classic Rock (2019) [FLAC CD]\CD4\10. Lenny Kravitz - Are You Gonna Go My Way.wav

Peak level 89.3 %
Extraction speed 6.3 X
Track quality 99.9 %
Test CRC DA198EC8
Copy CRC DA198EC8
Track not present in AccurateRip database
Copy OK

Track 11

Filename L:\22\VA - Now 100 Hits Classic Rock (2019) [FLAC CD]\CD4\11. Foreigner - Juke Box Hero.wav

Peak level 98.9 %
Extraction speed 7.7 X
Track quality 100.0 %
Test CRC 567354FE
Copy CRC 567354FE
Track not present in AccurateRip database
Copy OK

Track 12

Filename L:\22\VA - Now 100 Hits Classic Rock (2019) [FLAC CD]\CD4\12. Foghat - Slow Ride.wav

Peak level 98.9 %
Extraction speed 7.8 X
Track quality 100.0 %
Test CRC 6C4B8DBC
Copy CRC 6C4B8DBC
Track not present in AccurateRip database
Copy OK

Track 13

Filename L:\22\VA - Now 100 Hits Classic Rock (2019) [FLAC CD]\CD4\13. Kansas - Carry On Wayward Son.wav

Peak level 98.7 %
Extraction speed 7.8 X
Track quality 100.0 %
Test CRC 09D981D0
Copy CRC 09D981D0
Track not present in AccurateRip database
Copy OK

Track 14

Filename L:\22\VA - Now 100 Hits Classic Rock (2019) [FLAC CD]\CD4\14. Evanescence - Bring Me to Life.wav

Peak level 67.6 %
Extraction speed 8.2 X
Track quality 100.0 %
Test CRC CE1FC79A
Copy CRC CE1FC79A
Track not present in AccurateRip database
Copy OK

Track 15

Filename L:\22\VA - Now 100 Hits Classic Rock (2019) [FLAC CD]\CD4\15. Ted Nugent - Stranglehold.wav

Peak level 99.7 %
Extraction speed 8.3 X
Track quality 99.9 %
Test CRC C953C19A
Copy CRC C953C19A
Track not present in AccurateRip database
Copy OK

Track 16

Filename L:\22\VA - Now 100 Hits Classic Rock (2019) [FLAC CD]\CD4\16. Yes - Roundabout.wav

Peak level 91.7 %
Extraction speed 9.7 X
Track quality 100.0 %
Test CRC 8FDF5855
Copy CRC 8FDF5855
Track not present in AccurateRip database
Copy OK

Track 17

Filename L:\22\VA - Now 100 Hits Classic Rock (2019) [FLAC CD]\CD4\17. Buffalo Springfield - For What It’s Worth.wav

Peak level 98.7 %
Extraction speed 8.6 X
Track quality 100.0 %
Test CRC 74DFAC5F
Copy CRC 74DFAC5F
Track not present in AccurateRip database
Copy OK


None of the tracks are present in the AccurateRip database

No errors occurred

End of status report

–– AcoustID Plugin V1.2.0

Total fingerprints: 17


–– CUETools DB Plugin V2.1.6

[CTDB TOCID: qe_8JxcoBq0murrd4DEuzWwXL34-] found
Submit result: qe_8JxcoBq0murrd4DEuzWwXL34- has been confirmed
Track | CTDB Status
1 | (6/6) Accurately ripped
2 | (6/6) Accurately ripped
3 | (6/6) Accurately ripped
4 | (6/6) Accurately ripped
5 | (6/6) Accurately ripped
6 | (6/6) Accurately ripped
7 | (6/6) Accurately ripped
8 | (6/6) Accurately ripped
9 | (6/6) Accurately ripped
10 | (6/6) Accurately ripped
11 | (6/6) Accurately ripped
12 | (6/6) Accurately ripped
13 | (6/6) Accurately ripped
14 | (6/6) Accurately ripped
15 | (6/6) Accurately ripped
16 | (6/6) Accurately ripped
17 | (6/6) Accurately ripped


==== Log checksum 78F1DF7386CCD078BD5BD679C3879191881872D04741262752B0922010D22C69 ====
Exact Audio Copy V1.3 from 2. September 2016

EAC extraction logfile from 3. July 2019, 13:27

Various Artists / Now - 100 Hits - Classic Rock

Used drive : ASUS DRW-24D5MT Adapter: 1 ID: 0

Read mode : Secure
Utilize accurate stream : Yes
Defeat audio cache : Yes
Make use of C2 pointers : No

Read offset correction : 6
Overread into Lead-In and Lead-Out : No
Fill up missing offset samples with silence : Yes
Delete leading and trailing silent blocks : No
Null samples used in CRC calculations : Yes
Used interface : Native Win32 interface for Win NT & 2000
Gap handling : Appended to previous track

Used output format : User Defined Encoder
Selected bitrate : 896 kBit/s
Quality : High
Add ID3 tag : No
Command line compressor : C:\Program Files (x86)\Exact Audio Copy\FLAC\FLAC.EXE
Additional command line options : -6 -V -T "ARTIST=%artist%" -T "TITLE=%title%" -T "ALBUM=%albumtitle%" -T "DATE=%year%" -T "TRACKNUMBER=%tracknr%" -T "GENRE=%genre%" -T "COMMENT=%comment%" -T "BAND=%albuminterpret%" -T "ALBUMARTIST=%albuminterpret%" -T "COMPOSER=%composer%" %haslyrics%–tag-from-file=LYRICS="%lyricsfile%"%haslyrics% -T "DISCNUMBER=%cdnumber%" -T "TOTALDISCS=%totalcds%" -T "TOTALTRACKS=%numtracks%" %hascover%–picture="%coverfile%"%hascover% %source% -o %dest%


TOC of the extracted CD

Track | Start | Length | Start sector | End sector
––––––––––––––––––––––––––––-
1 | 0:00.00 | 4:46.64 | 0 | 21513
2 | 4:46.64 | 4:29.28 | 21514 | 41716
3 | 9:16.17 | 4:39.63 | 41717 | 62704
4 | 13:56.05 | 2:31.36 | 62705 | 74065
5 | 16:27.41 | 3:33.62 | 74066 | 90102
6 | 20:01.28 | 2:18.53 | 90103 | 100505
7 | 22:20.06 | 4:00.28 | 100506 | 118533
8 | 26:20.34 | 3:56.64 | 118534 | 136297
9 | 30:17.23 | 3:46.37 | 136298 | 153284
10 | 34:03.60 | 4:07.10 | 153285 | 171819
11 | 38:10.70 | 4:32.47 | 171820 | 192266
12 | 42:43.42 | 3:28.26 | 192267 | 207892
13 | 46:11.68 | 3:55.13 | 207893 | 225530
14 | 50:07.06 | 4:26.40 | 225531 | 245520
15 | 54:33.46 | 2:58.70 | 245521 | 258940
16 | 57:32.41 | 3:45.33 | 258941 | 275848
17 | 61:17.74 | 3:39.29 | 275849 | 292302


Track 1

Filename L:\22\VA - Now 100 Hits Classic Rock (2019) [FLAC CD]\CD5\01. Reo Speedwagon - Can't Fight This Feeling.wav

Pre-gap length 0:00:02.00

Peak level 99.4 %
Extraction speed 4.2 X
Track quality 99.9 %
Test CRC 520E70AF
Copy CRC 520E70AF
Track not present in AccurateRip database
Copy OK

Track 2

Filename L:\22\VA - Now 100 Hits Classic Rock (2019) [FLAC CD]\CD5\02. The Animals - The House Of The Rising Sun.wav

Peak level 98.7 %
Extraction speed 5.3 X
Track quality 100.0 %
Test CRC 1FCB8789
Copy CRC 1FCB8789
Track not present in AccurateRip database
Copy OK

Track 3

Filename L:\22\VA - Now 100 Hits Classic Rock (2019) [FLAC CD]\CD5\03. Iggy Pop - The Passenger.wav

Peak level 98.7 %
Extraction speed 4.9 X
Track quality 99.9 %
Test CRC 363D2F16
Copy CRC 363D2F16
Track not present in AccurateRip database
Copy OK

Track 4

Filename L:\22\VA - Now 100 Hits Classic Rock (2019) [FLAC CD]\CD5\04. Mountain - Mississippi Queen.wav

Peak level 98.7 %
Extraction speed 5.6 X
Track quality 100.0 %
Test CRC 0684319B
Copy CRC 0684319B
Track not present in AccurateRip database
Copy OK

Track 5

Filename L:\22\VA - Now 100 Hits Classic Rock (2019) [FLAC CD]\CD5\05. Primal Scream - Rocks.wav

Peak level 98.7 %
Extraction speed 6.1 X
Track quality 100.0 %
Test CRC C6649663
Copy CRC C6649663
Track not present in AccurateRip database
Copy OK

Track 6

Filename L:\22\VA - Now 100 Hits Classic Rock (2019) [FLAC CD]\CD5\06. The Runaways - Cherry Bomb.wav

Peak level 90.9 %
Extraction speed 5.9 X
Track quality 100.0 %
Test CRC 4D042CFF
Copy CRC 4D042CFF
Track not present in AccurateRip database
Copy OK

Track 7

Filename L:\22\VA - Now 100 Hits Classic Rock (2019) [FLAC CD]\CD5\07. The Knack - My Sharona.wav

Peak level 88.8 %
Extraction speed 5.6 X
Track quality 99.9 %
Test CRC CFB40579
Copy CRC CFB40579
Track not present in AccurateRip database
Copy OK

Track 8

Filename L:\22\VA - Now 100 Hits Classic Rock (2019) [FLAC CD]\CD5\08. Robert Palmer - Addicted To Love.wav

Peak level 98.7 %
Extraction speed 7.0 X
Track quality 100.0 %
Test CRC B9012D85
Copy CRC B9012D85
Track not present in AccurateRip database
Copy OK

Track 9

Filename L:\22\VA - Now 100 Hits Classic Rock (2019) [FLAC CD]\CD5\09. Ramones - Baby, I Love You.wav

Peak level 98.8 %
Extraction speed 7.2 X
Track quality 100.0 %
Test CRC 965B4AF8
Copy CRC 965B4AF8
Track not present in AccurateRip database
Copy OK

Track 10

Filename L:\22\VA - Now 100 Hits Classic Rock (2019) [FLAC CD]\CD5\10. Roxy Music - Love Is The Drug.wav

Peak level 97.2 %
Extraction speed 7.5 X
Track quality 100.0 %
Test CRC F9B93C16
Copy CRC F9B93C16
Track not present in AccurateRip database
Copy OK

Track 11

Filename L:\22\VA - Now 100 Hits Classic Rock (2019) [FLAC CD]\CD5\11. Rush - Tom Sawyer.wav

Peak level 98.7 %
Extraction speed 7.8 X
Track quality 100.0 %
Test CRC DD239D13
Copy CRC DD239D13
Track not present in AccurateRip database
Copy OK

Track 12

Filename L:\22\VA - Now 100 Hits Classic Rock (2019) [FLAC CD]\CD5\12. The Stranglers - No More Heroes.wav

Peak level 98.8 %
Extraction speed 7.8 X
Track quality 100.0 %
Test CRC 77F07EAC
Copy CRC 77F07EAC
Track not present in AccurateRip database
Copy OK

Track 13

Filename L:\22\VA - Now 100 Hits Classic Rock (2019) [FLAC CD]\CD5\13. James Gang - Funk #49.wav

Peak level 100.0 %
Extraction speed 8.1 X
Track quality 100.0 %
Test CRC F4D028A8
Copy CRC F4D028A8
Track not present in AccurateRip database
Copy OK

Track 14

Filename L:\22\VA - Now 100 Hits Classic Rock (2019) [FLAC CD]\CD5\14. Janis Joplin - Piece Of My Heart.wav

Peak level 85.1 %
Extraction speed 8.5 X
Track quality 100.0 %
Test CRC 2D93F692
Copy CRC 2D93F692
Track not present in AccurateRip database
Copy OK

Track 15

Filename L:\22\VA - Now 100 Hits Classic Rock (2019) [FLAC CD]\CD5\15. Jefferson Airplane - Somebody To Love.wav

Peak level 98.7 %
Extraction speed 6.6 X
Track quality 99.9 %
Test CRC EA36429D
Copy CRC EA36429D
Track not present in AccurateRip database
Copy OK

Track 16

Filename L:\22\VA - Now 100 Hits Classic Rock (2019) [FLAC CD]\CD5\16. Status Quo - Caroline.wav

Peak level 98.7 %
Extraction speed 7.2 X
Track quality 99.9 %
Test CRC 9609FDBA
Copy CRC 9609FDBA
Track not present in AccurateRip database
Copy OK

Track 17

Filename L:\22\VA - Now 100 Hits Classic Rock (2019) [FLAC CD]\CD5\17. Stevie Ray Vaughan & Double Trouble - Pride And Joy.wav

Peak level 99.0 %
Extraction speed 8.8 X
Track quality 100.0 %
Test CRC CBF49304
Copy CRC CBF49304
Track not present in AccurateRip database
Copy OK


None of the tracks are present in the AccurateRip database

No errors occurred

End of status report

–– AcoustID Plugin V1.2.0

Total fingerprints: 17


–– CUETools DB Plugin V2.1.6

[CTDB TOCID: tU__TgYv46P4CtaGO3l8VmPQjqs-] found
Submit result: tU__TgYv46P4CtaGO3l8VmPQjqs- has been confirmed
Track | CTDB Status
1 | (5/5) Accurately ripped
2 | (5/5) Accurately ripped
3 | (5/5) Accurately ripped
4 | (5/5) Accurately ripped
5 | (5/5) Accurately ripped
6 | (5/5) Accurately ripped
7 | (5/5) Accurately ripped
8 | (5/5) Accurately ripped
9 | (5/5) Accurately ripped
10 | (5/5) Accurately ripped
11 | (5/5) Accurately ripped
12 | (5/5) Accurately ripped
13 | (5/5) Accurately ripped
14 | (5/5) Accurately ripped
15 | (5/5) Accurately ripped
16 | (5/5) Accurately ripped
17 | (4/5) Accurately ripped


==== Log checksum 0816F87B2816ED98FC275F8CFD0469A4AA5DA86E92AD0B2B565D16C61F319DFB ====
Exact Audio Copy V1.3 from 2. September 2016

EAC extraction logfile from 3. July 2019, 13:27

Various Artists / Now - 100 Hits - Classic Rock

Used drive : TSSTcorpCD/DVDW SH-S182D Adapter: 1 ID: 1

Read mode : Secure
Utilize accurate stream : Yes
Defeat audio cache : Yes
Make use of C2 pointers : No

Read offset correction : 6
Overread into Lead-In and Lead-Out : No
Fill up missing offset samples with silence : Yes
Delete leading and trailing silent blocks : No
Null samples used in CRC calculations : Yes
Used interface : Native Win32 interface for Win NT & 2000
Gap handling : Appended to previous track

Used output format : User Defined Encoder
Selected bitrate : 896 kBit/s
Quality : High
Add ID3 tag : No
Command line compressor : C:\Program Files (x86)\Exact Audio Copy\FLAC\FLAC.EXE
Additional command line options : -6 -V -T "ARTIST=%artist%" -T "TITLE=%title%" -T "ALBUM=%albumtitle%" -T "DATE=%year%" -T "TRACKNUMBER=%tracknr%" -T "GENRE=%genre%" -T "COMMENT=%comment%" -T "BAND=%albuminterpret%" -T "ALBUMARTIST=%albuminterpret%" -T "COMPOSER=%composer%" %haslyrics%–tag-from-file=LYRICS="%lyricsfile%"%haslyrics% -T "DISCNUMBER=%cdnumber%" -T "TOTALDISCS=%totalcds%" -T "TOTALTRACKS=%numtracks%" %hascover%–picture="%coverfile%"%hascover% %source% -o %dest%


TOC of the extracted CD

Track | Start | Length | Start sector | End sector
––––––––––––––––––––––––––––-
1 | 0:00.00 | 3:43.30 | 0 | 16754
2 | 3:43.30 | 4:18.11 | 16755 | 36115
3 | 8:01.41 | 4:02.05 | 36116 | 54270
4 | 12:03.46 | 3:31.74 | 54271 | 70169
5 | 15:35.45 | 3:25.30 | 70170 | 85574
6 | 19:01.00 | 4:47.20 | 85575 | 107119
7 | 23:48.20 | 3:07.72 | 107120 | 121216
8 | 26:56.17 | 3:36.38 | 121217 | 137454
9 | 30:32.55 | 3:55.71 | 137455 | 155150
10 | 34:28.51 | 3:22.02 | 155151 | 170302
11 | 37:50.53 | 4:38.69 | 170303 | 191221
12 | 42:29.47 | 4:25.73 | 191222 | 211169
13 | 46:55.45 | 3:39.17 | 211170 | 227611
14 | 50:34.62 | 3:44.40 | 227612 | 244451
15 | 54:19.27 | 4:03.03 | 244452 | 262679
16 | 58:22.30 | 5:33.59 | 262680 | 287713
17 | 63:56.14 | 8:34.49 | 287714 | 326312


Track 1

Filename L:\22\VA - Now 100 Hits Classic Rock (2019) [FLAC CD]\CD6\01. Nickelback - How You Remind Me.wav

Pre-gap length 0:00:02.00

Peak level 73.2 %
Extraction speed 4.2 X
Track quality 99.9 %
Test CRC 8E24E56C
Copy CRC 8E24E56C
Track not present in AccurateRip database
Copy OK

Track 2

Filename L:\22\VA - Now 100 Hits Classic Rock (2019) [FLAC CD]\CD6\02. Whitesnake - Fool For Loving You.wav

Peak level 98.8 %
Extraction speed 5.2 X
Track quality 100.0 %
Test CRC F561746E
Copy CRC F561746E
Track not present in AccurateRip database
Copy OK

Track 3

Filename L:\22\VA - Now 100 Hits Classic Rock (2019) [FLAC CD]\CD6\03. Bob Seger & The Silver Bullet Band - American Storm.wav

Peak level 79.2 %
Extraction speed 5.6 X
Track quality 100.0 %
Test CRC 84BD6EE6
Copy CRC 84BD6EE6
Track not present in AccurateRip database
Copy OK

Track 4

Filename L:\22\VA - Now 100 Hits Classic Rock (2019) [FLAC CD]\CD6\04. Toto - Hold The Line.wav

Peak level 99.0 %
Extraction speed 5.8 X
Track quality 100.0 %
Test CRC 9FCE4CF3
Copy CRC 9FCE4CF3
Track not present in AccurateRip database
Copy OK

Track 5

Filename L:\22\VA - Now 100 Hits Classic Rock (2019) [FLAC CD]\CD6\05. Rainbow - I Surrender.wav

Peak level 95.3 %
Extraction speed 6.1 X
Track quality 100.0 %
Test CRC 7D3C20CC
Copy CRC 7D3C20CC
Track not present in AccurateRip database
Copy OK

Track 6

Filename L:\22\VA - Now 100 Hits Classic Rock (2019) [FLAC CD]\CD6\06. Billy Idol - Rebel Yell.wav

Pre-gap length 0:00:00.01

Peak level 98.7 %
Extraction speed 6.6 X
Track quality 100.0 %
Test CRC 6641C780
Copy CRC 6641C780
Track not present in AccurateRip database
Copy OK

Track 7

Filename L:\22\VA - Now 100 Hits Classic Rock (2019) [FLAC CD]\CD6\07. The Edgar Winter Group - Free Ride.wav

Peak level 98.7 %
Extraction speed 6.5 X
Track quality 100.0 %
Test CRC 2AFE3D61
Copy CRC 2AFE3D61
Track not present in AccurateRip database
Copy OK

Track 8

Filename L:\22\VA - Now 100 Hits Classic Rock (2019) [FLAC CD]\CD6\08. Steve Miller Band - The Joker.wav

Peak level 98.7 %
Extraction speed 6.9 X
Track quality 100.0 %
Test CRC 98B856D3
Copy CRC 98B856D3
Track not present in AccurateRip database
Copy OK

Track 9

Filename L:\22\VA - Now 100 Hits Classic Rock (2019) [FLAC CD]\CD6\09. Thunderclap Newman - Something In The Air.wav

Peak level 98.7 %
Extraction speed 7.2 X
Track quality 100.0 %
Test CRC 60A6CED4
Copy CRC 60A6CED4
Track not present in AccurateRip database
Copy OK

Track 10

Filename L:\22\VA - Now 100 Hits Classic Rock (2019) [FLAC CD]\CD6\10. Argent - God Gave Rock And Roll To You.wav

Peak level 93.7 %
Extraction speed 7.2 X
Track quality 100.0 %
Test CRC 9DBF47D4
Copy CRC 9DBF47D4
Track not present in AccurateRip database
Copy OK

Track 11

Filename L:\22\VA - Now 100 Hits Classic Rock (2019) [FLAC CD]\CD6\11. The Velvet Underground - I'm Waiting For The Man.wav

Peak level 98.7 %
Extraction speed 7.9 X
Track quality 100.0 %
Test CRC 2EDB1EA3
Copy CRC 2EDB1EA3
Track not present in AccurateRip database
Copy OK

Track 12

Filename L:\22\VA - Now 100 Hits Classic Rock (2019) [FLAC CD]\CD6\12. Slade - Cum On Feel The Noize.wav

Peak level 98.9 %
Extraction speed 8.0 X
Track quality 100.0 %
Test CRC B91A9338
Copy CRC B91A9338
Track not present in AccurateRip database
Copy OK

Track 13

Filename L:\22\VA - Now 100 Hits Classic Rock (2019) [FLAC CD]\CD6\13. T. Rex - 20th Century Boy.wav

Peak level 82.9 %
Extraction speed 8.1 X
Track quality 100.0 %
Test CRC 7C74640A
Copy CRC 7C74640A
Track not present in AccurateRip database
Copy OK

Track 14

Filename L:\22\VA - Now 100 Hits Classic Rock (2019) [FLAC CD]\CD6\14. Kiss - Crazy Crazy Nights.wav

Peak level 97.6 %
Extraction speed 8.3 X
Track quality 100.0 %
Test CRC 21FA70FE
Copy CRC 21FA70FE
Track not present in AccurateRip database
Copy OK

Track 15

Filename L:\22\VA - Now 100 Hits Classic Rock (2019) [FLAC CD]\CD6\15. Electric Light Orchestra - Don't Bring Me Down.wav

Peak level 98.8 %
Extraction speed 7.6 X
Track quality 99.9 %
Test CRC C114D495
Copy CRC C114D495
Track not present in AccurateRip database
Copy OK

Track 16

Filename L:\22\VA - Now 100 Hits Classic Rock (2019) [FLAC CD]\CD6\16. U2 - New Year's Day.wav

Peak level 98.7 %
Extraction speed 9.2 X
Track quality 100.0 %
Test CRC 16209992
Copy CRC 16209992
Track not present in AccurateRip database
Copy OK

Track 17

Filename L:\22\VA - Now 100 Hits Classic Rock (2019) [FLAC CD]\CD6\17. The Who - Won't Get Fooled Again.wav

Peak level 74.4 %
Extraction speed 9.8 X
Track quality 100.0 %
Test CRC 92316AFF
Copy CRC 92316AFF
Track not present in AccurateRip database
Copy OK


None of the tracks are present in the AccurateRip database

No errors occurred

End of status report

–– AcoustID Plugin V1.2.0

Total fingerprints: 17


–– CUETools DB Plugin V2.1.6

[CTDB TOCID: qyzQXrnkTI_zelqVU7A8IJ283Gc-] found
Submit result: qyzQXrnkTI_zelqVU7A8IJ283Gc- has been confirmed
Track | CTDB Status
1 | (4/4) Accurately ripped
2 | (4/4) Accurately ripped
3 | (4/4) Accurately ripped
4 | (4/4) Accurately ripped
5 | (4/4) Accurately ripped
6 | (4/4) Accurately ripped
7 | (4/4) Accurately ripped
8 | (4/4) Accurately ripped
9 | (4/4) Accurately ripped
10 | (4/4) Accurately ripped
11 | (4/4) Accurately ripped
12 | (4/4) Accurately ripped
13 | (4/4) Accurately ripped
14 | (4/4) Accurately ripped
15 | (4/4) Accurately ripped
16 | (4/4) Accurately ripped
17 | (4/4) Accurately ripped


==== Log checksum 1AD5133530A475A00DBECF87C732FCA28FF59B0297A81A1A42C219AD8C561B74 ====

Thanks to the Original ripper !