Subcategories
Tags
Language
Tags

VA - Nicola Conte presents Viagem 4: Lost Bossa and Samba Jazz Classics from the Swinging Brazilian '60s (2012)

Posted By: aasana
VA - Nicola Conte presents Viagem 4: Lost Bossa and Samba Jazz Classics from the Swinging Brazilian '60s (2012)

VA - Nicola Conte presents Viagem 4: Lost Bossa and Samba Jazz Classics from the Swinging Brazilian '60s (2012)
EAC Rip | FLAC (tracks+.cue) | 00:40:38 | 264,12 MB
Bossa Nova, Samba, Latin Jazz | Label: Far Out Recordings

Italian producer, DJ, and musician Nicola Conte continues his exploration of swinging Brazilian sounds with the collection Viagem 4. The Viagem series digs into the Blue Note, Universal, and Schema label vaults – this time selecting 17 tracks spanning 1962 to 1970 – homing in on the bossa nova and samba jazz sounds that made Brazil the ultimate destination for cool, exotic sophistication. Though none of the performers is a household name, Brazilian music fans will recognize many of the tracks as works by some of the country's most respected composers, from classics like Myrzo Barroso's sensual, swaggering take on Baden Powell and Vinícius de Moraes' "Consolaçao," Bossa Jazz 3's hip, piano-led play on João Donato's "Outra Vez," and Quarteto de Bruno Solis' vibrant version of Edú Lobo's "Upa Neguinho" to lesser-known compositions by Brazil's finest (Luiz Bonfá's "Saudade Vem Correndo," rendered here by Bossa Nova + 5, Marcos Valle's "Batucada Surgiu" as reinterpreted by Marcos Moran, and Antonio Carlos Jobim and de Moraes' "O Morro Não Tem Vez" via Quarteto 004). And it wouldn't be Brazilian music without some fun and surprise, like singer Anilza Leoni's infectious, cinematic "Balumba" and Bwana Trio's buoyant cover of jazzman Neal Hefti's "Cute." For a laid-back summer night, mix up a caipirinha, throw on your Havaianas, and lounge by the pool with Viagem 4 as your soundtrack.

01. 7 De Ouros - So Balanço (2:38)
02. Myrzo Barroso - Consolação (2:36)
03. Quarteto 004 - O morro não tem vez (2:02)
04. Bossa Jazz 3 - Outra vez (2:21)
05. Luli - Ballero (2:45)
06. Anilza Leoni - Balumba (2:48)
07. Bwana Trio - Cute (2:04)
08. Shirley e o Tuca Trio - Gusto do que é bom (1:51)
09. Betinho Do Vibraphone - Pandeiro triste (2:04)
10. As Compositoras - Ponto de vista (2:24)
11. Luiz Henrique and Os Copa 5 - Samba novo (2:03)
12. Quarteto De Saba - Prá que chorar (2:58)
13. Marcos Moran - Batucada surgiu (2:18)
14. Quarteto de Bruno Solis - Upa neguinho (2:07)
15. Bossa Nova + 5 - Saudade vem correndo (2:46)
16. Gilda Horta - Litoral (2:15)
17. Rosana Tapajos - Te quero assim (2:38)

Exact Audio Copy V1.1 from 23. June 2015

EAC extraction logfile from 15. June 2016, 12:12

Various Artists / Nicola Conte Presents Viagem 4: Lost Bossa and Samba Jazz Classics from the Swinging Brazilian 60s

Used drive : PIONEER DVD-RW DVR-116D Adapter: 1 ID: 0

Read mode : Secure
Utilize accurate stream : Yes
Defeat audio cache : Yes
Make use of C2 pointers : No

Read offset correction : 96
Overread into Lead-In and Lead-Out : No
Fill up missing offset samples with silence : Yes
Delete leading and trailing silent blocks : No
Null samples used in CRC calculations : Yes
Used interface : Native Win32 interface for Win NT & 2000
Gap handling : Appended to previous track

Used output format : User Defined Encoder
Selected bitrate : 768 kBit/s
Quality : High
Add ID3 tag : No
Command line compressor : C:\Program Files\Exact Audio Copy\FLAC\FLAC.EXE
Additional command line options : -6 -V -T "ARTIST=%artist%" -T "TITLE=%title%" -T "ALBUM=%albumtitle%" -T "DATE=%year%" -T "TRACKNUMBER=%tracknr%" -T "GENRE=%genre%" -T "COMMENT=%comment%" -T "BAND=%albuminterpret%" -T "ALBUMARTIST=%albuminterpret%" -T "COMPOSER=%composer%" %haslyrics%–tag-from-file=LYRICS="%lyricsfile%"%haslyrics% -T "DISCNUMBER=%cdnumber%" -T "TOTALDISCS=%totalcds%" -T "TOTALTRACKS=%numtracks%" %hascover%–picture="%coverfile%"%hascover% %source% -o %dest%


TOC of the extracted CD

Track | Start | Length | Start sector | End sector
––––––––––––––––––––––––––––-
1 | 0:00.00 | 2:38.24 | 0 | 11873
2 | 2:38.24 | 2:35.60 | 11874 | 23558
3 | 5:14.09 | 2:02.04 | 23559 | 32712
4 | 7:16.13 | 2:21.29 | 32713 | 43316
5 | 9:37.42 | 2:45.15 | 43317 | 55706
6 | 12:22.57 | 2:48.31 | 55707 | 68337
7 | 15:11.13 | 2:03.61 | 68338 | 77623
8 | 17:14.74 | 1:51.26 | 77624 | 85974
9 | 19:06.25 | 2:04.26 | 85975 | 95300
10 | 21:10.51 | 2:24.29 | 95301 | 106129
11 | 23:35.05 | 2:02.69 | 106130 | 115348
12 | 25:37.74 | 2:57.55 | 115349 | 128678
13 | 28:35.54 | 2:17.49 | 128679 | 139002
14 | 30:53.28 | 2:07.12 | 139003 | 148539
15 | 33:00.40 | 2:45.65 | 148540 | 160979
16 | 35:46.30 | 2:14.42 | 160980 | 171071
17 | 38:00.72 | 2:38.01 | 171072 | 182922


Track 1

Filename G:\Muzak - FLAC\VA - Nicola Conte Presents Viagem 4 - Lost Bossa and Samba Jazz Classics from the Swinging Brazilian 60s (2012)\01 - 7 De Ouros - So Balanço.wav

Pre-gap length 0:00:02.00

Peak level 97.6 %
Extraction speed 3.9 X
Track quality 100.0 %
Test CRC 9FB46D4D
Copy CRC 9FB46D4D
Accurately ripped (confidence 3) [09F6D58C] (AR v2)
Copy OK

Track 2

Filename G:\Muzak - FLAC\VA - Nicola Conte Presents Viagem 4 - Lost Bossa and Samba Jazz Classics from the Swinging Brazilian 60s (2012)\02 - Myrzo Barroso - Consolação.wav

Peak level 100.0 %
Extraction speed 4.2 X
Track quality 100.0 %
Test CRC 3550C653
Copy CRC 3550C653
Accurately ripped (confidence 3) [8F7724FF] (AR v2)
Copy OK

Track 3

Filename G:\Muzak - FLAC\VA - Nicola Conte Presents Viagem 4 - Lost Bossa and Samba Jazz Classics from the Swinging Brazilian 60s (2012)\03 - Quarteto 004 - O morro não tem vez.wav

Peak level 96.9 %
Extraction speed 4.2 X
Track quality 100.0 %
Test CRC BE1CF832
Copy CRC BE1CF832
Accurately ripped (confidence 3) [5E1B2D90] (AR v2)
Copy OK

Track 4

Filename G:\Muzak - FLAC\VA - Nicola Conte Presents Viagem 4 - Lost Bossa and Samba Jazz Classics from the Swinging Brazilian 60s (2012)\04 - Bossa Jazz 3 - Outra vez.wav

Peak level 97.1 %
Extraction speed 3.8 X
Track quality 99.9 %
Test CRC A6C369AE
Copy CRC A6C369AE
Accurately ripped (confidence 3) [BF3A825F] (AR v2)
Copy OK

Track 5

Filename G:\Muzak - FLAC\VA - Nicola Conte Presents Viagem 4 - Lost Bossa and Samba Jazz Classics from the Swinging Brazilian 60s (2012)\05 - Luli - Ballero.wav

Peak level 97.7 %
Extraction speed 4.9 X
Track quality 100.0 %
Test CRC FC333DD6
Copy CRC FC333DD6
Accurately ripped (confidence 3) [F20C716B] (AR v2)
Copy OK

Track 6

Filename G:\Muzak - FLAC\VA - Nicola Conte Presents Viagem 4 - Lost Bossa and Samba Jazz Classics from the Swinging Brazilian 60s (2012)\06 - Anilza Leoni - Balumba.wav

Peak level 97.9 %
Extraction speed 5.1 X
Track quality 100.0 %
Test CRC A5884EA1
Copy CRC A5884EA1
Accurately ripped (confidence 3) [DA0996D7] (AR v2)
Copy OK

Track 7

Filename G:\Muzak - FLAC\VA - Nicola Conte Presents Viagem 4 - Lost Bossa and Samba Jazz Classics from the Swinging Brazilian 60s (2012)\07 - Bwana Trio - Cute.wav

Peak level 97.4 %
Extraction speed 4.1 X
Track quality 99.9 %
Test CRC 174AC0BC
Copy CRC 174AC0BC
Accurately ripped (confidence 3) [49240049] (AR v2)
Copy OK

Track 8

Filename G:\Muzak - FLAC\VA - Nicola Conte Presents Viagem 4 - Lost Bossa and Samba Jazz Classics from the Swinging Brazilian 60s (2012)\08 - Shirley e o Tuca Trio - Gusto do que é bom.wav

Peak level 98.6 %
Extraction speed 5.0 X
Track quality 100.0 %
Test CRC FCD1047B
Copy CRC FCD1047B
Accurately ripped (confidence 3) [13B83096] (AR v2)
Copy OK

Track 9

Filename G:\Muzak - FLAC\VA - Nicola Conte Presents Viagem 4 - Lost Bossa and Samba Jazz Classics from the Swinging Brazilian 60s (2012)\09 - Betinho Do Vibraphone - Pandeiro triste.wav

Peak level 97.8 %
Extraction speed 5.3 X
Track quality 100.0 %
Test CRC 877B95C1
Copy CRC 877B95C1
Accurately ripped (confidence 3) [D5F1408C] (AR v2)
Copy OK

Track 10

Filename G:\Muzak - FLAC\VA - Nicola Conte Presents Viagem 4 - Lost Bossa and Samba Jazz Classics from the Swinging Brazilian 60s (2012)\10 - As Compositoras - Ponto de vista.wav

Peak level 97.6 %
Extraction speed 4.7 X
Track quality 99.9 %
Test CRC 9C78EFA8
Copy CRC 9C78EFA8
Accurately ripped (confidence 3) [EB8CB84C] (AR v2)
Copy OK

Track 11

Filename G:\Muzak - FLAC\VA - Nicola Conte Presents Viagem 4 - Lost Bossa and Samba Jazz Classics from the Swinging Brazilian 60s (2012)\11 - Luiz Henrique and Os Copa 5 - Samba novo.wav

Peak level 100.0 %
Extraction speed 5.5 X
Track quality 100.0 %
Test CRC 19F91D95
Copy CRC 19F91D95
Accurately ripped (confidence 3) [DA3E4E08] (AR v2)
Copy OK

Track 12

Filename G:\Muzak - FLAC\VA - Nicola Conte Presents Viagem 4 - Lost Bossa and Samba Jazz Classics from the Swinging Brazilian 60s (2012)\12 - Quarteto De Saba - Prá que chorar.wav

Peak level 98.1 %
Extraction speed 6.1 X
Track quality 100.0 %
Test CRC CEBB0EE1
Copy CRC CEBB0EE1
Accurately ripped (confidence 3) [96A167B4] (AR v2)
Copy OK

Track 13

Filename G:\Muzak - FLAC\VA - Nicola Conte Presents Viagem 4 - Lost Bossa and Samba Jazz Classics from the Swinging Brazilian 60s (2012)\13 - Marcos Moran - Batucada surgiu.wav

Peak level 97.3 %
Extraction speed 5.9 X
Track quality 100.0 %
Test CRC C5971501
Copy CRC C5971501
Accurately ripped (confidence 3) [E21909DA] (AR v2)
Copy OK

Track 14

Filename G:\Muzak - FLAC\VA - Nicola Conte Presents Viagem 4 - Lost Bossa and Samba Jazz Classics from the Swinging Brazilian 60s (2012)\14 - Quarteto de Bruno Solis - Upa neguinho.wav

Peak level 98.3 %
Extraction speed 4.9 X
Track quality 99.9 %
Test CRC 3DE46AF1
Copy CRC 3DE46AF1
Accurately ripped (confidence 3) [6F004D83] (AR v2)
Copy OK

Track 15

Filename G:\Muzak - FLAC\VA - Nicola Conte Presents Viagem 4 - Lost Bossa and Samba Jazz Classics from the Swinging Brazilian 60s (2012)\15 - Bossa Nova + 5 - Saudade vem correndo.wav

Peak level 97.3 %
Extraction speed 6.5 X
Track quality 100.0 %
Test CRC F96BC366
Copy CRC F96BC366
Accurately ripped (confidence 3) [6767C657] (AR v2)
Copy OK

Track 16

Filename G:\Muzak - FLAC\VA - Nicola Conte Presents Viagem 4 - Lost Bossa and Samba Jazz Classics from the Swinging Brazilian 60s (2012)\16 - Gilda Horta - Litoral.wav

Peak level 96.6 %
Extraction speed 6.3 X
Track quality 100.0 %
Test CRC 29C14AA8
Copy CRC 29C14AA8
Accurately ripped (confidence 3) [E9AD0269] (AR v2)
Copy OK

Track 17

Filename G:\Muzak - FLAC\VA - Nicola Conte Presents Viagem 4 - Lost Bossa and Samba Jazz Classics from the Swinging Brazilian 60s (2012)\17 - Rosana Tapajos - Te quero assim.wav

Peak level 96.2 %
Extraction speed 5.3 X
Track quality 99.9 %
Test CRC 4FDAE0B6
Copy CRC 4FDAE0B6
Accurately ripped (confidence 3) [41B1FE29] (AR v2)
Copy OK


All tracks accurately ripped

No errors occurred

End of status report

–– CUETools DB Plugin V2.1.6

[CTDB TOCID: gihbnsZk4VffHvM3kadRFCLi42s-] found
Submit result: gihbnsZk4VffHvM3kadRFCLi42s- has been confirmed
Track | CTDB Status
1 | (3/3) Accurately ripped
2 | (3/3) Accurately ripped
3 | (3/3) Accurately ripped
4 | (3/3) Accurately ripped
5 | (3/3) Accurately ripped
6 | (3/3) Accurately ripped
7 | (3/3) Accurately ripped
8 | (3/3) Accurately ripped
9 | (3/3) Accurately ripped
10 | (3/3) Accurately ripped
11 | (3/3) Accurately ripped
12 | (3/3) Accurately ripped
13 | (3/3) Accurately ripped
14 | (3/3) Accurately ripped
15 | (3/3) Accurately ripped
16 | (3/3) Accurately ripped
17 | (3/3) Accurately ripped


==== Log checksum 328DD6E70AE45739BE0F8749D22A469D0D95DDBD38D3AA2B61C5B40DD0F44EDD ====