Tags
Language
Tags

Tom Misch & Yussef Dayes - What Kinda Music (2020)

Posted By: delpotro
Tom Misch & Yussef Dayes - What Kinda Music (2020)

Tom Misch & Yussef Dayes - What Kinda Music (2020)
EAC Rip | FLAC (tracks+log+.cue) - 249 Mb | MP3 CBR 320 kbps - 104 Mb | 00:45:07
Nu Jazz, Jazz-Funk, Fusion, Neo-Soul | Label: Beyond the Groove, Blue Note Records

Tom Misch & Yussef Dayes What Kinda Music is a masterful collaboration between two artists of very different disciplines, and one of the most unique and seamlessly original projects of its ilk to date. Moving fluidly through sleek electronica, progressive jazz, vintage hip-hop and so much more, Misch and Dayes take their listener on a ride that is by turns surprising and spontaneous, heady and head-spinning, and nothing less than compelling – a singular vision that fuses the DNA of both musicians with spectacular results.

Even though the fundamental bones of the album came together very quickly, its actual provenance stretches much further back with the pair not only growing up in the same area of South East London, but Misch actually seeing Dayes play on drums in the school talent show for the first time when he was 9. It was only when they went into a studio in the summer of 2018 however, following a chance meeting at a party for Misch’s Geography LP, that the proverbial creative sparks began to fly.

What made the pair click, according to Misch and Dayes, were the exact same factors that meant it shouldn’t by all rights work. Misch says, “Yussef comes from a more experimental background, and he has a lot of loose, crazy ideas. I know how to write a catchy melody, but with interesting chords and I have a good understanding of popular song forms, so I think I streamlined those ideas and made them accessible”.

Throughout the record, there is an utterly joyful feel of two musicians at the top of their game sparking off one another, picking up ideas and running with them – zigging where the other zags, ebbing where the other flows, with Misch producing the majority of the record and both having a hand in the overall sound and feel of the record. In fact, Dayes says that the intentions of the record go even deeper than just music. “Both our parents who’d never met each other before, are now best friends as a result of this – they now see each other more than we do! I’d like to think, in some small way, that this album has a similar impact for people too – everything feels so divided these days, it would be nice for people to hear the record and hear two very different musicians coming together and realize it doesn’t have to be that way”.
Tracklist:
1. What Kinda Music (03:50)
2. Festival (04:42)
3. Nightrider (feat. Freddie Gibbs) (05:00)
4. Tidal Wave (04:09)
5. Sensational (01:24)
6. The Real (02:41)
7. Lift Off (feat. Rocco Palladino) (05:18)
8. I Did It For You (04:01)
9. Last 100 (04:00)
10. Kyiv (03:30)
11. Julie Mangos (03:17)
12. Storm Before The Calm (feat. Kaidi Akinnibi) (03:05)

Exact Audio Copy V1.3 from 2. September 2016

EAC extraction logfile from 30. April 2020, 18:57

Tom Misch & Yussef Dayes / What Kinda Music

Used drive : ASUS DRW-24F1ST d Adapter: 1 ID: 0

Read mode : Secure
Utilize accurate stream : Yes
Defeat audio cache : Yes
Make use of C2 pointers : No

Read offset correction : 6
Overread into Lead-In and Lead-Out : No
Fill up missing offset samples with silence : Yes
Delete leading and trailing silent blocks : No
Null samples used in CRC calculations : Yes
Used interface : Native Win32 interface for Win NT & 2000
Gap handling : Appended to previous track

Used output format : User Defined Encoder
Selected bitrate : 1024 kBit/s
Quality : High
Add ID3 tag : No
Command line compressor : C:\Program Files (x86)\Exact Audio Copy\Flac\flac.exe
Additional command line options : -8 -e -p -V -T "ARTIST=%artist%" -T "TITLE=%title%" -T "ALBUM=%albumtitle%" -T "DATE=%year%" -T "TRACKNUMBER=%tracknr%" -T "GENRE=%genre%" -T "PERFORMER=%albuminterpret%" -T "COMPOSER=%composer%" %haslyrics%–tag-from-file=LYRICS="%lyricsfile%"%haslyrics% -T "ALBUMARTIST=%albumartist%" -T "DISCNUMBER=%cdnumber%" -T "TOTALDISCS=%totalcds%" -T "TOTALTRACKS=%numtracks%" -T "COMMENT=%comment%" %source% -o %dest%


TOC of the extracted CD

Track | Start | Length | Start sector | End sector
––––––––––––––––––––––––––––-
1 | 0:00.00 | 3:51.23 | 0 | 17347
2 | 3:51.23 | 4:42.30 | 17348 | 38527
3 | 8:33.53 | 5:01.00 | 38528 | 61102
4 | 13:34.53 | 4:09.32 | 61103 | 79809
5 | 17:44.10 | 1:24.69 | 79810 | 86178
6 | 19:09.04 | 2:41.67 | 86179 | 98320
7 | 21:50.71 | 5:18.70 | 98321 | 122240
8 | 27:09.66 | 4:01.57 | 122241 | 140372
9 | 31:11.48 | 4:00.25 | 140373 | 158397
10 | 35:11.73 | 3:30.07 | 158398 | 174154
11 | 38:42.05 | 3:17.08 | 174155 | 188937
12 | 41:59.13 | 3:07.70 | 188938 | 203032


Track 1

Filename H:\Torrents\Media\Tom Misch & Yussef Dayes - What Kinda Music [Beyond the Groove 2812124273] (FLAC)\01 - Tom Misch & Yussef Dayes - What Kinda Music.wav

Pre-gap length 0:00:02.00

Peak level 98.8 %
Extraction speed 1.0 X
Track quality 100.0 %
Test CRC 80E2BE14
Copy CRC 80E2BE14
Track not present in AccurateRip database
Copy OK

Track 2

Filename H:\Torrents\Media\Tom Misch & Yussef Dayes - What Kinda Music [Beyond the Groove 2812124273] (FLAC)\02 - Tom Misch & Yussef Dayes - Festival.wav

Peak level 100.0 %
Extraction speed 1.2 X
Track quality 100.0 %
Test CRC 2032A309
Copy CRC 2032A309
Track not present in AccurateRip database
Copy OK

Track 3

Filename H:\Torrents\Media\Tom Misch & Yussef Dayes - What Kinda Music [Beyond the Groove 2812124273] (FLAC)\03 - Tom Misch & Yussef Dayes feat. Freddie Gibbs - Nightrider.wav

Peak level 98.8 %
Extraction speed 1.3 X
Track quality 100.0 %
Test CRC F129D318
Copy CRC F129D318
Track not present in AccurateRip database
Copy OK

Track 4

Filename H:\Torrents\Media\Tom Misch & Yussef Dayes - What Kinda Music [Beyond the Groove 2812124273] (FLAC)\04 - Tom Misch & Yussef Dayes - Tidal Wave.wav

Peak level 98.8 %
Extraction speed 1.4 X
Track quality 100.0 %
Test CRC D53FA8D0
Copy CRC D53FA8D0
Track not present in AccurateRip database
Copy OK

Track 5

Filename H:\Torrents\Media\Tom Misch & Yussef Dayes - What Kinda Music [Beyond the Groove 2812124273] (FLAC)\05 - Tom Misch & Yussef Dayes - Sensational.wav

Peak level 98.8 %
Extraction speed 1.1 X
Track quality 100.0 %
Test CRC 914C73A1
Copy CRC 914C73A1
Track not present in AccurateRip database
Copy OK

Track 6

Filename H:\Torrents\Media\Tom Misch & Yussef Dayes - What Kinda Music [Beyond the Groove 2812124273] (FLAC)\06 - Tom Misch & Yussef Dayes - The Real.wav

Peak level 98.8 %
Extraction speed 1.4 X
Track quality 100.0 %
Test CRC 2CAB82BE
Copy CRC 2CAB82BE
Track not present in AccurateRip database
Copy OK

Track 7

Filename H:\Torrents\Media\Tom Misch & Yussef Dayes - What Kinda Music [Beyond the Groove 2812124273] (FLAC)\07 - Tom Misch & Yussef Dayes feat. Rocco Palladino - Lift Off.wav

Peak level 98.8 %
Extraction speed 1.6 X
Track quality 100.0 %
Test CRC 89933421
Copy CRC 89933421
Track not present in AccurateRip database
Copy OK

Track 8

Filename H:\Torrents\Media\Tom Misch & Yussef Dayes - What Kinda Music [Beyond the Groove 2812124273] (FLAC)\08 - Tom Misch & Yussef Dayes - I Did It for You.wav

Peak level 98.9 %
Extraction speed 1.7 X
Track quality 100.0 %
Test CRC 41B46020
Copy CRC 41B46020
Track not present in AccurateRip database
Copy OK

Track 9

Filename H:\Torrents\Media\Tom Misch & Yussef Dayes - What Kinda Music [Beyond the Groove 2812124273] (FLAC)\09 - Tom Misch & Yussef Dayes - Last 100.wav

Peak level 98.8 %
Extraction speed 1.5 X
Track quality 99.9 %
Test CRC 9AA7E53B
Copy CRC 9AA7E53B
Track not present in AccurateRip database
Copy OK

Track 10

Filename H:\Torrents\Media\Tom Misch & Yussef Dayes - What Kinda Music [Beyond the Groove 2812124273] (FLAC)\10 - Tom Misch & Yussef Dayes - Kyiv.wav

Peak level 98.8 %
Extraction speed 1.8 X
Track quality 100.0 %
Test CRC 5C98DB36
Copy CRC 5C98DB36
Track not present in AccurateRip database
Copy OK

Track 11

Filename H:\Torrents\Media\Tom Misch & Yussef Dayes - What Kinda Music [Beyond the Groove 2812124273] (FLAC)\11 - Tom Misch & Yussef Dayes - Julie Mangos.wav

Peak level 98.8 %
Extraction speed 1.8 X
Track quality 100.0 %
Test CRC E9B53561
Copy CRC E9B53561
Track not present in AccurateRip database
Copy OK

Track 12

Filename H:\Torrents\Media\Tom Misch & Yussef Dayes - What Kinda Music [Beyond the Groove 2812124273] (FLAC)\12 - Tom Misch & Yussef Dayes feat. Kaidi Akinnibi - Storm Before the Calm.wav

Peak level 98.8 %
Extraction speed 1.6 X
Track quality 99.9 %
Test CRC 5F8E2ADE
Copy CRC 5F8E2ADE
Track not present in AccurateRip database
Copy OK


None of the tracks are present in the AccurateRip database

No errors occurred

End of status report

–– CUETools DB Plugin V2.1.6

[CTDB TOCID: aviwtblaITN7mF5.F64gayM7Zpc-] found
Submit result: aviwtblaITN7mF5.F64gayM7Zpc- has been confirmed
Track | CTDB Status
1 | (1/1) Accurately ripped
2 | (1/1) Accurately ripped
3 | (1/1) Accurately ripped
4 | (1/1) Accurately ripped
5 | (1/1) Accurately ripped
6 | (1/1) Accurately ripped
7 | (1/1) Accurately ripped
8 | (1/1) Accurately ripped
9 | (1/1) Accurately ripped
10 | (1/1) Accurately ripped
11 | (1/1) Accurately ripped
12 | (1/1) Accurately ripped


==== Log checksum 356EFF889FF063BDE73F0F92D3BE0F273BCA14DC28DBA074A71D33A8A1B2E631 ====

Thanks to the Original ripper !