Subcategories

Tiken Jah Fakoly - Live In Paris (2008) {Wrasse Records WRASS230}

Posted By: ruskaval
Tiken Jah Fakoly - Live In Paris (2008) {Wrasse Records WRASS230}

Tiken Jah Fakoly - Live In Paris (2008) {Wrasse Records WRASS230}
EAC rip (secure mode) | FLAC (tracks)+CUE+LOG -> 549 Mb | MP3 @320 -> 190 Mb
Full Artwork @ 600 dpi (jpg) -> 169 Mb | 5% repair rar
© 2008 Wrasse Records / Universal | WRASS 230
Reggae / Worldbeat / African Traditions / West African

Live a Paris in Super Jewel Box showcases one of the best reggae artists alive. His authentic revolutionary music that fights for the rights of his people at the level of Marley and many other geniuses of the last century it's no wonder Fakoly is so well recognized and respected.
Tiken Jah Fakoly - Live In Paris (2008) {Wrasse Records WRASS230}

Following in the footsteps of his musical mentor, Alpha Blondy,Tiken Jah Fakoly has established himself as one of the figureheads of the new reggae scene in Africa. Fusing hisinfectious reggae beat with hard-hitting lyrics, Fakoly has become a spokesperson for an entire generation of music fans, speaking out on political and social issues through his songs. His huge success in France, where he has sold over 100,000 albums has propelled him to currently be the Best selling African Reggae artist. Born, Doumbia Moussa Fakoly, in a village in the north-west of Ivory Coast on 23 June 1968. The Fakoly family belong to the griot caste. The African griots are the storytellers/musicians who guard the oral tradition of their people, their region and the most important families living there, recounting stories and legends through their music. As a young boy, Tiken developed a passionate interest in music, but he did not actually put his passion into practice until after the death of his father. Tiken's music soon crossed national borders and spread to Europe and it was not long before he started making a name for himself in the 'world' music capital, Paris.
Tiken Jah Fakoly - Live In Paris (2008) {Wrasse Records WRASS230}


Track Listing

01 - Medley (Discrimination, Les Martyrs, Y En A Marre, Baba, Africa)
02 - Ca Va Faire Mal
03 - Justice
04 - Foly
05 - Le Balayeur
06 - Plus Rien Ne M'etonne
07 - L'Africain
08 - Fou
09 - Viens Voir
10 - Ohba Ohba
11 - Tonton d'America
12 - Ayebada
13 - Gauche Droite
14 - Ouvrez Les Frontieres
15 - Africain a Paris
16 - Delivrance
17 - Francafrique

Exact Audio Copy V1.0 beta 2 from 29. April 2011

EAC extraction logfile from 5. March 2012, 20:36

Tiken Jah Fakoly / Live a Paris

Used drive : PLEXTOR DVDR PX-L890SA Adapter: 2 ID: 1

Read mode : Secure
Utilize accurate stream : Yes
Defeat audio cache : Yes
Make use of C2 pointers : No

Read offset correction : 6
Overread into Lead-In and Lead-Out : No
Fill up missing offset samples with silence : Yes
Delete leading and trailing silent blocks : No
Null samples used in CRC calculations : Yes
Used interface : Native Win32 interface for Win NT & 2000
Gap handling : Appended to previous track

Used output format : User Defined Encoder
Selected bitrate : 256 kBit/s
Quality : High
Add ID3 tag : No
Command line compressor : C:\Program Files (x86)\Exact Audio Copy\FLAC\FLAC.EXE
Additional command line options : -8 -V -T "ARTIST=%artist%" -T "TITLE=%title%" -T "ALBUM=%albumtitle%" -T "DATE=%year%" -T "TRACKNUMBER=%tracknr%" -T "TOTALTRACKS=%numtracks%" -T "GENRE=%genre%" -T "ALBUMARTIST=%albumartist%" -T "ALBUM ARTIST=%albumartist%


TOC of the extracted CD

Track | Start | Length | Start sector | End sector
––––––––––––––––––––––––––––-
1 | 0:00.00 | 4:43.12 | 0 | 21236
2 | 4:43.12 | 3:51.55 | 21237 | 38616
3 | 8:34.67 | 3:45.55 | 38617 | 55546
4 | 12:20.47 | 4:07.04 | 55547 | 74075
5 | 16:27.51 | 5:10.28 | 74076 | 97353
6 | 21:38.04 | 7:27.27 | 97354 | 130905
7 | 29:05.31 | 4:04.65 | 130906 | 149270
8 | 33:10.21 | 3:54.34 | 149271 | 166854
9 | 37:04.55 | 3:53.43 | 166855 | 184372
10 | 40:58.23 | 4:01.66 | 184373 | 202513
11 | 45:00.14 | 5:00.63 | 202514 | 225076
12 | 50:01.02 | 5:02.69 | 225077 | 247795
13 | 55:03.71 | 5:10.53 | 247796 | 271098
14 | 60:14.49 | 4:30.28 | 271099 | 291376
15 | 64:45.02 | 4:46.60 | 291377 | 312886
16 | 69:31.62 | 4:00.70 | 312887 | 330956
17 | 73:32.57 | 5:43.62 | 330957 | 356743


Track 1

Filename F:\Flac Rips\01 - Medley (Discrimination, Les Martyrs, Y En A Marre, Baba, Africa).wav

Pre-gap length 0:00:02.00

Peak level 97.7 %
Extraction speed 3.3 X
Track quality 99.9 %
Test CRC A6AEB62E
Copy CRC A6AEB62E
Cannot be verified as accurate (confidence 6) [EA460F4C], AccurateRip returned [FBEDFB29] (AR v2)
Copy OK

Track 2

Filename F:\Flac Rips\02 - Ca Va Faire Mal.wav

Peak level 97.7 %
Extraction speed 3.4 X
Track quality 99.9 %
Test CRC D46EA24B
Copy CRC D46EA24B
Cannot be verified as accurate (confidence 5) [556C11C5], AccurateRip returned [3ECCB7A8] (AR v2)
Copy OK

Track 3

Filename F:\Flac Rips\03 - Justice.wav

Peak level 97.7 %
Extraction speed 3.6 X
Track quality 99.9 %
Test CRC D289D738
Copy CRC D289D738
Cannot be verified as accurate (confidence 5) [3138EEC2], AccurateRip returned [59C9C918] (AR v2)
Copy OK

Track 4

Filename F:\Flac Rips\04 - Foly.wav

Peak level 97.7 %
Extraction speed 4.9 X
Track quality 100.0 %
Test CRC D096C5A5
Copy CRC D096C5A5
Cannot be verified as accurate (confidence 5) [CBA550CC], AccurateRip returned [3FA53E63] (AR v2)
Copy OK

Track 5

Filename F:\Flac Rips\05 - Le Balayeur.wav

Peak level 97.7 %
Extraction speed 5.4 X
Track quality 100.0 %
Test CRC 14A12AB6
Copy CRC 14A12AB6
Cannot be verified as accurate (confidence 5) [D5B57AEA], AccurateRip returned [576E587F] (AR v2)
Copy OK

Track 6

Filename F:\Flac Rips\06 - Plus Rien Ne M'etonne.wav

Peak level 97.7 %
Extraction speed 6.0 X
Track quality 100.0 %
Test CRC DCF6783F
Copy CRC DCF6783F
Cannot be verified as accurate (confidence 4) [2154FCB4], AccurateRip returned [58C1294C] (AR v2)
Copy OK

Track 7

Filename F:\Flac Rips\07 - L'Africain.wav

Peak level 97.7 %
Extraction speed 6.0 X
Track quality 100.0 %
Test CRC D78569B5
Copy CRC D78569B5
Cannot be verified as accurate (confidence 5) [CB415034], AccurateRip returned [93BDE5EB] (AR v2)
Copy OK

Track 8

Filename F:\Flac Rips\08 - Fou.wav

Peak level 97.7 %
Extraction speed 6.2 X
Track quality 100.0 %
Test CRC C1F1C96B
Copy CRC C1F1C96B
Cannot be verified as accurate (confidence 5) [14D2571F], AccurateRip returned [8C52DC69] (AR v2)
Copy OK

Track 9

Filename F:\Flac Rips\09 - Viens Voir.wav

Peak level 97.7 %
Extraction speed 6.4 X
Track quality 100.0 %
Test CRC D5D94D0A
Copy CRC D5D94D0A
Cannot be verified as accurate (confidence 5) [32002A87], AccurateRip returned [B01A7013] (AR v2)
Copy OK

Track 10

Filename F:\Flac Rips\10 - Ohba Ohba.wav

Peak level 97.7 %
Extraction speed 6.6 X
Track quality 100.0 %
Test CRC 85A5DF4B
Copy CRC 85A5DF4B
Cannot be verified as accurate (confidence 5) [82367D57], AccurateRip returned [38243063] (AR v2)
Copy OK

Track 11

Filename F:\Flac Rips\11 - Tonton d'America.wav

Peak level 97.7 %
Extraction speed 7.1 X
Track quality 100.0 %
Test CRC 4AA1436D
Copy CRC 4AA1436D
Cannot be verified as accurate (confidence 5) [15419D72], AccurateRip returned [E3E16397] (AR v2)
Copy OK

Track 12

Filename F:\Flac Rips\12 - Ayebada.wav

Peak level 97.7 %
Extraction speed 7.3 X
Track quality 100.0 %
Test CRC 7741F0F0
Copy CRC 7741F0F0
Cannot be verified as accurate (confidence 5) [FF53EC36], AccurateRip returned [6D0CEF56] (AR v2)
Copy OK

Track 13

Filename F:\Flac Rips\13 - Gauche Droite.wav

Peak level 97.7 %
Extraction speed 7.5 X
Track quality 100.0 %
Test CRC AFB505EF
Copy CRC AFB505EF
Cannot be verified as accurate (confidence 5) [9EAED35C], AccurateRip returned [72CA5238] (AR v2)
Copy OK

Track 14

Filename F:\Flac Rips\14 - Ouvrez Les Frontieres.wav

Peak level 97.7 %
Extraction speed 7.7 X
Track quality 100.0 %
Test CRC F600A24F
Copy CRC F600A24F
Cannot be verified as accurate (confidence 5) [C024AFC9], AccurateRip returned [E71DEACC] (AR v2)
Copy OK

Track 15

Filename F:\Flac Rips\15 - Africain a Paris.wav

Peak level 97.7 %
Extraction speed 6.4 X
Track quality 99.9 %
Test CRC B8ED165E
Copy CRC B8ED165E
Cannot be verified as accurate (confidence 5) [07A7FB3E], AccurateRip returned [E1C754EE] (AR v2)
Copy OK

Track 16

Filename F:\Flac Rips\16 - Delivrance.wav

Peak level 99.7 %
Extraction speed 7.8 X
Track quality 100.0 %
Test CRC BEBCC60D
Copy CRC BEBCC60D
Cannot be verified as accurate (confidence 5) [8F433403], AccurateRip returned [EDCF3A7B] (AR v2)
Copy OK

Track 17

Filename F:\Flac Rips\17 - Francafrique.wav

Peak level 97.7 %
Extraction speed 8.5 X
Track quality 100.0 %
Test CRC 6B8A137E
Copy CRC 6B8A137E
Cannot be verified as accurate (confidence 5) [5047F031], AccurateRip returned [3A4BB87D] (AR v2)
Copy OK


No tracks could be verified as accurate
You may have a different pressing from the one(s) in the database

No errors occurred

End of status report

==== Log checksum 3D7AA8124BE15CF0D6AFAB83402A823635E22D7B802586D41E0EA13B9F8280ED ====


Tiken Jah Fakoly - Live In Paris (2008) {Wrasse Records WRASS230}

Tiken Jah Fakoly - Live In Paris (2008) {Wrasse Records WRASS230}



===