Tags
Language
Tags
October 2022
Su Mo Tu We Th Fr Sa
25 26 27 28 29 30 1
2 3 4 5 6 7 8
9 10 11 12 13 14 15
16 17 18 19 20 21 22
23 24 25 26 27 28 29
30 31 1 2 3 4 5

The Shanes - Let Them Show You, The Anthology 1964-1967 (2014) {Columbia--RPM International ‎Retro 950}

Posted By: ruskaval
The Shanes - Let Them Show You, The Anthology 1964-1967 (2014) {Columbia--RPM International ‎Retro 950}

The Shanes - Let Them Show You, The Anthology 1964-1967 (2014) {Columbia–RPM International ‎Retro 950}
EAC rip (secure mode) | FLAC (tracks)+CUE+LOG -> 243 Mb | MP3 @320 -> 126 Mb
Full Artwork @ 300 dpi (jpg) -> 7 Mb | 5% repair rar
© 1964-67, 2014 Columbia / RPM International ‎| Retro 950
Rock / British Invasion / Beat

2014 collection from the Swedish band. The Shanes - alongside Hep Stars, Ola & Janglers and Tages - were one of Sweden's big four '60s bands. More than a Swedish Yardbirds, from roughly hewn R&B to pop, they retained an edge which always thrilled. They had the longest hair of any of Sweden's bands and were dubbed 'degenerate' by the Swedish press. LET THEM SHOW YOU: THE ANTHOLOGY 1964-67 takes it's picks from The Shanes' golden years, from 1964's growling 'Let Me Show You Who I Am' to the classic pop of 1967's Abbey Road-recorded 'Chris Craft No. 9'. This release is the first Shanes collection to be issued outside Sweden.

Tracklist
01. Let Me Show You Who I Am
02. Say You Want Me
03. Come On Sally
04. The Shanegang
05. My Lover Baby
06. I Don t Want Your Love
07. Crazy County Hop
08. It s Allright Babe
09. Roadrunner
10. Don t Try To Make A Fool Of Me
11. I Won t Untie You
12. She s Ashamed Of Me
13. A Young Man
14. People Don t Like Me
15. Where Can She Be
16. Blue Feeling
17. Like Before
18. Why Should I Cry
19. When Love Is Gone
20. Chris Craft No. 9
21. You ll Never Know
22. I ve Got It Bad

Tracks 1-5 from Let Us Show You! Columbia SSX1011, 1964
Track 6 from Columbia single DS2264, 1965
Track 7 from Columbia single DS2271, 1965
Track 8 from Columbia single DS2278, 1965
Track 9 from Shanes-Moonlighters Live! Columbia EP SEGS138, 1965
Tracks 10-15 from The Shanegang Columbia SSX1020, 1965
Track 16 from Columbia single DS2295, 1966
Track 17 from Columbia single DS2327, 1966
Tracks 18-19 from Shanes Again! Columbia SSX1022, 1966
Track 20 from Columbia single DS2295, 1966
Tracks 21-22 from SSSS-Shanes Columbia SSX1026, 1967


Exact Audio Copy V1.2 from 12. August 2016

EAC extraction logfile from 17. August 2018, 8:29

The Shanes / Let Them Show You - The Anthology 1964-1967

Used drive : HL-DT-STDVD+-RW GU90N Adapter: 1 ID: 1

Read mode : Secure
Utilize accurate stream : Yes
Defeat audio cache : Yes
Make use of C2 pointers : No

Read offset correction : 102
Overread into Lead-In and Lead-Out : No
Fill up missing offset samples with silence : Yes
Delete leading and trailing silent blocks : No
Null samples used in CRC calculations : Yes
Used interface : Native Win32 interface for Win NT & 2000
Gap handling : Appended to previous track

Used output format : User Defined Encoder
Selected bitrate : 1024 kBit/s
Quality : High
Add ID3 tag : No
Command line compressor : C:\Program Files (x86)\Exact Audio Copy\Flac\flac.exe
Additional command line options : -8 -V -T "ARTIST=%artist%" -T "TITLE=%title%" -T "ALBUM=%albumtitle%" -T "DATE=%year%" -T "TRACKNUMBER=%tracknr%" -T "GENRE=%genre%" -T "PERFORMER=%albuminterpret%" -T "COMPOSER=%composer%" %haslyrics%–tag-from-file=LYRICS="%lyricsfile%"%haslyrics% -T "ALBUMARTIST=%albumartist%" -T "DISCNUMBER=%cdnumber%" -T "TOTALDISCS=%totalcds%" -T "TOTALTRACKS=%numtracks%" -T "COMMENT=%comment%" %source% -o %dest%


TOC of the extracted CD

Track | Start | Length | Start sector | End sector
––––––––––––––––––––––––––––-
1 | 0:00.00 | 2:28.16 | 0 | 11115
2 | 2:28.16 | 2:07.32 | 11116 | 20672
3 | 4:35.48 | 2:23.20 | 20673 | 31417
4 | 6:58.68 | 2:24.33 | 31418 | 42250
5 | 9:23.26 | 2:07.07 | 42251 | 51782
6 | 11:30.33 | 2:20.01 | 51783 | 62283
7 | 13:50.34 | 3:17.65 | 62284 | 77123
8 | 17:08.24 | 2:11.49 | 77124 | 86997
9 | 19:19.73 | 2:20.11 | 86998 | 97508
10 | 21:40.09 | 2:33.65 | 97509 | 109048
11 | 24:13.74 | 3:06.47 | 109049 | 123045
12 | 27:20.46 | 2:32.27 | 123046 | 134472
13 | 29:52.73 | 2:50.27 | 134473 | 147249
14 | 32:43.25 | 2:21.39 | 147250 | 157863
15 | 35:04.64 | 2:20.32 | 157864 | 168395
16 | 37:25.21 | 2:39.56 | 168396 | 180376
17 | 40:05.02 | 2:06.57 | 180377 | 189883
18 | 42:11.59 | 2:39.51 | 189884 | 201859
19 | 44:51.35 | 2:31.74 | 201860 | 213258
20 | 47:23.34 | 2:08.17 | 213259 | 222875
21 | 49:31.51 | 1:36.14 | 222876 | 230089
22 | 51:07.65 | 2:39.52 | 230090 | 242066


Track 1

Filename C:\Users\ian\Desktop\The Shanes - Let Them Show You The Anthology (1964-67) [FLAC]\01 - Let me show you who I am.wav

Pre-gap length 0:00:02.00

Peak level 96.6 %
Extraction speed 1.0 X
Track quality 100.0 %
Test CRC 49F30171
Copy CRC 49F30171
Copy OK

Track 2

Filename C:\Users\ian\Desktop\The Shanes - Let Them Show You The Anthology (1964-67) [FLAC]\02 - Say you want me.wav

Pre-gap length 0:00:02.00

Peak level 96.6 %
Extraction speed 1.0 X
Track quality 100.0 %
Test CRC 5FED2CAC
Copy CRC 5FED2CAC
Copy OK

Track 3

Filename C:\Users\ian\Desktop\The Shanes - Let Them Show You The Anthology (1964-67) [FLAC]\03 - Come on Sally.wav

Pre-gap length 0:00:02.00

Peak level 96.6 %
Extraction speed 1.1 X
Track quality 100.0 %
Test CRC E7D6252E
Copy CRC E7D6252E
Copy OK

Track 4

Filename C:\Users\ian\Desktop\The Shanes - Let Them Show You The Anthology (1964-67) [FLAC]\04 - The Shanegang.wav

Pre-gap length 0:00:02.00

Peak level 96.6 %
Extraction speed 0.9 X
Track quality 99.9 %
Test CRC 997587A1
Copy CRC 997587A1
Copy OK

Track 5

Filename C:\Users\ian\Desktop\The Shanes - Let Them Show You The Anthology (1964-67) [FLAC]\05 - My lover baby.wav

Pre-gap length 0:00:02.00

Peak level 96.6 %
Extraction speed 1.2 X
Track quality 100.0 %
Test CRC 9641EB07
Copy CRC 9641EB07
Copy OK

Track 6

Filename C:\Users\ian\Desktop\The Shanes - Let Them Show You The Anthology (1964-67) [FLAC]\06 - I don't want your love.wav

Pre-gap length 0:00:02.00

Peak level 96.6 %
Extraction speed 1.3 X
Track quality 100.0 %
Test CRC 44FAC4C6
Copy CRC 44FAC4C6
Copy OK

Track 7

Filename C:\Users\ian\Desktop\The Shanes - Let Them Show You The Anthology (1964-67) [FLAC]\07 - Crazy county hop.wav

Pre-gap length 0:00:02.00

Peak level 96.6 %
Extraction speed 1.3 X
Track quality 99.9 %
Test CRC BE0FBA04
Copy CRC BE0FBA04
Copy OK

Track 8

Filename C:\Users\ian\Desktop\The Shanes - Let Them Show You The Anthology (1964-67) [FLAC]\08 - It's allright babe.wav

Pre-gap length 0:00:02.00

Peak level 96.6 %
Extraction speed 1.4 X
Track quality 100.0 %
Test CRC 288DAA84
Copy CRC 288DAA84
Copy OK

Track 9

Filename C:\Users\ian\Desktop\The Shanes - Let Them Show You The Anthology (1964-67) [FLAC]\09 - Roadrunner.wav

Pre-gap length 0:00:02.00

Peak level 96.6 %
Extraction speed 1.5 X
Track quality 100.0 %
Test CRC 91FA8E91
Copy CRC 91FA8E91
Copy OK

Track 10

Filename C:\Users\ian\Desktop\The Shanes - Let Them Show You The Anthology (1964-67) [FLAC]\10 - Don't try to make a fool of me.wav

Pre-gap length 0:00:02.00

Peak level 96.6 %
Extraction speed 1.6 X
Track quality 100.0 %
Test CRC 387A68C9
Copy CRC 387A68C9
Copy OK

Track 11

Filename C:\Users\ian\Desktop\The Shanes - Let Them Show You The Anthology (1964-67) [FLAC]\11 - I won't untie you.wav

Pre-gap length 0:00:02.00

Peak level 96.6 %
Extraction speed 1.7 X
Track quality 100.0 %
Test CRC F9A6C6E8
Copy CRC F9A6C6E8
Copy OK

Track 12

Filename C:\Users\ian\Desktop\The Shanes - Let Them Show You The Anthology (1964-67) [FLAC]\12 - She's ashamed of me.wav

Pre-gap length 0:00:02.00

Peak level 96.6 %
Extraction speed 1.4 X
Track quality 99.9 %
Test CRC 04F0262F
Copy CRC 04F0262F
Copy OK

Track 13

Filename C:\Users\ian\Desktop\The Shanes - Let Them Show You The Anthology (1964-67) [FLAC]\13 - A young man.wav

Pre-gap length 0:00:02.00

Peak level 96.6 %
Extraction speed 1.8 X
Track quality 100.0 %
Test CRC 0CF27BC0
Copy CRC 0CF27BC0
Copy OK

Track 14

Filename C:\Users\ian\Desktop\The Shanes - Let Them Show You The Anthology (1964-67) [FLAC]\14 - People don't like me.wav

Pre-gap length 0:00:02.00

Peak level 96.6 %
Extraction speed 1.8 X
Track quality 100.0 %
Test CRC 83CCBA3F
Copy CRC 83CCBA3F
Copy OK

Track 15

Filename C:\Users\ian\Desktop\The Shanes - Let Them Show You The Anthology (1964-67) [FLAC]\15 - Where can she be.wav

Pre-gap length 0:00:02.00

Peak level 96.6 %
Extraction speed 1.5 X
Track quality 99.9 %
Test CRC D709FF9C
Copy CRC D709FF9C
Copy OK

Track 16

Filename C:\Users\ian\Desktop\The Shanes - Let Them Show You The Anthology (1964-67) [FLAC]\16 - Blue feeling.wav

Pre-gap length 0:00:02.00

Peak level 96.6 %
Extraction speed 1.9 X
Track quality 100.0 %
Test CRC FB24CEA3
Copy CRC FB24CEA3
Copy OK

Track 17

Filename C:\Users\ian\Desktop\The Shanes - Let Them Show You The Anthology (1964-67) [FLAC]\17 - Like before.wav

Pre-gap length 0:00:02.00

Peak level 96.6 %
Extraction speed 1.9 X
Track quality 100.0 %
Test CRC EAE0ABC5
Copy CRC EAE0ABC5
Copy OK

Track 18

Filename C:\Users\ian\Desktop\The Shanes - Let Them Show You The Anthology (1964-67) [FLAC]\18 - Why should I cry.wav

Pre-gap length 0:00:02.00

Peak level 96.6 %
Extraction speed 1.7 X
Track quality 99.9 %
Test CRC 636BF833
Copy CRC 636BF833
Copy OK

Track 19

Filename C:\Users\ian\Desktop\The Shanes - Let Them Show You The Anthology (1964-67) [FLAC]\19 - When love is gone.wav

Pre-gap length 0:00:02.00

Peak level 96.6 %
Extraction speed 2.0 X
Track quality 100.0 %
Test CRC 3AC14DFD
Copy CRC 3AC14DFD
Copy OK

Track 20

Filename C:\Users\ian\Desktop\The Shanes - Let Them Show You The Anthology (1964-67) [FLAC]\20 - Chris craft no. 9.wav

Pre-gap length 0:00:02.00

Peak level 96.6 %
Extraction speed 2.0 X
Track quality 100.0 %
Test CRC 59CB510A
Copy CRC 59CB510A
Copy OK

Track 21

Filename C:\Users\ian\Desktop\The Shanes - Let Them Show You The Anthology (1964-67) [FLAC]\21 - You'll never know.wav

Pre-gap length 0:00:02.00

Peak level 96.6 %
Extraction speed 1.8 X
Track quality 100.0 %
Test CRC F485DA68
Copy CRC F485DA68
Copy OK

Track 22

Filename C:\Users\ian\Desktop\The Shanes - Let Them Show You The Anthology (1964-67) [FLAC]\22 - I've got it bad.wav

Pre-gap length 0:00:02.00

Peak level 96.6 %
Extraction speed 1.8 X
Track quality 99.9 %
Test CRC BEA9679A
Copy CRC BEA9679A
Copy OK

No errors occurred

End of status report

–– CUETools DB Plugin V2.1.6

[CTDB TOCID: 02A.4w.qeUPlPivu_RSDpgOhKFA-] found
Submit result: 02A.4w.qeUPlPivu_RSDpgOhKFA- has been confirmed
Track | CTDB Status
1 | (3/3) Accurately ripped
2 | (3/3) Accurately ripped
3 | (3/3) Accurately ripped
4 | (3/3) Accurately ripped
5 | (3/3) Accurately ripped
6 | (3/3) Accurately ripped
7 | (3/3) Accurately ripped
8 | (3/3) Accurately ripped
9 | (3/3) Accurately ripped
10 | (3/3) Accurately ripped
11 | (3/3) Accurately ripped
12 | (3/3) Accurately ripped
13 | (3/3) Accurately ripped
14 | (3/3) Accurately ripped
15 | (3/3) Accurately ripped
16 | (3/3) Accurately ripped
17 | (3/3) Accurately ripped
18 | (3/3) Accurately ripped
19 | (3/3) Accurately ripped
20 | (3/3) Accurately ripped
21 | (3/3) Accurately ripped
22 | (3/3) Accurately ripped


==== Log checksum 7D99158AFE777AD8A1DA2F70A820AFD0E3DFDB7E916A9E8A172F46CFF817A29A ====


The Shanes - Let Them Show You, The Anthology 1964-1967 (2014) {Columbia--RPM International ‎Retro 950}

The Shanes - Let Them Show You, The Anthology 1964-1967 (2014) {Columbia--RPM International ‎Retro 950}



===