Subcategories
Tags
Language
Tags

Suede - Beautiful Ones: The Best Of Suede 1992 - 2018 (2020)

Posted By: delpotro
Suede - Beautiful Ones: The Best Of Suede 1992 - 2018 (2020)

Suede - Beautiful Ones: The Best Of Suede 1992 - 2018 (2020)
XLD Rip | FLAC (tracks+log+.cue) - 1,6 Gb | MP3 CBR 320 kbps - 572 Mb | 04:09:47
Alternative Rock, Indie Rock, Britpop | Label: Edsel Records

Demon Music are releasing a new Suede compilation called Beautiful Ones: The Best of Suede 1992-2018 which will be available as a 4CD, 6LP vinyl and 2LPs packages.

The original era (1993 to 2002) saw the band issue five albums including their Mercury music prize-winning self-titled debut (1993), the even better follow-up Dog Man Star (1994) and then after the departure of guitarist and songwriter Bernard Butler, three further albums including the hit-packed Coming Up (1996). The 2003 collection Singles summarised this period and included a couple of non album tracks, including the single ‘Attitude’.

Since reforming in 2010, the band have issued three further albums with Night Thoughts (2016) and The Blue Hour (2018), in particular, scaling the artistic heights once more.

This new Beautiful Ones compilation has been compiled by the band, and features hits (‘Animal Nitrate’, ‘Stay Together’, ‘Trash’) , favourite B-sides (‘To The Birds’, ‘My Insatiable One’, ‘Killing Of A Flashboy’) and classic album tracks (‘The Asphalt World’, ‘He’s Gone’). It obviously brings things up to date by including tracks from the last three records, including ‘Life is Golden’, ‘It Starts And Ends With You’ and ‘Outsiders’.
Tracklist:
1-1 The Drowners
1-2 Metal Mickey
1-3 Animal Nitrate
1-4 So Young
1-5 Stay Together
1-6 We Are The Pigs
1-7 The Wild Ones
1-8 New Generation
1-9 Trash
1-10 Filmstar
1-11 Lazy
1-12 Beautiful Ones
1-13 Saturday Night
2-1 Electricity
2-2 She's In Fashion
2-3 Everything Will Flow
2-4 Can't Get Enough
2-5 Obsessions
2-6 Barriers
2-7 It Starts And Ends With You
2-8 For The Strangers
2-9 Outsiders
2-10 Wastelands
2-11 Life Is Golden
2-12 The Invisibles
3-1 To The Birds
3-2 My Insatiable One
3-3 He's Dead
3-4 The Big Time
3-5 Pantomime Horse
3-6 Sleeping Pills
3-7 The Next Life
3-8 High Rising
3-9 My Dark Star
3-10 The Living Dead
3-11 Killing Of A Flashboy
3-12 Heroine
3-13 This Hollywood Life
3-14 The 2 Of Us
3-15 The Asphalt World
3-16 Still Life
4-1 Europe Is Our Playground
4-2 She
4-3 By The Sea
4-4 He's Gone
4-5 Indian Strings
4-6 Oceans
4-7 Snowblind
4-8 Sabotage
4-9 Sometimes I Feel I'll Float Away
4-10 Pale Snow
4-11 I Don't Know How To Reach You
4-12 Tightrope
4-13 As One
4-14 All The Wild Places
4-15 Flytipping

X Lossless Decoder version 20191004 (152.0)

XLD extraction logfile from 2020-10-10 15:46:53 +0200

Suede / Beautiful Ones: The Best Of Suede 1992 – 2018

Used drive : HL-DT-ST DVDRAM GP90EB70 (revision RC00)
Media type : Pressed CD

Ripper mode : XLD Secure Ripper
Disable audio cache : OK for the drive with a cache less than 1375KiB
Make use of C2 pointers : NO
Read offset correction : 6
Max retry count : 100
Gap status : Analyzed, Appended (except HTOA)

TOC of the extracted CD
Track | Start | Length | Start sector | End sector
––––––––––––––––––––––––––––-
1 | 00:00:00 | 04:10:41 | 0 | 18790
2 | 04:10:41 | 03:28:08 | 18791 | 34398
3 | 07:38:49 | 03:28:01 | 34399 | 49999
4 | 11:06:50 | 03:40:67 | 50000 | 66566
5 | 14:47:42 | 07:23:60 | 66567 | 99851
6 | 22:11:27 | 04:22:61 | 99852 | 119562
7 | 26:34:13 | 04:46:07 | 119563 | 141019
8 | 31:20:20 | 04:37:41 | 141020 | 161835
9 | 35:57:61 | 04:07:62 | 161836 | 180422
10 | 40:05:48 | 03:25:56 | 180423 | 195853
11 | 43:31:29 | 03:18:06 | 195854 | 210709
12 | 46:49:35 | 03:51:60 | 210710 | 228094
13 | 50:41:20 | 04:31:14 | 228095 | 248433

AccurateRip Summary
Disc not found in AccurateRip DB.

All Tracks
Album gain : -10.13 dB
Peak : 0.943939
Statistics
Read error : 0
Jitter error (maybe fixed) : 0
Retry sector count : 0
Damaged sector count : 0

Track 01
Filename : /Volumes/LaCieD2 1 DL/Suede -2020- Beautiful Ones - The Best Of Suede 1992 – 2018 (FLAC)/CD1/01 - The Drowners.flac
Pre-gap length : 00:02:00

Track gain : -9.94 dB
Peak : 0.927887
CRC32 hash (test run) : E55F72BD
CRC32 hash : E55F72BD
CRC32 hash (skip zero) : C3970229
AccurateRip v1 signature : 8D959B6B
AccurateRip v2 signature : 13C7DE9A
->Track not present in AccurateRip database.
Statistics
Read error : 0
Jitter error (maybe fixed) : 0
Retry sector count : 0
Damaged sector count : 0

Track 02
Filename : /Volumes/LaCieD2 1 DL/Suede -2020- Beautiful Ones - The Best Of Suede 1992 – 2018 (FLAC)/CD1/02 - Metal Mickey.flac

Track gain : -10.10 dB
Peak : 0.943939
CRC32 hash (test run) : 921D506B
CRC32 hash : 921D506B
CRC32 hash (skip zero) : 3EF9F1D1
AccurateRip v1 signature : 0952E360
AccurateRip v2 signature : F5AF34CF
->Track not present in AccurateRip database.
Statistics
Read error : 0
Jitter error (maybe fixed) : 0
Retry sector count : 0
Damaged sector count : 0

Track 03
Filename : /Volumes/LaCieD2 1 DL/Suede -2020- Beautiful Ones - The Best Of Suede 1992 – 2018 (FLAC)/CD1/03 - Animal Nitrate.flac

Track gain : -11.16 dB
Peak : 0.943939
CRC32 hash (test run) : 70E68B0F
CRC32 hash : 70E68B0F
CRC32 hash (skip zero) : 12B12475
AccurateRip v1 signature : 35388C0C
AccurateRip v2 signature : DDA87D00
->Track not present in AccurateRip database.
Statistics
Read error : 0
Jitter error (maybe fixed) : 0
Retry sector count : 0
Damaged sector count : 0

Track 04
Filename : /Volumes/LaCieD2 1 DL/Suede -2020- Beautiful Ones - The Best Of Suede 1992 – 2018 (FLAC)/CD1/04 - So Young.flac

Track gain : -10.38 dB
Peak : 0.943939
CRC32 hash (test run) : 9A7904A9
CRC32 hash : 9A7904A9
CRC32 hash (skip zero) : A4818189
AccurateRip v1 signature : B917B78F
AccurateRip v2 signature : 0FDD60D8
->Track not present in AccurateRip database.
Statistics
Read error : 0
Jitter error (maybe fixed) : 0
Retry sector count : 0
Damaged sector count : 0

Track 05
Filename : /Volumes/LaCieD2 1 DL/Suede -2020- Beautiful Ones - The Best Of Suede 1992 – 2018 (FLAC)/CD1/05 - Stay Together [Long Version].flac

Track gain : -9.87 dB
Peak : 0.943939
CRC32 hash (test run) : 27D0B939
CRC32 hash : 27D0B939
CRC32 hash (skip zero) : ECD7ADF8
AccurateRip v1 signature : 01C061C2
AccurateRip v2 signature : 0CD35E97
->Track not present in AccurateRip database.
Statistics
Read error : 0
Jitter error (maybe fixed) : 0
Retry sector count : 0
Damaged sector count : 0

Track 06
Filename : /Volumes/LaCieD2 1 DL/Suede -2020- Beautiful Ones - The Best Of Suede 1992 – 2018 (FLAC)/CD1/06 - We Are The Pigs.flac

Track gain : -10.09 dB
Peak : 0.943939
CRC32 hash (test run) : 79165313
CRC32 hash : 79165313
CRC32 hash (skip zero) : 57A10BED
AccurateRip v1 signature : 256DD2E4
AccurateRip v2 signature : D0FCDF96
->Track not present in AccurateRip database.
Statistics
Read error : 0
Jitter error (maybe fixed) : 0
Retry sector count : 0
Damaged sector count : 0

Track 07
Filename : /Volumes/LaCieD2 1 DL/Suede -2020- Beautiful Ones - The Best Of Suede 1992 – 2018 (FLAC)/CD1/07 - The Wild Ones.flac

Track gain : -9.85 dB
Peak : 0.943939
CRC32 hash (test run) : 34C135ED
CRC32 hash : 34C135ED
CRC32 hash (skip zero) : 2B4BC773
AccurateRip v1 signature : 951205EF
AccurateRip v2 signature : 101AE1AD
->Track not present in AccurateRip database.
Statistics
Read error : 0
Jitter error (maybe fixed) : 0
Retry sector count : 0
Damaged sector count : 0

Track 08
Filename : /Volumes/LaCieD2 1 DL/Suede -2020- Beautiful Ones - The Best Of Suede 1992 – 2018 (FLAC)/CD1/08 - New Generation.flac

Track gain : -8.31 dB
Peak : 0.943939
CRC32 hash (test run) : 6AB32B93
CRC32 hash : 6AB32B93
CRC32 hash (skip zero) : 363E8C9D
AccurateRip v1 signature : F621AA99
AccurateRip v2 signature : C7192EAB
->Track not present in AccurateRip database.
Statistics
Read error : 0
Jitter error (maybe fixed) : 0
Retry sector count : 0
Damaged sector count : 0

Track 09
Filename : /Volumes/LaCieD2 1 DL/Suede -2020- Beautiful Ones - The Best Of Suede 1992 – 2018 (FLAC)/CD1/09 - Trash.flac

Track gain : -11.80 dB
Peak : 0.943939
CRC32 hash (test run) : 86C05A6B
CRC32 hash : 86C05A6B
CRC32 hash (skip zero) : F30EADCD
AccurateRip v1 signature : CEA7D346
AccurateRip v2 signature : A28F833A
->Track not present in AccurateRip database.
Statistics
Read error : 0
Jitter error (maybe fixed) : 0
Retry sector count : 0
Damaged sector count : 0

Track 10
Filename : /Volumes/LaCieD2 1 DL/Suede -2020- Beautiful Ones - The Best Of Suede 1992 – 2018 (FLAC)/CD1/10 - Filmstar.flac

Track gain : -10.44 dB
Peak : 0.943939
CRC32 hash (test run) : 7CE9CC6E
CRC32 hash : 7CE9CC6E
CRC32 hash (skip zero) : FF6EEF17
AccurateRip v1 signature : A43D42B5
AccurateRip v2 signature : 70905B87
->Track not present in AccurateRip database.
Statistics
Read error : 0
Jitter error (maybe fixed) : 0
Retry sector count : 0
Damaged sector count : 0

Track 11
Filename : /Volumes/LaCieD2 1 DL/Suede -2020- Beautiful Ones - The Best Of Suede 1992 – 2018 (FLAC)/CD1/11 - Lazy.flac

Track gain : -10.23 dB
Peak : 0.943939
CRC32 hash (test run) : AD88FE9A
CRC32 hash : AD88FE9A
CRC32 hash (skip zero) : DDED0CBA
AccurateRip v1 signature : 114BF89E
AccurateRip v2 signature : CCB64000
->Track not present in AccurateRip database.
Statistics
Read error : 0
Jitter error (maybe fixed) : 0
Retry sector count : 0
Damaged sector count : 0

Track 12
Filename : /Volumes/LaCieD2 1 DL/Suede -2020- Beautiful Ones - The Best Of Suede 1992 – 2018 (FLAC)/CD1/12 - Beautiful Ones.flac

Track gain : -10.12 dB
Peak : 0.943939
CRC32 hash (test run) : 6B371669
CRC32 hash : 6B371669
CRC32 hash (skip zero) : FF98E260
AccurateRip v1 signature : 9CAED5E5
AccurateRip v2 signature : D3BDD423
->Track not present in AccurateRip database.
Statistics
Read error : 0
Jitter error (maybe fixed) : 0
Retry sector count : 0
Damaged sector count : 0

Track 13
Filename : /Volumes/LaCieD2 1 DL/Suede -2020- Beautiful Ones - The Best Of Suede 1992 – 2018 (FLAC)/CD1/13 - Saturday Night.flac

Track gain : -9.22 dB
Peak : 0.943939
CRC32 hash (test run) : CAF70E42
CRC32 hash : CAF70E42
CRC32 hash (skip zero) : 014B74A1
AccurateRip v1 signature : 6EFAA877
AccurateRip v2 signature : E75608BB
->Track not present in AccurateRip database.
Statistics
Read error : 0
Jitter error (maybe fixed) : 0
Retry sector count : 0
Damaged sector count : 0

No errors occurred

End of status report

––-BEGIN XLD SIGNATURE––-
BR.2I8_0GT6i2_E7SKbFhyrxks4g2WpnSvZJ4TlnW0_rXb4Q4OQzlOAZiQTFvyHqwlc2KAH8qulR1ASt.eegPxgB1VMjswEm3QklBsO
––-END XLD SIGNATURE––-
X Lossless Decoder version 20191004 (152.0)

XLD extraction logfile from 2020-10-10 16:11:02 +0200

Suede / Beautiful Ones: The Best Of Suede 1992 – 2018

Used drive : HL-DT-ST DVDRAM GP90EB70 (revision RC00)
Media type : Pressed CD

Ripper mode : XLD Secure Ripper
Disable audio cache : OK for the drive with a cache less than 1375KiB
Make use of C2 pointers : NO
Read offset correction : 6
Max retry count : 100
Gap status : Analyzed, Appended (except HTOA)

TOC of the extracted CD
Track | Start | Length | Start sector | End sector
––––––––––––––––––––––––––––-
1 | 00:00:00 | 04:38:63 | 0 | 20912
2 | 04:38:63 | 04:52:47 | 20913 | 42859
3 | 09:31:35 | 04:40:19 | 42860 | 63878
4 | 14:11:54 | 03:59:11 | 63879 | 81814
5 | 18:10:65 | 04:11:54 | 81815 | 100693
6 | 22:22:44 | 03:44:73 | 100694 | 117566
7 | 26:07:42 | 03:52:59 | 117567 | 135025
8 | 30:00:26 | 04:12:67 | 135026 | 153992
9 | 34:13:18 | 03:53:16 | 153993 | 171483
10 | 38:06:34 | 05:31:74 | 171484 | 196382
11 | 43:38:33 | 03:56:18 | 196383 | 214100
12 | 47:34:51 | 04:09:54 | 214101 | 232829

AccurateRip Summary
Disc not found in AccurateRip DB.

All Tracks
Album gain : -9.89 dB
Peak : 0.949951
Statistics
Read error : 0
Jitter error (maybe fixed) : 0
Retry sector count : 0
Damaged sector count : 0

Track 01
Filename : /Volumes/LaCieD2 1 DL/Suede -2020- Beautiful Ones - The Best Of Suede 1992 – 2018 (FLAC)/CD2/01 - Electricity.flac
Pre-gap length : 00:02:00

Track gain : -10.85 dB
Peak : 0.943939
CRC32 hash (test run) : F4ABBD20
CRC32 hash : F4ABBD20
CRC32 hash (skip zero) : B79CB6D4
AccurateRip v1 signature : 552DDD81
AccurateRip v2 signature : E258A0F9
->Track not present in AccurateRip database.
Statistics
Read error : 0
Jitter error (maybe fixed) : 0
Retry sector count : 0
Damaged sector count : 0

Track 02
Filename : /Volumes/LaCieD2 1 DL/Suede -2020- Beautiful Ones - The Best Of Suede 1992 – 2018 (FLAC)/CD2/02 - She’s In Fashion.flac

Track gain : -9.44 dB
Peak : 0.943939
CRC32 hash (test run) : B31DBBF6
CRC32 hash : B31DBBF6
CRC32 hash (skip zero) : D1E4AD43
AccurateRip v1 signature : 38868B19
AccurateRip v2 signature : 5DE3365C
->Track not present in AccurateRip database.
Statistics
Read error : 0
Jitter error (maybe fixed) : 0
Retry sector count : 0
Damaged sector count : 0

Track 03
Filename : /Volumes/LaCieD2 1 DL/Suede -2020- Beautiful Ones - The Best Of Suede 1992 – 2018 (FLAC)/CD2/03 - Everything Will Flow.flac

Track gain : -9.59 dB
Peak : 0.943939
CRC32 hash (test run) : ED474F34
CRC32 hash : ED474F34
CRC32 hash (skip zero) : 4E81AE7D
AccurateRip v1 signature : 59683697
AccurateRip v2 signature : 7DFE9616
->Track not present in AccurateRip database.
Statistics
Read error : 0
Jitter error (maybe fixed) : 0
Retry sector count : 0
Damaged sector count : 0

Track 04
Filename : /Volumes/LaCieD2 1 DL/Suede -2020- Beautiful Ones - The Best Of Suede 1992 – 2018 (FLAC)/CD2/04 - Can’t Get Enough.flac

Track gain : -10.55 dB
Peak : 0.943939
CRC32 hash (test run) : C06AFBD1
CRC32 hash : C06AFBD1
CRC32 hash (skip zero) : 5737DD81
AccurateRip v1 signature : 9F67EBAB
AccurateRip v2 signature : B5E8765F
->Track not present in AccurateRip database.
Statistics
Read error : 0
Jitter error (maybe fixed) : 0
Retry sector count : 0
Damaged sector count : 0

Track 05
Filename : /Volumes/LaCieD2 1 DL/Suede -2020- Beautiful Ones - The Best Of Suede 1992 – 2018 (FLAC)/CD2/05 - Obsessions.flac

Track gain : -10.21 dB
Peak : 0.943939
CRC32 hash (test run) : F37F41E0
CRC32 hash : F37F41E0
CRC32 hash (skip zero) : 8F08318C
AccurateRip v1 signature : 2A9CE992
AccurateRip v2 signature : 340B90E7
->Track not present in AccurateRip database.
Statistics
Read error : 0
Jitter error (maybe fixed) : 0
Retry sector count : 0
Damaged sector count : 0

Track 06
Filename : /Volumes/LaCieD2 1 DL/Suede -2020- Beautiful Ones - The Best Of Suede 1992 – 2018 (FLAC)/CD2/06 - Barriers.flac

Track gain : -10.76 dB
Peak : 0.943939
CRC32 hash (test run) : C949D518
CRC32 hash : C949D518
CRC32 hash (skip zero) : 3ADFB73F
AccurateRip v1 signature : D5576D25
AccurateRip v2 signature : 489EAEC2
->Track not present in AccurateRip database.
Statistics
Read error : 0
Jitter error (maybe fixed) : 0
Retry sector count : 0
Damaged sector count : 0

Track 07
Filename : /Volumes/LaCieD2 1 DL/Suede -2020- Beautiful Ones - The Best Of Suede 1992 – 2018 (FLAC)/CD2/07 - It Starts And Ends With You.flac

Track gain : -10.62 dB
Peak : 0.943939
CRC32 hash (test run) : D3A177EC
CRC32 hash : D3A177EC
CRC32 hash (skip zero) : 011C5E07
AccurateRip v1 signature : C7CF05E7
AccurateRip v2 signature : E650415D
->Track not present in AccurateRip database.
Statistics
Read error : 0
Jitter error (maybe fixed) : 0
Retry sector count : 0
Damaged sector count : 0

Track 08
Filename : /Volumes/LaCieD2 1 DL/Suede -2020- Beautiful Ones - The Best Of Suede 1992 – 2018 (FLAC)/CD2/08 - For The Strangers.flac

Track gain : -10.59 dB
Peak : 0.943939
CRC32 hash (test run) : 29966788
CRC32 hash : 29966788
CRC32 hash (skip zero) : 7EB3CABF
AccurateRip v1 signature : 0C2FFD99
AccurateRip v2 signature : 8E5B6D40
->Track not present in AccurateRip database.
Statistics
Read error : 0
Jitter error (maybe fixed) : 0
Retry sector count : 0
Damaged sector count : 0

Track 09
Filename : /Volumes/LaCieD2 1 DL/Suede -2020- Beautiful Ones - The Best Of Suede 1992 – 2018 (FLAC)/CD2/09 - Outsiders.flac

Track gain : -9.58 dB
Peak : 0.943939
CRC32 hash (test run) : A2427621
CRC32 hash : A2427621
CRC32 hash (skip zero) : A05990E3
AccurateRip v1 signature : C84C4079
AccurateRip v2 signature : 2BABBD9C
->Track not present in AccurateRip database.
Statistics
Read error : 0
Jitter error (maybe fixed) : 0
Retry sector count : 0
Damaged sector count : 0

Track 10
Filename : /Volumes/LaCieD2 1 DL/Suede -2020- Beautiful Ones - The Best Of Suede 1992 – 2018 (FLAC)/CD2/10 - Wastelands.flac

Track gain : -9.06 dB
Peak : 0.949951
CRC32 hash (test run) : 96833742
CRC32 hash : 96833742
CRC32 hash (skip zero) : 14E74997
AccurateRip v1 signature : 526B9B9F
AccurateRip v2 signature : 85DFA6B0
->Track not present in AccurateRip database.
Statistics
Read error : 0
Jitter error (maybe fixed) : 0
Retry sector count : 0
Damaged sector count : 0

Track 11
Filename : /Volumes/LaCieD2 1 DL/Suede -2020- Beautiful Ones - The Best Of Suede 1992 – 2018 (FLAC)/CD2/11 - Life Is Golden.flac

Track gain : -9.06 dB
Peak : 0.946472
CRC32 hash (test run) : 0EA9211A
CRC32 hash : 0EA9211A
CRC32 hash (skip zero) : 08D53B18
AccurateRip v1 signature : 7A13942C
AccurateRip v2 signature : CD753E5D
->Track not present in AccurateRip database.
Statistics
Read error : 0
Jitter error (maybe fixed) : 0
Retry sector count : 0
Damaged sector count : 0

Track 12
Filename : /Volumes/LaCieD2 1 DL/Suede -2020- Beautiful Ones - The Best Of Suede 1992 – 2018 (FLAC)/CD2/12 - The Invisibles.flac

Track gain : -7.50 dB
Peak : 0.943939
CRC32 hash (test run) : A04256A2
CRC32 hash : A04256A2
CRC32 hash (skip zero) : 9119C59D
AccurateRip v1 signature : 634DC764
AccurateRip v2 signature : FAE64936
->Track not present in AccurateRip database.
Statistics
Read error : 0
Jitter error (maybe fixed) : 0
Retry sector count : 0
Damaged sector count : 0

No errors occurred

End of status report

––-BEGIN XLD SIGNATURE––-
uAiTGApf0_smkdog476uF9kg5KO2QuFyMlLIFExeqgYoWC2uFkEKEezwCNYKe4I5Nu0sAc6GvkHVmbFDkmKJK.87MvwyqfhnVbTLI1a
––-END XLD SIGNATURE––-
X Lossless Decoder version 20191004 (152.0)

XLD extraction logfile from 2020-10-10 16:38:23 +0200

Suede / Beautiful Ones: The Best Of Suede 1992 – 2018

Used drive : HL-DT-ST DVDRAM GP90EB70 (revision RC00)
Media type : Pressed CD

Ripper mode : XLD Secure Ripper
Disable audio cache : OK for the drive with a cache less than 1375KiB
Make use of C2 pointers : NO
Read offset correction : 6
Max retry count : 100
Gap status : Analyzed, Appended (except HTOA)

TOC of the extracted CD
Track | Start | Length | Start sector | End sector
––––––––––––––––––––––––––––-
1 | 00:00:00 | 05:24:55 | 0 | 24354
2 | 05:24:55 | 02:59:08 | 24355 | 37787
3 | 08:23:63 | 05:14:14 | 37788 | 61351
4 | 13:38:02 | 04:28:19 | 61352 | 81470
5 | 18:06:21 | 05:49:45 | 81471 | 107690
6 | 23:55:66 | 03:51:27 | 107691 | 125042
7 | 27:47:18 | 03:32:33 | 125043 | 140975
8 | 31:19:51 | 05:51:44 | 140976 | 167344
9 | 37:11:20 | 04:24:38 | 167345 | 187182
10 | 41:35:58 | 02:49:62 | 187183 | 199919
11 | 44:25:45 | 04:07:01 | 199920 | 218445
12 | 48:32:46 | 03:20:36 | 218446 | 233481
13 | 51:53:07 | 03:49:09 | 233482 | 250665
14 | 55:42:16 | 05:46:19 | 250666 | 276634
15 | 61:28:35 | 09:25:07 | 276635 | 319016
16 | 70:53:42 | 05:19:72 | 319017 | 343013

AccurateRip Summary
Disc not found in AccurateRip DB.

All Tracks
Album gain : -8.52 dB
Peak : 0.999969
Statistics
Read error : 0
Jitter error (maybe fixed) : 0
Retry sector count : 0
Damaged sector count : 0

Track 01
Filename : /Volumes/LaCieD2 1 DL/Suede -2020- Beautiful Ones - The Best Of Suede 1992 – 2018 (FLAC)/CD3/01 - To The Birds.flac
Pre-gap length : 00:02:00

Track gain : -9.35 dB
Peak : 0.943939
CRC32 hash (test run) : 0E5B47E0
CRC32 hash : 0E5B47E0
CRC32 hash (skip zero) : 5A48B6CC
AccurateRip v1 signature : 7CB0171A
AccurateRip v2 signature : 445E3103
->Track not present in AccurateRip database.
Statistics
Read error : 0
Jitter error (maybe fixed) : 0
Retry sector count : 0
Damaged sector count : 0

Track 02
Filename : /Volumes/LaCieD2 1 DL/Suede -2020- Beautiful Ones - The Best Of Suede 1992 – 2018 (FLAC)/CD3/02 - My Insatiable One.flac

Track gain : -9.40 dB
Peak : 0.943939
CRC32 hash (test run) : BBF0853E
CRC32 hash : BBF0853E
CRC32 hash (skip zero) : 0F02B1CB
AccurateRip v1 signature : B64D16F8
AccurateRip v2 signature : 8BE12E5C
->Track not present in AccurateRip database.
Statistics
Read error : 0
Jitter error (maybe fixed) : 0
Retry sector count : 0
Damaged sector count : 0

Track 03
Filename : /Volumes/LaCieD2 1 DL/Suede -2020- Beautiful Ones - The Best Of Suede 1992 – 2018 (FLAC)/CD3/03 - He’s Dead.flac

Track gain : -8.76 dB
Peak : 0.943939
CRC32 hash (test run) : 468C8546
CRC32 hash : 468C8546
CRC32 hash (skip zero) : C4643FCD
AccurateRip v1 signature : 2B4DFB72
AccurateRip v2 signature : EFC8749E
->Track not present in AccurateRip database.
Statistics
Read error : 0
Jitter error (maybe fixed) : 0
Retry sector count : 0
Damaged sector count : 0

Track 04
Filename : /Volumes/LaCieD2 1 DL/Suede -2020- Beautiful Ones - The Best Of Suede 1992 – 2018 (FLAC)/CD3/04 - The Big Time.flac

Track gain : -8.37 dB
Peak : 0.943939
CRC32 hash (test run) : BB606F35
CRC32 hash : BB606F35
CRC32 hash (skip zero) : 2C684D11
AccurateRip v1 signature : 0E4C795D
AccurateRip v2 signature : 0068E9C0
->Track not present in AccurateRip database.
Statistics
Read error : 0
Jitter error (maybe fixed) : 0
Retry sector count : 0
Damaged sector count : 0

Track 05
Filename : /Volumes/LaCieD2 1 DL/Suede -2020- Beautiful Ones - The Best Of Suede 1992 – 2018 (FLAC)/CD3/05 - Pantomime Horse.flac

Track gain : -8.77 dB
Peak : 0.971619
CRC32 hash (test run) : 8EE649AC
CRC32 hash : 8EE649AC
CRC32 hash (skip zero) : 8D893AF3
AccurateRip v1 signature : F0DB5FD0
AccurateRip v2 signature : A3283AE7
->Track not present in AccurateRip database.
Statistics
Read error : 0
Jitter error (maybe fixed) : 0
Retry sector count : 0
Damaged sector count : 0

Track 06
Filename : /Volumes/LaCieD2 1 DL/Suede -2020- Beautiful Ones - The Best Of Suede 1992 – 2018 (FLAC)/CD3/06 - Sleeping Pills.flac

Track gain : -8.01 dB
Peak : 0.999969
CRC32 hash (test run) : 8E0104A5
CRC32 hash : 8E0104A5
CRC32 hash (skip zero) : F35841D5
AccurateRip v1 signature : F009CCE9
AccurateRip v2 signature : 76DBBFD4
->Track not present in AccurateRip database.
Statistics
Read error : 0
Jitter error (maybe fixed) : 0
Retry sector count : 0
Damaged sector count : 0

Track 07
Filename : /Volumes/LaCieD2 1 DL/Suede -2020- Beautiful Ones - The Best Of Suede 1992 – 2018 (FLAC)/CD3/07 - The Next Life.flac

Track gain : -5.79 dB
Peak : 0.968414
CRC32 hash (test run) : 982E392A
CRC32 hash : 982E392A
CRC32 hash (skip zero) : 223440E0
AccurateRip v1 signature : 53C64E94
AccurateRip v2 signature : 35C29FED
->Track not present in AccurateRip database.
Statistics
Read error : 0
Jitter error (maybe fixed) : 0
Retry sector count : 0
Damaged sector count : 0

Track 08
Filename : /Volumes/LaCieD2 1 DL/Suede -2020- Beautiful Ones - The Best Of Suede 1992 – 2018 (FLAC)/CD3/08 - High Rising.flac

Track gain : -5.43 dB
Peak : 0.986877
CRC32 hash (test run) : 67326A77
CRC32 hash : 67326A77
CRC32 hash (skip zero) : E867F956
AccurateRip v1 signature : 14FE9309
AccurateRip v2 signature : 4CFA1202
->Track not present in AccurateRip database.
Statistics
Read error : 0
Jitter error (maybe fixed) : 0
Retry sector count : 0
Damaged sector count : 0

Track 09
Filename : /Volumes/LaCieD2 1 DL/Suede -2020- Beautiful Ones - The Best Of Suede 1992 – 2018 (FLAC)/CD3/09 - My Dark Star.flac

Track gain : -8.27 dB
Peak : 0.934326
CRC32 hash (test run) : 15127938
CRC32 hash : 15127938
CRC32 hash (skip zero) : 72F817C5
AccurateRip v1 signature : 266C613A
AccurateRip v2 signature : ACA450EE
->Track not present in AccurateRip database.
Statistics
Read error : 0
Jitter error (maybe fixed) : 0
Retry sector count : 0
Damaged sector count : 0

Track 10
Filename : /Volumes/LaCieD2 1 DL/Suede -2020- Beautiful Ones - The Best Of Suede 1992 – 2018 (FLAC)/CD3/10 - The Living Dead.flac

Track gain : -5.07 dB
Peak : 0.943939
CRC32 hash (test run) : C91A9341
CRC32 hash : C91A9341
CRC32 hash (skip zero) : EE197DDF
AccurateRip v1 signature : 3EA33F1A
AccurateRip v2 signature : 324CC3BE
->Track not present in AccurateRip database.
Statistics
Read error : 0
Jitter error (maybe fixed) : 0
Retry sector count : 0
Damaged sector count : 0

Track 11
Filename : /Volumes/LaCieD2 1 DL/Suede -2020- Beautiful Ones - The Best Of Suede 1992 – 2018 (FLAC)/CD3/11 - Killing Of A Flashboy.flac

Track gain : -9.33 dB
Peak : 0.943939
CRC32 hash (test run) : 00B32790
CRC32 hash : 00B32790
CRC32 hash (skip zero) : 40C68B87
AccurateRip v1 signature : D7085A3C
AccurateRip v2 signature : 1A62E03F
->Track not present in AccurateRip database.
Statistics
Read error : 0
Jitter error (maybe fixed) : 0
Retry sector count : 0
Damaged sector count : 0

Track 12
Filename : /Volumes/LaCieD2 1 DL/Suede -2020- Beautiful Ones - The Best Of Suede 1992 – 2018 (FLAC)/CD3/12 - Heroine.flac

Track gain : -9.38 dB
Peak : 0.943939
CRC32 hash (test run) : 3C12A362
CRC32 hash : 3C12A362
CRC32 hash (skip zero) : 2E78451F
AccurateRip v1 signature : F058C7E3
AccurateRip v2 signature : 8D49619D
->Track not present in AccurateRip database.
Statistics
Read error : 0
Jitter error (maybe fixed) : 0
Retry sector count : 0
Damaged sector count : 0

Track 13
Filename : /Volumes/LaCieD2 1 DL/Suede -2020- Beautiful Ones - The Best Of Suede 1992 – 2018 (FLAC)/CD3/13 - This Hollywood Life.flac

Track gain : -9.43 dB
Peak : 0.943939
CRC32 hash (test run) : 26533CCB
CRC32 hash : 26533CCB
CRC32 hash (skip zero) : FBDF15B3
AccurateRip v1 signature : E9E3B997
AccurateRip v2 signature : 20648D63
->Track not present in AccurateRip database.
Statistics
Read error : 0
Jitter error (maybe fixed) : 0
Retry sector count : 0
Damaged sector count : 0

Track 14
Filename : /Volumes/LaCieD2 1 DL/Suede -2020- Beautiful Ones - The Best Of Suede 1992 – 2018 (FLAC)/CD3/14 - The 2 Of Us.flac

Track gain : -7.66 dB
Peak : 0.943939
CRC32 hash (test run) : 65F66063
CRC32 hash : 65F66063
CRC32 hash (skip zero) : C91913AC
AccurateRip v1 signature : 9A496E41
AccurateRip v2 signature : AFA29BEB
->Track not present in AccurateRip database.
Statistics
Read error : 0
Jitter error (maybe fixed) : 0
Retry sector count : 0
Damaged sector count : 0

Track 15
Filename : /Volumes/LaCieD2 1 DL/Suede -2020- Beautiful Ones - The Best Of Suede 1992 – 2018 (FLAC)/CD3/15 - The Asphalt World.flac

Track gain : -8.63 dB
Peak : 0.943939
CRC32 hash (test run) : CE44E8C3
CRC32 hash : CE44E8C3
CRC32 hash (skip zero) : 08CE9113
AccurateRip v1 signature : C525307D
AccurateRip v2 signature : 284BAF20
->Track not present in AccurateRip database.
Statistics
Read error : 0
Jitter error (maybe fixed) : 0
Retry sector count : 0
Damaged sector count : 0

Track 16
Filename : /Volumes/LaCieD2 1 DL/Suede -2020- Beautiful Ones - The Best Of Suede 1992 – 2018 (FLAC)/CD3/16 - Still Life.flac

Track gain : -8.64 dB
Peak : 0.943939
CRC32 hash (test run) : FF2DF28D
CRC32 hash : FF2DF28D
CRC32 hash (skip zero) : 7EA332A6
AccurateRip v1 signature : D131D8F3
AccurateRip v2 signature : EC94EA7E
->Track not present in AccurateRip database.
Statistics
Read error : 0
Jitter error (maybe fixed) : 0
Retry sector count : 0
Damaged sector count : 0

No errors occurred

End of status report

––-BEGIN XLD SIGNATURE––-
JQ8pDIp7n.lrerC2pj_ti1xX6.5awkUiNkLUZS0c8gDDhPQgs4mc3eZ84rPzorTFWRjXlzp.TcoQ14exP3.DsDHLycBTc3kAlucj24m
––-END XLD SIGNATURE––-
X Lossless Decoder version 20191004 (152.0)

XLD extraction logfile from 2020-10-10 17:12:06 +0200

Suede / Beautiful Ones: The Best Of Suede 1992 – 2018

Used drive : HL-DT-ST DVDRAM GP90EB70 (revision RC00)
Media type : Pressed CD

Ripper mode : XLD Secure Ripper
Disable audio cache : OK for the drive with a cache less than 1375KiB
Make use of C2 pointers : NO
Read offset correction : 6
Max retry count : 100
Gap status : Analyzed, Appended (except HTOA)

TOC of the extracted CD
Track | Start | Length | Start sector | End sector
––––––––––––––––––––––––––––-
1 | 00:00:00 | 05:37:53 | 0 | 25327
2 | 05:37:53 | 03:39:64 | 25328 | 41816
3 | 09:17:42 | 04:18:70 | 41817 | 61236
4 | 13:36:37 | 05:34:43 | 61237 | 86329
5 | 19:11:05 | 04:21:32 | 86330 | 105936
6 | 23:32:37 | 04:05:06 | 105937 | 124317
7 | 27:37:43 | 04:04:74 | 124318 | 142691
8 | 31:42:42 | 03:46:14 | 142692 | 159655
9 | 35:28:56 | 04:13:39 | 159656 | 178669
10 | 39:42:20 | 02:42:43 | 178670 | 190862
11 | 42:24:63 | 06:14:19 | 190863 | 218931
12 | 48:39:07 | 03:53:13 | 218932 | 236419
13 | 52:32:20 | 04:09:29 | 236420 | 255123
14 | 56:41:49 | 03:14:02 | 255124 | 269675
15 | 59:55:51 | 06:40:74 | 269676 | 299749

AccurateRip Summary
Disc not found in AccurateRip DB.

All Tracks
Album gain : -9.14 dB
Peak : 0.992859
Statistics
Read error : 0
Jitter error (maybe fixed) : 0
Retry sector count : 4
Damaged sector count : 0

Track 01
Filename : /Volumes/LaCieD2 1 DL/Suede -2020- Beautiful Ones - The Best Of Suede 1992 – 2018 (FLAC)/CD4/01 - Europe Is Our Playground [Sci-Fi Lullabies Version].flac
Pre-gap length : 00:02:00

Track gain : -8.34 dB
Peak : 0.943939
CRC32 hash (test run) : 067F30E7
CRC32 hash : 067F30E7
CRC32 hash (skip zero) : 83A285B6
AccurateRip v1 signature : 7B6F7208
AccurateRip v2 signature : BE416FEF
->Track not present in AccurateRip database.
Statistics
Read error : 0
Jitter error (maybe fixed) : 0
Retry sector count : 4
Damaged sector count : 0

Track 02
Filename : /Volumes/LaCieD2 1 DL/Suede -2020- Beautiful Ones - The Best Of Suede 1992 – 2018 (FLAC)/CD4/02 - She.flac

Track gain : -10.56 dB
Peak : 0.943939
CRC32 hash (test run) : 9EE514F1
CRC32 hash : 9EE514F1
CRC32 hash (skip zero) : 84518F41
AccurateRip v1 signature : CF0E148D
AccurateRip v2 signature : F2B19C4F
->Track not present in AccurateRip database.
Statistics
Read error : 0
Jitter error (maybe fixed) : 0
Retry sector count : 0
Damaged sector count : 0

Track 03
Filename : /Volumes/LaCieD2 1 DL/Suede -2020- Beautiful Ones - The Best Of Suede 1992 – 2018 (FLAC)/CD4/03 - By The Sea.flac

Track gain : -9.53 dB
Peak : 0.943939
CRC32 hash (test run) : 0EED4695
CRC32 hash : 0EED4695
CRC32 hash (skip zero) : D7E1C903
AccurateRip v1 signature : 0BBF8B5C
AccurateRip v2 signature : 835B83F7
->Track not present in AccurateRip database.
Statistics
Read error : 0
Jitter error (maybe fixed) : 0
Retry sector count : 0
Damaged sector count : 0

Track 04
Filename : /Volumes/LaCieD2 1 DL/Suede -2020- Beautiful Ones - The Best Of Suede 1992 – 2018 (FLAC)/CD4/04 - He’s Gone.flac

Track gain : -8.86 dB
Peak : 0.943939
CRC32 hash (test run) : 06754AF8
CRC32 hash : 06754AF8
CRC32 hash (skip zero) : 0E3A65D0
AccurateRip v1 signature : 1EB4113D
AccurateRip v2 signature : 36F64F9C
->Track not present in AccurateRip database.
Statistics
Read error : 0
Jitter error (maybe fixed) : 0
Retry sector count : 0
Damaged sector count : 0

Track 05
Filename : /Volumes/LaCieD2 1 DL/Suede -2020- Beautiful Ones - The Best Of Suede 1992 – 2018 (FLAC)/CD4/05 - Indian Strings.flac

Track gain : -9.53 dB
Peak : 0.943939
CRC32 hash (test run) : F7ED2F27
CRC32 hash : F7ED2F27
CRC32 hash (skip zero) : 48C58851
AccurateRip v1 signature : 476201B5
AccurateRip v2 signature : CC04789B
->Track not present in AccurateRip database.
Statistics
Read error : 0
Jitter error (maybe fixed) : 0
Retry sector count : 0
Damaged sector count : 0

Track 06
Filename : /Volumes/LaCieD2 1 DL/Suede -2020- Beautiful Ones - The Best Of Suede 1992 – 2018 (FLAC)/CD4/06 - Oceans.flac

Track gain : -7.91 dB
Peak : 0.943939
CRC32 hash (test run) : 389DF63D
CRC32 hash : 389DF63D
CRC32 hash (skip zero) : 45941F0B
AccurateRip v1 signature : 7C1395AA
AccurateRip v2 signature : 4BEBEE87
->Track not present in AccurateRip database.
Statistics
Read error : 0
Jitter error (maybe fixed) : 0
Retry sector count : 0
Damaged sector count : 0

Track 07
Filename : /Volumes/LaCieD2 1 DL/Suede -2020- Beautiful Ones - The Best Of Suede 1992 – 2018 (FLAC)/CD4/07 - Snowblind.flac

Track gain : -11.04 dB
Peak : 0.943939
CRC32 hash (test run) : D324A556
CRC32 hash : D324A556
CRC32 hash (skip zero) : E19DBDC0
AccurateRip v1 signature : 3D525466
AccurateRip v2 signature : AA9295F5
->Track not present in AccurateRip database.
Statistics
Read error : 0
Jitter error (maybe fixed) : 0
Retry sector count : 0
Damaged sector count : 0

Track 08
Filename : /Volumes/LaCieD2 1 DL/Suede -2020- Beautiful Ones - The Best Of Suede 1992 – 2018 (FLAC)/CD4/08 - Sabotage.flac

Track gain : -10.07 dB
Peak : 0.943939
CRC32 hash (test run) : 73EDE0C6
CRC32 hash : 73EDE0C6
CRC32 hash (skip zero) : 60F97B74
AccurateRip v1 signature : 5AF0874D
AccurateRip v2 signature : 6817A260
->Track not present in AccurateRip database.
Statistics
Read error : 0
Jitter error (maybe fixed) : 0
Retry sector count : 0
Damaged sector count : 0

Track 09
Filename : /Volumes/LaCieD2 1 DL/Suede -2020- Beautiful Ones - The Best Of Suede 1992 – 2018 (FLAC)/CD4/09 - Sometimes I Feel I’ll Float Away.flac

Track gain : -10.20 dB
Peak : 0.943939
CRC32 hash (test run) : A79E3875
CRC32 hash : A79E3875
CRC32 hash (skip zero) : 73D23E74
AccurateRip v1 signature : AB2FA14E
AccurateRip v2 signature : 1D1D634F
->Track not present in AccurateRip database.
Statistics
Read error : 0
Jitter error (maybe fixed) : 0
Retry sector count : 0
Damaged sector count : 0

Track 10
Filename : /Volumes/LaCieD2 1 DL/Suede -2020- Beautiful Ones - The Best Of Suede 1992 – 2018 (FLAC)/CD4/10 - Pale Snow.flac

Track gain : -7.50 dB
Peak : 0.992859
CRC32 hash (test run) : 9D6B30AF
CRC32 hash : 9D6B30AF
CRC32 hash (skip zero) : AB748A18
AccurateRip v1 signature : BCF13B0B
AccurateRip v2 signature : F4296EF9
->Track not present in AccurateRip database.
Statistics
Read error : 0
Jitter error (maybe fixed) : 0
Retry sector count : 0
Damaged sector count : 0

Track 11
Filename : /Volumes/LaCieD2 1 DL/Suede -2020- Beautiful Ones - The Best Of Suede 1992 – 2018 (FLAC)/CD4/11 - I Don’t Know How To Reach You.flac

Track gain : -9.40 dB
Peak : 0.943939
CRC32 hash (test run) : 738633A6
CRC32 hash : 738633A6
CRC32 hash (skip zero) : 80140765
AccurateRip v1 signature : 270B3505
AccurateRip v2 signature : 95668D8E
->Track not present in AccurateRip database.
Statistics
Read error : 0
Jitter error (maybe fixed) : 0
Retry sector count : 0
Damaged sector count : 0

Track 12
Filename : /Volumes/LaCieD2 1 DL/Suede -2020- Beautiful Ones - The Best Of Suede 1992 – 2018 (FLAC)/CD4/12 - Tightrope.flac

Track gain : -8.85 dB
Peak : 0.943939
CRC32 hash (test run) : 994BD443
CRC32 hash : 994BD443
CRC32 hash (skip zero) : 50CE1179
AccurateRip v1 signature : 370BF3F0
AccurateRip v2 signature : 71DE428B
->Track not present in AccurateRip database.
Statistics
Read error : 0
Jitter error (maybe fixed) : 0
Retry sector count : 0
Damaged sector count : 0

Track 13
Filename : /Volumes/LaCieD2 1 DL/Suede -2020- Beautiful Ones - The Best Of Suede 1992 – 2018 (FLAC)/CD4/13 - As One.flac

Track gain : -6.06 dB
Peak : 0.943939
CRC32 hash (test run) : 463F9268
CRC32 hash : 463F9268
CRC32 hash (skip zero) : EC774477
AccurateRip v1 signature : B8E7A48C
AccurateRip v2 signature : 7D20CCAC
->Track not present in AccurateRip database.
Statistics
Read error : 0
Jitter error (maybe fixed) : 0
Retry sector count : 0
Damaged sector count : 0

Track 14
Filename : /Volumes/LaCieD2 1 DL/Suede -2020- Beautiful Ones - The Best Of Suede 1992 – 2018 (FLAC)/CD4/14 - All The Wild Places.flac

Track gain : -6.58 dB
Peak : 0.943939
CRC32 hash (test run) : 2A093DB2
CRC32 hash : 2A093DB2
CRC32 hash (skip zero) : 6B02582F
AccurateRip v1 signature : 6F847479
AccurateRip v2 signature : 8FCA3D75
->Track not present in AccurateRip database.
Statistics
Read error : 0
Jitter error (maybe fixed) : 0
Retry sector count : 0
Damaged sector count : 0

Track 15
Filename : /Volumes/LaCieD2 1 DL/Suede -2020- Beautiful Ones - The Best Of Suede 1992 – 2018 (FLAC)/CD4/15 - Flytipping.flac

Track gain : -7.56 dB
Peak : 0.943939
CRC32 hash (test run) : 558063B9
CRC32 hash : 558063B9
CRC32 hash (skip zero) : 009F52C8
AccurateRip v1 signature : 8741998E
AccurateRip v2 signature : BAC216C0
->Track not present in AccurateRip database.
Statistics
Read error : 0
Jitter error (maybe fixed) : 0
Retry sector count : 0
Damaged sector count : 0

No errors occurred

End of status report

––-BEGIN XLD SIGNATURE––-
pY4S8MtMxug.fAKPl7ggjgjFAR_xZ_d1OvUw8PAo9qxzJmaIzsys2e9jTviahGRR0u5ErTsqcClHKo.z28vDLngGTvvffCEKNDhenkG
––-END XLD SIGNATURE––-

Thanks to the Original ripper !