Tags
Language
Tags
July 2024
Su Mo Tu We Th Fr Sa
30 1 2 3 4 5 6
7 8 9 10 11 12 13
14 15 16 17 18 19 20
21 22 23 24 25 26 27
28 29 30 31 1 2 3

Martin Scorsese Presents the Blues: Eric Clapton (2003)

Posted By: delpotro
Martin Scorsese Presents the Blues: Eric Clapton (2003)

Martin Scorsese Presents the Blues: Eric Clapton (2003)
MP3 CBR 320 kbps | 00:59:37 | 137 Mb
Blues Rock | Label: Polydor Records

Sizzling tracks from across his career: his performances on All Your Love John Mayall's Bluesbreakers; Rockin' Daddy Howlin' Wolf; Rollin' and Tumblin' Cream; Crossroads (live) Derek and the Dominos; Mean Old World Eric Clapton and Duane Allman and more!

AllMusic Review by Greg Prato
If you're looking for a career-encompassing Eric Clapton best-of collection, then the Clapton edition of the Martin Scorsese Presents the Blues series is not for you. But if a collection of Clapton's best blues-rock numbers from early in his career is what you desire, then this ten-track set fits the bill. Featuring tracks from such acclaimed Clapton-related artists as John Mayall & the Bluesbreakers, Cream, Blind Faith, and Derek and the Dominos (the latter of which also featured the late, great Duane Allman), you get a true representation of Clapton's roots. The Cream-era track, a live take of "Spoonful," shows how influential Clapton was on fellow Yardbirds alumni Jimmy Page and Jeff Beck (who would soon borrow the same heavy blues style for Led Zeppelin and the Jeff Beck Group, respectively), while a Derek and the Dominos-era cover of "Crossroads" shows that Clapton always managed to surround himself with the best blues-rock musicians around. One of the compilation's earliest Clapton recordings, "All Your Love" (from when he briefly served as a sideman for John Mayall & the Bluesbreakers), shows that the guitarist had his fluid "slow hand" style almost perfected early in the game. As evidenced by this Martin Scorsese Presents the Blues edition, it's clear once and for all how incredibly instrumental Clapton was in leading the blues renaissance in rock music.
Tracklist:
1. John Mayall's Bluesbreakers – All Your Love (03:32)
2. John Mayall's Bluesbreakers – Steppin' Out (02:29)
3. Cream – Rollin' And Tumblin' (04:42)
4. Cream – I'm So Glad (03:58)
5. Cream – Spoonful (Live) (16:46)
6. Blind Faith – Sleeping In The Ground (04:45)
7. Howlin' Wolf – Rockin' Daddy (03:46)
8. Derek And The Dominos – Have You Ever Loved A Woman (06:51)
9. Eric Clapton & Duane Allman – Mean Old World (03:52)
10. Derek And The Dominos – Crossroads (Live) (08:29)

X Lossless Decoder version 20191004 (152.0)

XLD extraction logfile from 2019-11-19 08:31:18 -0800

Eric Clapton / Martin Scorsese Presents the Blues: Eric Clapton

Used drive : PIONEER BD-RW BDR-XD05 (revision 3.10)
Media type : Pressed CD

Ripper mode : XLD Secure Ripper
Disable audio cache : OK for the drive with a cache less than 1375KiB
Make use of C2 pointers : NO
Read offset correction : 667
Max retry count : 100
Gap status : Analyzed, Appended (except HTOA)

TOC of the extracted CD
Track | Start | Length | Start sector | End sector
––––––––––––––––––––––––––––-
1 | 00:00:00 | 03:35:62 | 0 | 16186
2 | 03:35:62 | 02:30:00 | 16187 | 27436
3 | 06:05:62 | 04:44:53 | 27437 | 48789
4 | 10:50:40 | 04:01:36 | 48790 | 66900
5 | 14:52:01 | 16:46:50 | 66901 | 142400
6 | 31:38:51 | 04:47:24 | 142401 | 163949
7 | 36:26:00 | 03:48:07 | 163950 | 181056
8 | 40:14:07 | 06:54:25 | 181057 | 212131
9 | 47:08:32 | 03:52:71 | 212132 | 229602
10 | 51:01:28 | 08:36:01 | 229603 | 268303

List of alternate offset correction values
# | Absolute | Relative | Confidence
–––––––––––––––––––––
1 | 581 | -86 | 8

AccurateRip Summary (DiscID: 0014b3da-00abaee1-810df90a)
Track 01 : OK (v1+v2, confidence 45/53)
Track 02 : OK (v1+v2, confidence 45/53)
Track 03 : OK (v1+v2, confidence 44/52)
Track 04 : OK (v1+v2, confidence 48/56)
Track 05 : OK (v1+v2, confidence 44/51)
Track 06 : OK (v1+v2, confidence 46/54)
Track 07 : OK (v1+v2, confidence 46/54)
Track 08 : OK (v1+v2, confidence 46/53)
Track 09 : OK (v1+v2, confidence 45/53)
Track 10 : OK (v1+v2, confidence 43/51)
->All tracks accurately ripped.

All Tracks
Album gain : -4.58 dB
Peak : 0.999969
Statistics
Read error : 0
Jitter error (maybe fixed) : 0
Retry sector count : 0
Damaged sector count : 0

Track 01
Filename : /Volumes/Hollywood and Vine/Rips/Eric Clapton - Martin Scorsese Presents the Blues: Eric Clapton (2003) [FLAC]/01 All Your Love.flac
Pre-gap length : 00:02:00

Track gain : -4.86 dB
Peak : 0.695496
CRC32 hash (test run) : 68C4D7D6
CRC32 hash : 68C4D7D6
CRC32 hash (skip zero) : B91A252D
AccurateRip v1 signature : 61611527
AccurateRip v2 signature : 298B8ED1
->Accurately ripped (v1+v2, confidence 22+23/53)
Statistics
Read error : 0
Jitter error (maybe fixed) : 0
Retry sector count : 0
Damaged sector count : 0

Track 02
Filename : /Volumes/Hollywood and Vine/Rips/Eric Clapton - Martin Scorsese Presents the Blues: Eric Clapton (2003) [FLAC]/02 Steppin' Out.flac
Pre-gap length : 00:02:43

Track gain : -5.13 dB
Peak : 0.494690
CRC32 hash (test run) : 9329EFF6
CRC32 hash : 9329EFF6
CRC32 hash (skip zero) : 3F157A13
AccurateRip v1 signature : 215E868C
AccurateRip v2 signature : C08D8B62
->Accurately ripped (v1+v2, confidence 22+23/53)
Statistics
Read error : 0
Jitter error (maybe fixed) : 0
Retry sector count : 0
Damaged sector count : 0

Track 03
Filename : /Volumes/Hollywood and Vine/Rips/Eric Clapton - Martin Scorsese Presents the Blues: Eric Clapton (2003) [FLAC]/03 Rollin' and Tumblin'.flac
Pre-gap length : 00:02:44

Track gain : -4.85 dB
Peak : 0.541901
CRC32 hash (test run) : 7E66DAB1
CRC32 hash : 7E66DAB1
CRC32 hash (skip zero) : F42F2F59
AccurateRip v1 signature : 27D5F025
AccurateRip v2 signature : 99227CCE
->Accurately ripped (v1+v2, confidence 21+23/52)
Statistics
Read error : 0
Jitter error (maybe fixed) : 0
Retry sector count : 0
Damaged sector count : 0

Track 04
Filename : /Volumes/Hollywood and Vine/Rips/Eric Clapton - Martin Scorsese Presents the Blues: Eric Clapton (2003) [FLAC]/04 I'm So Glad.flac
Pre-gap length : 00:01:73

Track gain : -4.24 dB
Peak : 0.809235
CRC32 hash (test run) : AA0127E9
CRC32 hash : AA0127E9
CRC32 hash (skip zero) : 86A01F1F
AccurateRip v1 signature : DA5AB626
AccurateRip v2 signature : 2108CC77
->Accurately ripped (v1+v2, confidence 24+24/56)
Statistics
Read error : 0
Jitter error (maybe fixed) : 0
Retry sector count : 0
Damaged sector count : 0

Track 05
Filename : /Volumes/Hollywood and Vine/Rips/Eric Clapton - Martin Scorsese Presents the Blues: Eric Clapton (2003) [FLAC]/05 Spoonful (live).flac
Pre-gap length : 00:02:45

Track gain : -4.37 dB
Peak : 0.890839
CRC32 hash (test run) : 0318501D
CRC32 hash : 0318501D
CRC32 hash (skip zero) : 39B24F1E
AccurateRip v1 signature : 0E6D264D
AccurateRip v2 signature : 6641F2C4
->Accurately ripped (v1+v2, confidence 21+23/51)
Statistics
Read error : 0
Jitter error (maybe fixed) : 0
Retry sector count : 0
Damaged sector count : 0

Track 06
Filename : /Volumes/Hollywood and Vine/Rips/Eric Clapton - Martin Scorsese Presents the Blues: Eric Clapton (2003) [FLAC]/06 Sleeping in the Ground.flac
Pre-gap length : 00:02:43

Track gain : -2.89 dB
Peak : 0.539368
CRC32 hash (test run) : 1A289CC9
CRC32 hash : 1A289CC9
CRC32 hash (skip zero) : 34963870
AccurateRip v1 signature : 9E3DE6D9
AccurateRip v2 signature : 1C19570D
->Accurately ripped (v1+v2, confidence 23+23/54)
Statistics
Read error : 0
Jitter error (maybe fixed) : 0
Retry sector count : 0
Damaged sector count : 0

Track 07
Filename : /Volumes/Hollywood and Vine/Rips/Eric Clapton - Martin Scorsese Presents the Blues: Eric Clapton (2003) [FLAC]/07 Rockin' Daddy.flac
Pre-gap length : 00:02:41

Track gain : -6.23 dB
Peak : 0.882202
CRC32 hash (test run) : 0493B40F
CRC32 hash : 0493B40F
CRC32 hash (skip zero) : 6910484E
AccurateRip v1 signature : 5F4E5244
AccurateRip v2 signature : D02DD644
->Accurately ripped (v1+v2, confidence 23+23/54)
Statistics
Read error : 0
Jitter error (maybe fixed) : 0
Retry sector count : 0
Damaged sector count : 0

Track 08
Filename : /Volumes/Hollywood and Vine/Rips/Eric Clapton - Martin Scorsese Presents the Blues: Eric Clapton (2003) [FLAC]/08 Have You Ever Loved a Woman.flac
Pre-gap length : 00:02:43

Track gain : -5.61 dB
Peak : 0.999969
CRC32 hash (test run) : C1C05A95
CRC32 hash : C1C05A95
CRC32 hash (skip zero) : DFF66480
AccurateRip v1 signature : C3CDADA9
AccurateRip v2 signature : FFCC16BB
->Accurately ripped (v1+v2, confidence 23+23/53)
Statistics
Read error : 0
Jitter error (maybe fixed) : 0
Retry sector count : 0
Damaged sector count : 0

Track 09
Filename : /Volumes/Hollywood and Vine/Rips/Eric Clapton - Martin Scorsese Presents the Blues: Eric Clapton (2003) [FLAC]/09 Mean Old World.flac
Pre-gap length : 00:02:44

Track gain : 1.41 dB
Peak : 0.766968
CRC32 hash (test run) : 21AA818E
CRC32 hash : 21AA818E
CRC32 hash (skip zero) : 3CC4E630
AccurateRip v1 signature : 5230E9FD
AccurateRip v2 signature : FE410266
->Accurately ripped (v1+v2, confidence 23+22/53)
Statistics
Read error : 0
Jitter error (maybe fixed) : 0
Retry sector count : 0
Damaged sector count : 0

Track 10
Filename : /Volumes/Hollywood and Vine/Rips/Eric Clapton - Martin Scorsese Presents the Blues: Eric Clapton (2003) [FLAC]/10 Crossroads (live).flac
Pre-gap length : 00:02:44

Track gain : -4.83 dB
Peak : 0.827179
CRC32 hash (test run) : 220E0F1D
CRC32 hash : 220E0F1D
CRC32 hash (skip zero) : 4BC81457
AccurateRip v1 signature : 69DB9AA7
AccurateRip v2 signature : D364447D
->Accurately ripped (v1+v2, confidence 21+22/51)
Statistics
Read error : 0
Jitter error (maybe fixed) : 0
Retry sector count : 0
Damaged sector count : 0

No errors occurred

End of status report

––-BEGIN XLD SIGNATURE––-
Qjkih7i4GWCkSELWcqS1MjoaUdGxRSofskpNObv2uXI_vsIAAdaYgGRhJ7ABi6hpbgnyZk5ybczJ.hTfusw_yfCTQWSNX7dEgghUZh0
––-END XLD SIGNATURE––-

Thanks to the Original ripper !