Subcategories
Tags
Language
Tags

Lou Rawls with Les McCann Ltd. - Stormy Monday (1962) {Blue Note Records CDP 7 91441 2 rel 1990}

Posted By: ruskaval
Lou Rawls with Les McCann Ltd. - Stormy Monday (1962) {Blue Note Records CDP 7 91441 2 rel 1990}

Lou Rawls with Les McCann Ltd. - Stormy Monday (1962) {Blue Note Records CDP 7 91441 2 rel 1990}
EAC rip (secure mode) | FLAC (tracks)+CUE+LOG -> 258 Mb | MP3 @320 -> 106 Mb
Full Artwork @ 600 dpi (jpg) -> 51 Mb | 5% repair rar
© 1962, 1990 Blue Note Records | CDP 7 91441 2
Jazz / Vocal Jazz / R&B / Soul Jazz

Lou Rawls has had a long and commercially successful career mostly singing soul, R&B, and pop music. Originally a gospel singer, Rawls' first album as a leader features him performing soulful standards backed by the Les McCann Trio. Few of the songs have been under-recorded through the years, but they sound fresh and lively when sung by Rawls; highlights include "Stormy Monday," "In the Evening," and "I'd Rather Drink Muddy Water." Pianist McCann gets a generous amount of solo space, and the reissue has three bonus tracks. This is still Rawls' definitive recording in the jazz idiom, cut before he went on to more lucrative areas.

Musicians
Lou Rawls - vocals
Les McCann - piano
Leroy Vinnegar - bass
Ron Jefferson - drums

Track LIsting
01 - (They Call It) Stormy Monday
02 - God Bless the Child
03 - See See Rider
04 - Willow Weep for Me
05 - I'm Gonna Move to the Outskirts of Town
06 - In the Evening When the Sun Goes Down
07 - 'Tain't Nobody's Biz-ness If I Do
08 - Lost and Lookin'
09 - I'd Rather Drink Muddy Water
10 - Sweet Lover
11 - Blues Is a Woman
12 - A Little Les of Lou's Blues
13 - (They Call It) Stormy Monday (alternate take)

Exact Audio Copy V1.0 beta 3 from 29. August 2011

EAC extraction logfile from 17. August 2016, 20:21

Lou Rawls With Les McCann Ltd. / Stormy Monday

Used drive : Optiarc DVD RW AD-7561S Adapter: 0 ID: 0

Read mode : Secure
Utilize accurate stream : Yes
Defeat audio cache : Yes
Make use of C2 pointers : No

Read offset correction : 6
Overread into Lead-In and Lead-Out : No
Fill up missing offset samples with silence : Yes
Delete leading and trailing silent blocks : No
Null samples used in CRC calculations : Yes
Used interface : Native Win32 interface for Win NT & 2000
Gap handling : Appended to previous track

Used output format : User Defined Encoder
Selected bitrate : 128 kBit/s
Quality : High
Add ID3 tag : No
Command line compressor : C:\Program Files\Exact Audio Copy\Flac\flac.exe
Additional command line options : -8 -V -T "ARTIST=%artist%" -T "TITLE=%title%" -T "ALBUM=%albumtitle%" -T "DATE=%year%" -T "TRACKNUMBER=%tracknr%" -T "TOTALTRACKS=%numtracks%" -T "GENRE=%genre%" -T "ALBUMARTIST=%albumartist%" -T "ALBUM ARTIST=%albumartist%" -T "COMMENT=EAC Secure Mode, Test & Copy, AccurateRip, FLAC -8" %source%


TOC of the extracted CD

Track | Start | Length | Start sector | End sector
––––––––––––––––––––––––––––-
1 | 0:00.33 | 3:46.12 | 33 | 16994
2 | 3:46.45 | 4:30.08 | 16995 | 37252
3 | 8:16.53 | 3:11.45 | 37253 | 51622
4 | 11:28.23 | 5:57.05 | 51623 | 78402
5 | 17:25.28 | 4:00.12 | 78403 | 96414
6 | 21:25.40 | 3:28.68 | 96415 | 112082
7 | 24:54.33 | 2:45.70 | 112083 | 124527
8 | 27:40.28 | 3:09.27 | 124528 | 138729
9 | 30:49.55 | 3:55.33 | 138730 | 156387
10 | 34:45.13 | 3:08.17 | 156388 | 170504
11 | 37:53.30 | 2:58.18 | 170505 | 183872
12 | 40:51.48 | 2:23.67 | 183873 | 194664
13 | 43:15.40 | 2:58.48 | 194665 | 208062


Track 1

Filename C:\torrent\Lou Rawls with Les McCann LTD. - Stormy Monday (1962) [FLAC] {Blue Note Records CDP 7 91441 2}\01 - (They Call It) Stormy Monday.wav

Pre-gap length 0:00:02.33

Peak level 93.5 %
Extraction speed 2.5 X
Track quality 100.0 %
Test CRC 0767F1D8
Copy CRC 0767F1D8
Accurately ripped (confidence 7) [564EA398] (AR v2)
Copy OK

Track 2

Filename C:\torrent\Lou Rawls with Les McCann LTD. - Stormy Monday (1962) [FLAC] {Blue Note Records CDP 7 91441 2}\02 - God Bless the Child.wav

Pre-gap length 0:00:01.47

Peak level 76.9 %
Extraction speed 3.0 X
Track quality 100.0 %
Test CRC 63CE85DA
Copy CRC 63CE85DA
Accurately ripped (confidence 7) [E6D1B32F] (AR v2)
Copy OK

Track 3

Filename C:\torrent\Lou Rawls with Les McCann LTD. - Stormy Monday (1962) [FLAC] {Blue Note Records CDP 7 91441 2}\03 - See See Rider.wav

Pre-gap length 0:00:02.50

Peak level 89.1 %
Extraction speed 3.0 X
Track quality 100.0 %
Test CRC C3FAA644
Copy CRC C3FAA644
Accurately ripped (confidence 7) [2F0D2003] (AR v2)
Copy OK

Track 4

Filename C:\torrent\Lou Rawls with Les McCann LTD. - Stormy Monday (1962) [FLAC] {Blue Note Records CDP 7 91441 2}\04 - Willow Weep for Me.wav

Pre-gap length 0:00:02.18

Peak level 94.1 %
Extraction speed 3.6 X
Track quality 100.0 %
Test CRC E51475D7
Copy CRC E51475D7
Accurately ripped (confidence 7) [7381F898] (AR v2)
Copy OK

Track 5

Filename C:\torrent\Lou Rawls with Les McCann LTD. - Stormy Monday (1962) [FLAC] {Blue Note Records CDP 7 91441 2}\05 - I'm Gonna Move to the Outskirts of Town.wav

Pre-gap length 0:00:01.23

Peak level 62.3 %
Extraction speed 3.7 X
Track quality 100.0 %
Test CRC A87312E1
Copy CRC A87312E1
Accurately ripped (confidence 7) [84D333A8] (AR v2)
Copy OK

Track 6

Filename C:\torrent\Lou Rawls with Les McCann LTD. - Stormy Monday (1962) [FLAC] {Blue Note Records CDP 7 91441 2}\06 - In the Evening When the Sun Goes Down.wav

Pre-gap length 0:00:01.67

Peak level 71.2 %
Extraction speed 3.8 X
Track quality 100.0 %
Test CRC 7E91B2A7
Copy CRC 7E91B2A7
Accurately ripped (confidence 7) [DC99D438] (AR v2)
Copy OK

Track 7

Filename C:\torrent\Lou Rawls with Les McCann LTD. - Stormy Monday (1962) [FLAC] {Blue Note Records CDP 7 91441 2}\07 - 'Tain't Nobody's Biz-ness If I Do.wav

Pre-gap length 0:00:01.55

Peak level 77.4 %
Extraction speed 3.8 X
Track quality 100.0 %
Test CRC D0DB7019
Copy CRC D0DB7019
Accurately ripped (confidence 7) [391DF659] (AR v2)
Copy OK

Track 8

Filename C:\torrent\Lou Rawls with Les McCann LTD. - Stormy Monday (1962) [FLAC] {Blue Note Records CDP 7 91441 2}\08 - Lost and Lookin'.wav

Pre-gap length 0:00:02.55

Peak level 69.8 %
Extraction speed 4.0 X
Track quality 100.0 %
Test CRC F9CB4F36
Copy CRC F9CB4F36
Accurately ripped (confidence 7) [59F1A295] (AR v2)
Copy OK

Track 9

Filename C:\torrent\Lou Rawls with Les McCann LTD. - Stormy Monday (1962) [FLAC] {Blue Note Records CDP 7 91441 2}\09 - I'd Rather Drink Muddy Water.wav

Pre-gap length 0:00:00.32

Peak level 74.8 %
Extraction speed 3.6 X
Track quality 99.9 %
Test CRC 3A10FE9F
Copy CRC 3A10FE9F
Accurately ripped (confidence 7) [62063DFE] (AR v2)
Copy OK

Track 10

Filename C:\torrent\Lou Rawls with Les McCann LTD. - Stormy Monday (1962) [FLAC] {Blue Note Records CDP 7 91441 2}\10 - Sweet Lover.wav

Pre-gap length 0:00:01.73

Peak level 83.9 %
Extraction speed 3.4 X
Track quality 99.9 %
Test CRC FBC16CB7
Copy CRC FBC16CB7
Accurately ripped (confidence 7) [51039E5B] (AR v2)
Copy OK

Track 11

Filename C:\torrent\Lou Rawls with Les McCann LTD. - Stormy Monday (1962) [FLAC] {Blue Note Records CDP 7 91441 2}\11 - Blues Is a Woman.wav

Pre-gap length 0:00:02.42

Peak level 77.8 %
Extraction speed 4.3 X
Track quality 100.0 %
Test CRC 38F28212
Copy CRC 38F28212
Accurately ripped (confidence 7) [1E2D2B28] (AR v2)
Copy OK

Track 12

Filename C:\torrent\Lou Rawls with Les McCann LTD. - Stormy Monday (1962) [FLAC] {Blue Note Records CDP 7 91441 2}\12 - A Little Les of Lou's Blues.wav

Pre-gap length 0:00:01.65

Peak level 84.9 %
Extraction speed 4.3 X
Track quality 100.0 %
Test CRC 0DBAF4DE
Copy CRC 0DBAF4DE
Accurately ripped (confidence 7) [D2E6ECAC] (AR v2)
Copy OK

Track 13

Filename C:\torrent\Lou Rawls with Les McCann LTD. - Stormy Monday (1962) [FLAC] {Blue Note Records CDP 7 91441 2}\13 - (They Call It) Stormy Monday (alternate take).wav

Pre-gap length 0:00:02.62

Peak level 93.3 %
Extraction speed 3.6 X
Track quality 99.9 %
Test CRC 842DE020
Copy CRC 842DE020
Accurately ripped (confidence 7) [271FC4B1] (AR v2)
Copy OK


All tracks accurately ripped

No errors occurred

End of status report

==== Log checksum 42A53F3F4352874CBBCF1A4293F111911F845EE2AD93345458D24CD7727A177A ====


Lou Rawls with Les McCann Ltd. - Stormy Monday (1962) {Blue Note Records CDP 7 91441 2 rel 1990}

Lou Rawls with Les McCann Ltd. - Stormy Monday (1962) {Blue Note Records CDP 7 91441 2 rel 1990}



===