Tags
Language
Tags

Lou Donaldson - Four Classic Albums (2CD) (2017) {Compilation}

Posted By: Domestos
Lou Donaldson - Four Classic Albums (2CD) (2017) {Compilation}

Lou Donaldson - Four Classic Albums (2CD) (2017) {Compilation}
EAC Rip | FLAC (tracks+.cue, log) ~ 502.41 Mb + 542.88 Mb + 26.53 Mb (Scans) | 02:34:39
Hard Bop, Soul-Jazz | Label: Avid Jazz - EMSC 1251

AVID Jazz continues with its Four Classic album series with a re-mastered 2CD release by Lou Donaldson, complete with original artwork and liner notes. As an alto saxophonist, Lou Donaldson seemed to spend his early jazz career trying to extricate himself from being styled as a copyist of his acknowledged hero and major influence, Charlie Parker. A tricky thing to do of course, as Parker was such a huge presence on the jazz scene at the time, but as his career developed, Lou did begin to create his own, more blues orientated sound.

Donaldson’s musical training, as was fairly common at the time, came from his time spent in military service. However by 1952 he had moved to New York to begin his recording career with Blue Note records. Although perhaps not a jazz innovator in the Parker mode, Lou Donaldson certainly had developed his own hard driving, bluesy, bop sound by the time he started recording as leader. Artists he has worked with include; Art Blakey, Clifford Brown, Horace Silver, Thelonious Monk, Sonny Clark, Curtis Fuller, Donald Byrd, Art Taylor, Grant Green and Milt Jackson. Here we present four of his best from Blue Note.



CD1 {01:17:16}
Blues Walk (1958)
01. Blues Walk (6:43)
02. Move (5:54)
03. The Masquerade Is Over (5:53)
04. Play Ray (5:32)
05. Autumn Nocturne (4:55)
06. Callin' All Cats (5:16)
Gravy Train (1961)
07. Gravy Train (8:14)
08. South of the Border (5:31)
09. Polka Dots and Moonbeams (4:59)
10. Avalon (4:15)
11. Candy (9:17)
12. Twist Time (6:46)
13. Glory of Love (4:01)

CD2 {01:17:23}
Lou Takes Off (1957)
01. Sputnik (10:06)
02. Dewey Square (7:17)
03. Strollin' In (14:34)
04. Groovin' High (6:24)
Here 'Tis (1961)
05. A Foggy Day (6:38)
06. Here 'Tis (9:26)
07. Cool Blues (6:53)
08. Watusi Jump (7:32)
09. Walk wid Me (8:33)

Lou Donaldson - Four Classic Albums (2CD) (2017) {Compilation}

Exact Audio Copy V1.3 from 2. September 2016

EAC extraction logfile from 9. February 2019, 18:22

Lou Donaldson / Four Classic Albums - CD1

Used drive : TSSTcorpCDDVDW SH-224FB Adapter: 1 ID: 0

Read mode : Secure
Utilize accurate stream : Yes
Defeat audio cache : Yes
Make use of C2 pointers : No

Read offset correction : 6
Overread into Lead-In and Lead-Out : No
Fill up missing offset samples with silence : Yes
Delete leading and trailing silent blocks : No
Null samples used in CRC calculations : Yes
Used interface : Native Win32 interface for Win NT & 2000
Gap handling : Appended to previous track

Used output format : User Defined Encoder
Selected bitrate : 128 kBit/s
Quality : High
Add ID3 tag : No
Command line compressor : C:\Program Files (x86)\Exact Audio Copy\Flac\flac.exe
Additional command line options : -V -8 -T "Genre=%genre%" -T "Artist=%artist%" -T "Title=%title%" -T "Album=%albumtitle%" -T "Date=%year%" -T "Tracknumber=%tracknr%" -T "Comment=%comment%" %source%


TOC of the extracted CD

Track | Start | Length | Start sector | End sector
––––––––––––––––––––––––––––-
1 | 0:00.00 | 6:42.60 | 0 | 30209
2 | 6:42.60 | 5:54.15 | 30210 | 56774
3 | 12:37.00 | 5:52.73 | 56775 | 83247
4 | 18:29.73 | 5:32.24 | 83248 | 108171
5 | 24:02.22 | 4:55.04 | 108172 | 130300
6 | 28:57.26 | 5:16.05 | 130301 | 154005
7 | 34:13.31 | 8:14.37 | 154006 | 191092
8 | 42:27.68 | 5:31.05 | 191093 | 215922
9 | 47:58.73 | 4:58.73 | 215923 | 238345
10 | 52:57.71 | 4:15.08 | 238346 | 257478
11 | 57:13.04 | 9:17.17 | 257479 | 299270
12 | 66:30.21 | 6:46.36 | 299271 | 329756
13 | 73:16.57 | 4:00.57 | 329757 | 347813


Track 1

Filename D:\ssagwebster\Lou Donaldson - Four Classic Albums (2CD, 2017)\CD1\01. Blues Walk.wav

Pre-gap length 0:00:02.00

Peak level 91.8 %
Extraction speed 2.1 X
Track quality 100.0 %
Test CRC 6E3B0904
Copy CRC 6E3B0904
Accurately ripped (confidence 1) [FF4D21DE] (AR v2)
Copy OK

Track 2

Filename D:\ssagwebster\Lou Donaldson - Four Classic Albums (2CD, 2017)\CD1\02. Move.wav

Pre-gap length 0:00:02.00

Peak level 88.8 %
Extraction speed 2.2 X
Track quality 99.9 %
Test CRC 0FB66811
Copy CRC 0FB66811
Accurately ripped (confidence 1) [BC09CB74] (AR v2)
Copy OK

Track 3

Filename D:\ssagwebster\Lou Donaldson - Four Classic Albums (2CD, 2017)\CD1\03. The Masquerade Is Over.wav

Pre-gap length 0:00:02.00

Peak level 98.3 %
Extraction speed 2.6 X
Track quality 100.0 %
Test CRC 24133ADE
Copy CRC 24133ADE
Accurately ripped (confidence 1) [66FDB5EA] (AR v2)
Copy OK

Track 4

Filename D:\ssagwebster\Lou Donaldson - Four Classic Albums (2CD, 2017)\CD1\04. Play Ray.wav

Pre-gap length 0:00:02.00

Peak level 96.3 %
Extraction speed 2.6 X
Track quality 99.9 %
Test CRC 30D58A2A
Copy CRC 30D58A2A
Accurately ripped (confidence 1) [236235B0] (AR v2)
Copy OK

Track 5

Filename D:\ssagwebster\Lou Donaldson - Four Classic Albums (2CD, 2017)\CD1\05. Autumn Nocturne.wav

Pre-gap length 0:00:02.00

Peak level 90.7 %
Extraction speed 2.9 X
Track quality 100.0 %
Test CRC 37ED1D23
Copy CRC 37ED1D23
Accurately ripped (confidence 1) [5E03F01C] (AR v2)
Copy OK

Track 6

Filename D:\ssagwebster\Lou Donaldson - Four Classic Albums (2CD, 2017)\CD1\06. Callin' All Cats.wav

Pre-gap length 0:00:02.00

Peak level 92.9 %
Extraction speed 2.8 X
Track quality 99.9 %
Test CRC 459917A5
Copy CRC 459917A5
Accurately ripped (confidence 1) [0D0BBB42] (AR v2)
Copy OK

Track 7

Filename D:\ssagwebster\Lou Donaldson - Four Classic Albums (2CD, 2017)\CD1\07. Gravy Train.wav

Pre-gap length 0:00:02.00

Peak level 97.9 %
Extraction speed 3.5 X
Track quality 100.0 %
Test CRC 50D24C59
Copy CRC 50D24C59
Accurately ripped (confidence 1) [E5A50A68] (AR v2)
Copy OK

Track 8

Filename D:\ssagwebster\Lou Donaldson - Four Classic Albums (2CD, 2017)\CD1\08. South Of The Border.wav

Pre-gap length 0:00:02.00

Peak level 97.9 %
Extraction speed 3.6 X
Track quality 100.0 %
Test CRC A46A1128
Copy CRC A46A1128
Accurately ripped (confidence 1) [3FB756C3] (AR v2)
Copy OK

Track 9

Filename D:\ssagwebster\Lou Donaldson - Four Classic Albums (2CD, 2017)\CD1\09. Polka Dots And Moonbeams.wav

Pre-gap length 0:00:02.00

Peak level 97.9 %
Extraction speed 3.6 X
Track quality 100.0 %
Test CRC E428B872
Copy CRC E428B872
Accurately ripped (confidence 1) [249A5704] (AR v2)
Copy OK

Track 10

Filename D:\ssagwebster\Lou Donaldson - Four Classic Albums (2CD, 2017)\CD1\10. Avalon.wav

Pre-gap length 0:00:02.00

Peak level 97.9 %
Extraction speed 3.7 X
Track quality 100.0 %
Test CRC D13F6124
Copy CRC D13F6124
Accurately ripped (confidence 1) [3C8C47BA] (AR v2)
Copy OK

Track 11

Filename D:\ssagwebster\Lou Donaldson - Four Classic Albums (2CD, 2017)\CD1\11. Candy.wav

Pre-gap length 0:00:02.00

Peak level 97.9 %
Extraction speed 4.2 X
Track quality 100.0 %
Test CRC 27C34FCF
Copy CRC 27C34FCF
Accurately ripped (confidence 1) [D76B493C] (AR v2)
Copy OK

Track 12

Filename D:\ssagwebster\Lou Donaldson - Four Classic Albums (2CD, 2017)\CD1\12. Twist Time.wav

Pre-gap length 0:00:02.00

Peak level 97.9 %
Extraction speed 4.2 X
Track quality 100.0 %
Test CRC 3D08B00F
Copy CRC 3D08B00F
Accurately ripped (confidence 1) [384A234F] (AR v2)
Copy OK

Track 13

Filename D:\ssagwebster\Lou Donaldson - Four Classic Albums (2CD, 2017)\CD1\13. Glory Of Love.wav

Pre-gap length 0:00:02.00

Peak level 97.9 %
Extraction speed 4.1 X
Track quality 100.0 %
Test CRC AECF8D7B
Copy CRC AECF8D7B
Accurately ripped (confidence 1) [4831C995] (AR v2)
Copy OK


All tracks accurately ripped

No errors occurred

End of status report

==== Log checksum 0257384914023FF5F6683C33D747BE235C7C06CB55A3BCD1E9E3DC8910AB78A6 ====

Exact Audio Copy V1.3 from 2. September 2016

EAC extraction logfile from 9. February 2019, 19:17

Lou Donaldson / Four Classic Albums - CD2

Used drive : TSSTcorpCDDVDW SH-224FB Adapter: 1 ID: 0

Read mode : Secure
Utilize accurate stream : Yes
Defeat audio cache : Yes
Make use of C2 pointers : No

Read offset correction : 6
Overread into Lead-In and Lead-Out : No
Fill up missing offset samples with silence : Yes
Delete leading and trailing silent blocks : No
Null samples used in CRC calculations : Yes
Used interface : Native Win32 interface for Win NT & 2000
Gap handling : Appended to previous track

Used output format : User Defined Encoder
Selected bitrate : 128 kBit/s
Quality : High
Add ID3 tag : No
Command line compressor : C:\Program Files (x86)\Exact Audio Copy\Flac\flac.exe
Additional command line options : -V -8 -T "Genre=%genre%" -T "Artist=%artist%" -T "Title=%title%" -T "Album=%albumtitle%" -T "Date=%year%" -T "Tracknumber=%tracknr%" -T "Comment=%comment%" %source%


TOC of the extracted CD

Track | Start | Length | Start sector | End sector
––––––––––––––––––––––––––––-
1 | 0:00.00 | 10:06.25 | 0 | 45474
2 | 10:06.25 | 7:17.21 | 45475 | 78270
3 | 17:23.46 | 14:34.34 | 78271 | 143854
4 | 31:58.05 | 6:24.23 | 143855 | 172677
5 | 38:22.28 | 6:37.44 | 172678 | 202496
6 | 44:59.72 | 9:25.64 | 202497 | 244935
7 | 54:25.61 | 6:53.17 | 244936 | 275927
8 | 61:19.03 | 7:32.18 | 275928 | 309845
9 | 68:51.21 | 8:33.36 | 309846 | 348356


Track 1

Filename D:\ssagwebster\Lou Donaldson - Four Classic Albums (2CD, 2017)\CD2\01. Sputnik.wav

Pre-gap length 0:00:02.00

Peak level 89.0 %
Extraction speed 2.3 X
Track quality 100.0 %
Test CRC EADDBD2E
Copy CRC EADDBD2E
Accurately ripped (confidence 1) [D2C55BF2] (AR v2)
Copy OK

Track 2

Filename D:\ssagwebster\Lou Donaldson - Four Classic Albums (2CD, 2017)\CD2\02. Dewey Square.wav

Pre-gap length 0:00:02.00

Peak level 91.9 %
Extraction speed 2.6 X
Track quality 100.0 %
Test CRC 39BE5CD7
Copy CRC 39BE5CD7
Accurately ripped (confidence 1) [C02F0310] (AR v2)
Copy OK

Track 3

Filename D:\ssagwebster\Lou Donaldson - Four Classic Albums (2CD, 2017)\CD2\03. Strollin' In.wav

Pre-gap length 0:00:02.00

Peak level 89.0 %
Extraction speed 3.0 X
Track quality 99.9 %
Test CRC 0D5CB2DF
Copy CRC 0D5CB2DF
Accurately ripped (confidence 1) [01AD0600] (AR v2)
Copy OK

Track 4

Filename D:\ssagwebster\Lou Donaldson - Four Classic Albums (2CD, 2017)\CD2\04. Groovin' High.wav

Pre-gap length 0:00:02.00

Peak level 89.0 %
Extraction speed 3.3 X
Track quality 100.0 %
Test CRC EA986FB4
Copy CRC EA986FB4
Accurately ripped (confidence 1) [5697AA20] (AR v2)
Copy OK

Track 5

Filename D:\ssagwebster\Lou Donaldson - Four Classic Albums (2CD, 2017)\CD2\05. A Foggy Day.wav

Pre-gap length 0:00:02.00

Peak level 97.9 %
Extraction speed 3.5 X
Track quality 100.0 %
Test CRC A79BF0B1
Copy CRC A79BF0B1
Accurately ripped (confidence 1) [143D2A38] (AR v2)
Copy OK

Track 6

Filename D:\ssagwebster\Lou Donaldson - Four Classic Albums (2CD, 2017)\CD2\06. Here 'Tis.wav

Pre-gap length 0:00:02.00

Peak level 97.9 %
Extraction speed 3.8 X
Track quality 100.0 %
Test CRC 9DA10121
Copy CRC 9DA10121
Accurately ripped (confidence 1) [3F7AB6F7] (AR v2)
Copy OK

Track 7

Filename D:\ssagwebster\Lou Donaldson - Four Classic Albums (2CD, 2017)\CD2\07. Cool Blues.wav

Pre-gap length 0:00:02.00

Peak level 97.9 %
Extraction speed 3.9 X
Track quality 100.0 %
Test CRC 48ED8BB4
Copy CRC 48ED8BB4
Accurately ripped (confidence 1) [61845831] (AR v2)
Copy OK

Track 8

Filename D:\ssagwebster\Lou Donaldson - Four Classic Albums (2CD, 2017)\CD2\08. Watusi Jump.wav

Pre-gap length 0:00:02.00

Peak level 97.9 %
Extraction speed 4.1 X
Track quality 100.0 %
Test CRC 9E1575DB
Copy CRC 9E1575DB
Accurately ripped (confidence 1) [8AD1F536] (AR v2)
Copy OK

Track 9

Filename D:\ssagwebster\Lou Donaldson - Four Classic Albums (2CD, 2017)\CD2\09. Walk Wid Me.wav

Pre-gap length 0:00:02.00

Peak level 97.9 %
Extraction speed 4.4 X
Track quality 100.0 %
Test CRC 36A8FEA2
Copy CRC 36A8FEA2
Accurately ripped (confidence 1) [AB6DA2D7] (AR v2)
Copy OK


All tracks accurately ripped

No errors occurred

End of status report

==== Log checksum 567FFCF4F53B633BE4F971A758CFD304F7FC68DA77D66A0A74E1A690EC41E2CD ====

All thanks go to the ssagwebster

More Music in My Blog
Follow My RSS Channel