Tags
Language
Tags
April 2024
Su Mo Tu We Th Fr Sa
31 1 2 3 4 5 6
7 8 9 10 11 12 13
14 15 16 17 18 19 20
21 22 23 24 25 26 27
28 29 30 1 2 3 4

Charlie Parker - Intégrale Charlie Parker, Vol. 2, "Now's The Time", 1945-1946 (2011) {3CD Set Frémeaux & Associés FA1332}

Posted By: ruskaval
Charlie Parker - Intégrale Charlie Parker, Vol. 2, "Now's The Time", 1945-1946 (2011) {3CD Set Frémeaux & Associés FA1332}

Charlie Parker - Intégrale Charlie Parker, Vol. 2, "Now's The Time", 1945-1946 (2011) {3CD Set Frémeaux & Associés FA1332}
EAC rip (secure mode) | FLAC (tracks)+CUE+LOG -> 829 Mb | MP3 @320 -> 491 Mb
Full Artwork @ 600 dpi (jpg) -> 295 Mb | 5% repair rar
© 1945-46, 2011 Frémeaux & Associés | FA 1332
Jazz / BeBop / Bop / Saxophone

The Frémeaux label have done an admirable job of compiling the complete chronological recordings of major artists such as Django Reinhardt, Louis Armstrong and Mahalia Jackson. Now they turn their attention to Charlie Parker. This three CD set covers an exciting period when Parker and fellow bebop pioneer Dizzy Gillespie were shaking up the jazz world, not just at gigs but with widely distributed 78s. Most of the tracks, recorded in New York and Los Angeles, feature both men, in the studio and on radio broadcasts. A young Miles Davis also makes an appearance.
Charlie Parker - Intégrale Charlie Parker, Vol. 2, "Now's The Time", 1945-1946 (2011) {3CD Set Frémeaux & Associés FA1332}

A lot of people didn't understand his music and when they started to do so, they still wondered how he did it. Charlie Parker remained a mystery. -Clint Eastwood.

The aim of 'The Complete Charlie Parker', compiled for Frémeaux & Associés by Alain Tercinet, is to present (as far as possible) every studio-recording by Parker, together with titles featured in radio-broadcasts. Private recordings have been deliberately omitted from this selection to preserve a consistency of sound and aesthetic quality equal to the genius of this artist.
Charlie Parker - Intégrale Charlie Parker, Vol. 2, "Now's The Time", 1945-1946 (2011) {3CD Set Frémeaux & Associés FA1332}


fremeaux.com INFO

Performers
Charlie Parker - alto saxophone
with
Red Norvo, Dizzy Gillespie, Charlie Parker, Flip Phillips, Teddy Wilson, Slam Stewart, J.C. Heard
Sir Charles Thompson, Charlie Parker, Buck Clayton, Dexter Gordon, Danny Barker, Jimmy Butts, J.C. Heard
Charlie Parker, Miles Davis, Dizzy Gillespie, Hakim Sadik, Russel Curley, Max Roach
Dizzy Gillespie, Charlie Parker, Al Haig, Milt Jackson, Ray Brown, Stan Levey, Ernie Williams
Slim Gaillard, Charlie Parker, John Birks, Jack Mcvea, Dodo Marmarosa, Bam Brown, Zutty Singleton
Dizzy Gillespie, Charlie Parker, Al Haig, Milt Jackson, Ray Brown, Stan Levey, Ernie Williams
Charlie Parker, John Birks, Al Killian, Willie Smith, Lester Young, Charlie Ventura, Mel Powell, Billy Hadnott, Lee Young
Dizzy Gillespie, Charlie Parker, Red Callender
Dizzy Gillespie, Charlie Parker, Lucky Thompson, George Handy, Arvin Garrison, Ray Brown, Stan Levey
Charlie Parker, Miles Davis, Joe Albany, Addison Farmer , Chuck Thompson


Track Listing
CD1

01 - Hallelujah!
02 - Hallelujah!
03 - Hallelujah! (master)
04 - Get Happy
05 - Get Happy (master)
06 - Slam Slam Blues
07 - Slam Slam Blues (master)
08 - Congo Blues
09 - Congo Blues
10 - Congo Blues
11 - Congo Blues
12 - Congo Blues (master)
13 - Takin' Off
14 - If I Had You
15 - 20th Century Blues
16 - The Street Beat
17 - Billie's Bounce
18 - Billie's Bounce
19 - Billie's Bounce
20 - Warming Up A Riff (master)

Charlie Parker - Intégrale Charlie Parker, Vol. 2, "Now's The Time", 1945-1946 (2011) {3CD Set Frémeaux & Associés FA1332}


CD2
01 - Billie's Bounce
02 - Billie's Bounce (master)
03 - Now's the Time
04 - Now's the Time
05 - Now's the Time
06 - Now's the Time (master)
07 - Thriving on a Riff
08 - Thriving on a Riff
09 - Thriving on a Riff (master)
10 - Meandering
11 - Koko
12 - Koko (master)
13 - How High the Moon
14 - 52nd Street Theme
15 - Dizzy Boogie (master)
16 - Dizzy Boogie
17 - Flat Food Floogie
18 - Flat Food Floogie (master)
19 - Popity Pop
20 - Slim's Jam
21 - Dizzy Atmosphere-1
22 - Groovin' High
23 - Shaw 'Nuff
24 - Salt Peanuts

Charlie Parker - Intégrale Charlie Parker, Vol. 2, "Now's The Time", 1945-1946 (2011) {3CD Set Frémeaux & Associés FA1332}


CD3
01 - Sweet Georgia Brown
02 - Blues for Norman
03 - I Can't Get Started (master)
04 - Oh! Lady Be Good
05 - After You've Gone
06 - Lover, Come Back To Me
07 - Diggin' Diz
08 - Billie's Bounce
09 - All The Things You Are
10 - Blue 'N' Boogie
11 - Anthropology
12 - Ornithology

Charlie Parker - Intégrale Charlie Parker, Vol. 2, "Now's The Time", 1945-1946 (2011) {3CD Set Frémeaux & Associés FA1332}


Exact Audio Copy V1.3 from 2. September 2016

EAC extraction logfile from 21. October 2018, 17:07

Charlie Parker / Integrale Charlie Parker, Vol. 2, Now's The Time (CD1)

Used drive : ATAPI iHAS122 F Adapter: 1 ID: 1

Read mode : Secure
Utilize accurate stream : Yes
Defeat audio cache : Yes
Make use of C2 pointers : No

Read offset correction : 6
Overread into Lead-In and Lead-Out : No
Fill up missing offset samples with silence : Yes
Delete leading and trailing silent blocks : No
Null samples used in CRC calculations : Yes
Used interface : Native Win32 interface for Win NT & 2000
Gap handling : Appended to previous track

Used output format : User Defined Encoder
Selected bitrate : 1024 kBit/s
Quality : High
Add ID3 tag : No
Command line compressor : C:\Program Files (x86)\Exact Audio Copy_v1.3\Flac\flac.exe
Additional command line options : -8 -V -T "ARTIST=%artist%" -T "TITLE=%title%" -T "ALBUM=%albumtitle%" -T "DATE=%year%" -T "TRACKNUMBER=%tracknr%" -T "TOTALTRACKS=%numtracks%" -T "GENRE=%genre%" -T "ALBUMARTIST=%albumartist%" -T "ALBUM ARTIST=%albumartist%" -T "COMMENT=EAC Secure Mode, Test & Copy, AccurateRip, FLAC -8" %source%


TOC of the extracted CD

Track | Start | Length | Start sector | End sector
––––––––––––––––––––––––––––-
1 | 0:00.00 | 4:01.32 | 0 | 18106
2 | 4:01.32 | 4:07.11 | 18107 | 36642
3 | 8:08.43 | 4:12.49 | 36643 | 55591
4 | 12:21.17 | 4:06.35 | 55592 | 74076
5 | 16:27.52 | 3:50.11 | 74077 | 91337
6 | 20:17.63 | 5:06.05 | 91338 | 114292
7 | 25:23.68 | 4:31.14 | 114293 | 134631
8 | 29:55.07 | 1:07.65 | 134632 | 139721
9 | 31:02.72 | 1:16.31 | 139722 | 145452
10 | 32:19.28 | 4:01.21 | 145453 | 163548
11 | 36:20.49 | 3:54.54 | 163549 | 181152
12 | 40:15.28 | 3:57.57 | 181153 | 198984
13 | 44:13.10 | 3:11.69 | 198985 | 213378
14 | 47:25.04 | 3:02.43 | 213379 | 227071
15 | 50:27.47 | 2:55.18 | 227072 | 240214
16 | 53:22.65 | 2:36.69 | 240215 | 251983
17 | 55:59.59 | 2:43.42 | 251984 | 264250
18 | 58:43.26 | 1:45.74 | 264251 | 272199
19 | 60:29.25 | 3:08.63 | 272200 | 286362
20 | 63:38.13 | 2:34.14 | 286363 | 297926


Track 1

Filename D:\_EAC\Charlie Parker - Integrale Charlie Parker, Vol. 2, Now's The Time (2011) [FLAC] {3CD}\CD1\01 - Hallelujah!.wav

Pre-gap length 0:00:02.00

Peak level 71.7 %
Extraction speed 4.7 X
Track quality 100.0 %
Test CRC 7DB0F87E
Copy CRC 7DB0F87E
Accurately ripped (confidence 3) [6C08850F] (AR v2)
Copy OK

Track 2

Filename D:\_EAC\Charlie Parker - Integrale Charlie Parker, Vol. 2, Now's The Time (2011) [FLAC] {3CD}\CD1\02 - Hallelujah!.wav

Peak level 77.6 %
Extraction speed 5.3 X
Track quality 100.0 %
Test CRC 03749BB9
Copy CRC 03749BB9
Accurately ripped (confidence 3) [B653A45C] (AR v2)
Copy OK

Track 3

Filename D:\_EAC\Charlie Parker - Integrale Charlie Parker, Vol. 2, Now's The Time (2011) [FLAC] {3CD}\CD1\03 - Hallelujah! (master).wav

Peak level 74.6 %
Extraction speed 4.8 X
Track quality 99.9 %
Test CRC EE91D964
Copy CRC EE91D964
Accurately ripped (confidence 3) [8D81B8A3] (AR v2)
Copy OK

Track 4

Filename D:\_EAC\Charlie Parker - Integrale Charlie Parker, Vol. 2, Now's The Time (2011) [FLAC] {3CD}\CD1\04 - Get Happy.wav

Peak level 81.6 %
Extraction speed 6.0 X
Track quality 100.0 %
Test CRC 8DABC8A1
Copy CRC 8DABC8A1
Accurately ripped (confidence 3) [4DDB05C0] (AR v2)
Copy OK

Track 5

Filename D:\_EAC\Charlie Parker - Integrale Charlie Parker, Vol. 2, Now's The Time (2011) [FLAC] {3CD}\CD1\05 - Get Happy (master).wav

Peak level 86.7 %
Extraction speed 6.3 X
Track quality 100.0 %
Test CRC 8F077557
Copy CRC 8F077557
Accurately ripped (confidence 3) [F0241D6C] (AR v2)
Copy OK

Track 6

Filename D:\_EAC\Charlie Parker - Integrale Charlie Parker, Vol. 2, Now's The Time (2011) [FLAC] {3CD}\CD1\06 - Slam Slam Blues.wav

Peak level 75.1 %
Extraction speed 5.9 X
Track quality 99.9 %
Test CRC 08366E50
Copy CRC 08366E50
Accurately ripped (confidence 3) [876D0FC0] (AR v2)
Copy OK

Track 7

Filename D:\_EAC\Charlie Parker - Integrale Charlie Parker, Vol. 2, Now's The Time (2011) [FLAC] {3CD}\CD1\07 - Slam Slam Blues (master).wav

Peak level 62.9 %
Extraction speed 7.3 X
Track quality 100.0 %
Test CRC 05321EAF
Copy CRC 05321EAF
Accurately ripped (confidence 3) [F0049626] (AR v2)
Copy OK

Track 8

Filename D:\_EAC\Charlie Parker - Integrale Charlie Parker, Vol. 2, Now's The Time (2011) [FLAC] {3CD}\CD1\08 - Congo Blues.wav

Peak level 85.3 %
Extraction speed 5.4 X
Track quality 100.0 %
Test CRC 2FAEAC95
Copy CRC 2FAEAC95
Accurately ripped (confidence 3) [3E085DA2] (AR v2)
Copy OK

Track 9

Filename D:\_EAC\Charlie Parker - Integrale Charlie Parker, Vol. 2, Now's The Time (2011) [FLAC] {3CD}\CD1\09 - Congo Blues.wav

Peak level 65.8 %
Extraction speed 5.7 X
Track quality 100.0 %
Test CRC BBEDD592
Copy CRC BBEDD592
Accurately ripped (confidence 3) [61EA8207] (AR v2)
Copy OK

Track 10

Filename D:\_EAC\Charlie Parker - Integrale Charlie Parker, Vol. 2, Now's The Time (2011) [FLAC] {3CD}\CD1\10 - Congo Blues.wav

Peak level 47.4 %
Extraction speed 7.4 X
Track quality 100.0 %
Test CRC 93AE5EAC
Copy CRC 93AE5EAC
Accurately ripped (confidence 3) [85A7554C] (AR v2)
Copy OK

Track 11

Filename D:\_EAC\Charlie Parker - Integrale Charlie Parker, Vol. 2, Now's The Time (2011) [FLAC] {3CD}\CD1\11 - Congo Blues.wav

Peak level 69.0 %
Extraction speed 6.4 X
Track quality 99.9 %
Test CRC 27D4F56A
Copy CRC 27D4F56A
Accurately ripped (confidence 3) [77C48CE7] (AR v2)
Copy OK

Track 12

Filename D:\_EAC\Charlie Parker - Integrale Charlie Parker, Vol. 2, Now's The Time (2011) [FLAC] {3CD}\CD1\12 - Congo Blues (master).wav

Peak level 60.4 %
Extraction speed 8.0 X
Track quality 100.0 %
Test CRC 284F04CC
Copy CRC 284F04CC
Accurately ripped (confidence 3) [0293C74E] (AR v2)
Copy OK

Track 13

Filename D:\_EAC\Charlie Parker - Integrale Charlie Parker, Vol. 2, Now's The Time (2011) [FLAC] {3CD}\CD1\13 - Takin' Off.wav

Peak level 97.7 %
Extraction speed 6.3 X
Track quality 99.9 %
Test CRC 82550418
Copy CRC 82550418
Accurately ripped (confidence 3) [37C5566A] (AR v2)
Copy OK

Track 14

Filename D:\_EAC\Charlie Parker - Integrale Charlie Parker, Vol. 2, Now's The Time (2011) [FLAC] {3CD}\CD1\14 - If I Had You.wav

Peak level 75.9 %
Extraction speed 6.3 X
Track quality 99.9 %
Test CRC BE8FE810
Copy CRC BE8FE810
Accurately ripped (confidence 3) [4A4C828B] (AR v2)
Copy OK

Track 15

Filename D:\_EAC\Charlie Parker - Integrale Charlie Parker, Vol. 2, Now's The Time (2011) [FLAC] {3CD}\CD1\15 - 20th Century Blues.wav

Peak level 76.8 %
Extraction speed 8.2 X
Track quality 100.0 %
Test CRC A14E2BBE
Copy CRC A14E2BBE
Accurately ripped (confidence 3) [147AEC51] (AR v2)
Copy OK

Track 16

Filename D:\_EAC\Charlie Parker - Integrale Charlie Parker, Vol. 2, Now's The Time (2011) [FLAC] {3CD}\CD1\16 - The Street Beat.wav

Peak level 85.3 %
Extraction speed 8.2 X
Track quality 100.0 %
Test CRC E4E87C0B
Copy CRC E4E87C0B
Accurately ripped (confidence 3) [3EE071C4] (AR v2)
Copy OK

Track 17

Filename D:\_EAC\Charlie Parker - Integrale Charlie Parker, Vol. 2, Now's The Time (2011) [FLAC] {3CD}\CD1\17 - Billie's Bounce.wav

Peak level 64.2 %
Extraction speed 8.2 X
Track quality 100.0 %
Test CRC 47075F62
Copy CRC 47075F62
Accurately ripped (confidence 3) [E76F5BC0] (AR v2)
Copy OK

Track 18

Filename D:\_EAC\Charlie Parker - Integrale Charlie Parker, Vol. 2, Now's The Time (2011) [FLAC] {3CD}\CD1\18 - Billie's Bounce.wav

Peak level 61.8 %
Extraction speed 7.9 X
Track quality 100.0 %
Test CRC 9BB15307
Copy CRC 9BB15307
Accurately ripped (confidence 3) [FFD9D110] (AR v2)
Copy OK

Track 19

Filename D:\_EAC\Charlie Parker - Integrale Charlie Parker, Vol. 2, Now's The Time (2011) [FLAC] {3CD}\CD1\19 - Billie's Bounce.wav

Peak level 67.6 %
Extraction speed 8.8 X
Track quality 100.0 %
Test CRC 2D0E6A39
Copy CRC 2D0E6A39
Accurately ripped (confidence 3) [E067176A] (AR v2)
Copy OK

Track 20

Filename D:\_EAC\Charlie Parker - Integrale Charlie Parker, Vol. 2, Now's The Time (2011) [FLAC] {3CD}\CD1\20 - Warming Up A Riff (master).wav

Peak level 79.5 %
Extraction speed 8.5 X
Track quality 100.0 %
Test CRC 1A1B4CEE
Copy CRC 1A1B4CEE
Accurately ripped (confidence 3) [94AF3826] (AR v2)
Copy OK


All tracks accurately ripped

No errors occurred

End of status report

–– CUETools DB Plugin V2.1.6

[CTDB TOCID: H2AeL0IRbXvQKBlYG6JqflOAGBA-] found
Submit result: H2AeL0IRbXvQKBlYG6JqflOAGBA- has been confirmed
Track | CTDB Status
1 | (5/5) Accurately ripped
2 | (5/5) Accurately ripped
3 | (5/5) Accurately ripped
4 | (5/5) Accurately ripped
5 | (5/5) Accurately ripped
6 | (5/5) Accurately ripped
7 | (5/5) Accurately ripped
8 | (5/5) Accurately ripped
9 | (5/5) Accurately ripped
10 | (5/5) Accurately ripped
11 | (5/5) Accurately ripped
12 | (5/5) Accurately ripped
13 | (5/5) Accurately ripped
14 | (4/5) Accurately ripped
15 | (5/5) Accurately ripped
16 | (5/5) Accurately ripped
17 | (5/5) Accurately ripped
18 | (5/5) Accurately ripped
19 | (3/5) Accurately ripped
20 | (5/5) Accurately ripped


==== Log checksum F87BB193DE3C68696A6CF869DCBF0A003D4CAE3D32649E5B36D633F037049CBF ====
Exact Audio Copy V1.3 from 2. September 2016

EAC extraction logfile from 21. October 2018, 21:16

Charlie Parker / Integrale Charlie Parker, Vol. 2, Now's The Time (CD2)

Used drive : ATAPI iHAS122 F Adapter: 1 ID: 1

Read mode : Secure
Utilize accurate stream : Yes
Defeat audio cache : Yes
Make use of C2 pointers : No

Read offset correction : 6
Overread into Lead-In and Lead-Out : No
Fill up missing offset samples with silence : Yes
Delete leading and trailing silent blocks : No
Null samples used in CRC calculations : Yes
Used interface : Native Win32 interface for Win NT & 2000
Gap handling : Appended to previous track

Used output format : User Defined Encoder
Selected bitrate : 1024 kBit/s
Quality : High
Add ID3 tag : No
Command line compressor : C:\Program Files (x86)\Exact Audio Copy_v1.3\Flac\flac.exe
Additional command line options : -8 -V -T "ARTIST=%artist%" -T "TITLE=%title%" -T "ALBUM=%albumtitle%" -T "DATE=%year%" -T "TRACKNUMBER=%tracknr%" -T "TOTALTRACKS=%numtracks%" -T "GENRE=%genre%" -T "ALBUMARTIST=%albumartist%" -T "ALBUM ARTIST=%albumartist%" -T "COMMENT=EAC Secure Mode, Test & Copy, AccurateRip, FLAC -8" %source%


TOC of the extracted CD

Track | Start | Length | Start sector | End sector
––––––––––––––––––––––––––––-
1 | 0:00.00 | 1:41.01 | 0 | 7575
2 | 1:41.01 | 3:10.62 | 7576 | 21887
3 | 4:51.63 | 0:21.41 | 21888 | 23503
4 | 5:13.29 | 0:38.47 | 23504 | 26400
5 | 5:52.01 | 3:09.44 | 26401 | 40619
6 | 9:01.45 | 3:17.53 | 40620 | 55447
7 | 12:19.23 | 3:00.08 | 55448 | 68955
8 | 15:19.31 | 0:25.09 | 68956 | 70839
9 | 15:44.40 | 2:55.53 | 70840 | 84017
10 | 18:40.18 | 3:15.45 | 84018 | 98687
11 | 21:55.63 | 0:39.28 | 98688 | 101640
12 | 22:35.16 | 2:56.71 | 101641 | 114911
13 | 25:32.12 | 3:55.27 | 114912 | 132563
14 | 29:27.39 | 1:53.37 | 132564 | 141075
15 | 31:21.01 | 3:10.04 | 141076 | 155329
16 | 34:31.05 | 3:17.03 | 155330 | 170107
17 | 37:48.08 | 2:35.49 | 170108 | 181781
18 | 40:23.57 | 2:50.24 | 181782 | 194555
19 | 43:14.06 | 3:00.51 | 194556 | 208106
20 | 46:14.57 | 3:20.07 | 208107 | 223113
21 | 49:34.64 | 4:35.24 | 223114 | 243762
22 | 54:10.13 | 6:03.33 | 243763 | 271020
23 | 60:13.46 | 4:46.13 | 271021 | 292483
24 | 64:59.59 | 2:05.32 | 292484 | 301890


Track 1

Filename D:\_EAC\Charlie Parker - Integrale Charlie Parker, Vol. 2, Now's The Time (2011) [FLAC] {3CD}\CD2\01 - Billie's Bounce.wav

Pre-gap length 0:00:02.00

Peak level 61.7 %
Extraction speed 3.9 X
Track quality 100.0 %
Test CRC D05625C2
Copy CRC D05625C2
Accurately ripped (confidence 3) [84BF065C] (AR v2)
Copy OK

Track 2

Filename D:\_EAC\Charlie Parker - Integrale Charlie Parker, Vol. 2, Now's The Time (2011) [FLAC] {3CD}\CD2\02 - Billie's Bounce (master).wav

Peak level 62.3 %
Extraction speed 4.8 X
Track quality 100.0 %
Test CRC 290A351D
Copy CRC 290A351D
Accurately ripped (confidence 3) [54E842D1] (AR v2)
Copy OK

Track 3

Filename D:\_EAC\Charlie Parker - Integrale Charlie Parker, Vol. 2, Now's The Time (2011) [FLAC] {3CD}\CD2\03 - Now's the Time.wav

Peak level 44.1 %
Extraction speed 1.1 X
Track quality 99.5 %
Test CRC BCB156D4
Copy CRC BCB156D4
Accurately ripped (confidence 3) [38D9ECF8] (AR v2)
Copy OK

Track 4

Filename D:\_EAC\Charlie Parker - Integrale Charlie Parker, Vol. 2, Now's The Time (2011) [FLAC] {3CD}\CD2\04 - Now's the Time.wav

Peak level 50.9 %
Extraction speed 3.1 X
Track quality 100.0 %
Test CRC 1CFA32DE
Copy CRC 1CFA32DE
Accurately ripped (confidence 3) [D1351A91] (AR v2)
Copy OK

Track 5

Filename D:\_EAC\Charlie Parker - Integrale Charlie Parker, Vol. 2, Now's The Time (2011) [FLAC] {3CD}\CD2\05 - Now's the Time.wav

Peak level 66.8 %
Extraction speed 4.2 X
Track quality 99.9 %
Test CRC 3D6B7C4C
Copy CRC 3D6B7C4C
Accurately ripped (confidence 3) [8AB2759A] (AR v2)
Copy OK

Track 6

Filename D:\_EAC\Charlie Parker - Integrale Charlie Parker, Vol. 2, Now's The Time (2011) [FLAC] {3CD}\CD2\06 - Now's the Time (master).wav

Peak level 68.3 %
Extraction speed 5.6 X
Track quality 100.0 %
Test CRC 7D902503
Copy CRC 7D902503
Accurately ripped (confidence 3) [A61366C4] (AR v2)
Copy OK

Track 7

Filename D:\_EAC\Charlie Parker - Integrale Charlie Parker, Vol. 2, Now's The Time (2011) [FLAC] {3CD}\CD2\07 - Thriving on a Riff.wav

Peak level 56.7 %
Extraction speed 5.8 X
Track quality 100.0 %
Test CRC 7F7F1357
Copy CRC 7F7F1357
Accurately ripped (confidence 3) [E086355A] (AR v2)
Copy OK

Track 8

Filename D:\_EAC\Charlie Parker - Integrale Charlie Parker, Vol. 2, Now's The Time (2011) [FLAC] {3CD}\CD2\08 - Thriving on a Riff.wav

Peak level 48.3 %
Extraction speed 2.7 X
Track quality 100.0 %
Test CRC 2745D106
Copy CRC 2745D106
Accurately ripped (confidence 3) [9F60D7EA] (AR v2)
Copy OK

Track 9

Filename D:\_EAC\Charlie Parker - Integrale Charlie Parker, Vol. 2, Now's The Time (2011) [FLAC] {3CD}\CD2\09 - Thriving on a Riff (master).wav

Peak level 57.2 %
Extraction speed 6.0 X
Track quality 100.0 %
Test CRC 35671810
Copy CRC 35671810
Accurately ripped (confidence 3) [6D06A4AC] (AR v2)
Copy OK

Track 10

Filename D:\_EAC\Charlie Parker - Integrale Charlie Parker, Vol. 2, Now's The Time (2011) [FLAC] {3CD}\CD2\10 - Meandering.wav

Peak level 60.5 %
Extraction speed 6.3 X
Track quality 100.0 %
Test CRC 8B11FFB0
Copy CRC 8B11FFB0
Accurately ripped (confidence 3) [9EAFC8BD] (AR v2)
Copy OK

Track 11

Filename D:\_EAC\Charlie Parker - Integrale Charlie Parker, Vol. 2, Now's The Time (2011) [FLAC] {3CD}\CD2\11 - Koko.wav

Peak level 80.4 %
Extraction speed 4.0 X
Track quality 100.0 %
Test CRC 67672B36
Copy CRC 67672B36
Accurately ripped (confidence 3) [9935B446] (AR v2)
Copy OK

Track 12

Filename D:\_EAC\Charlie Parker - Integrale Charlie Parker, Vol. 2, Now's The Time (2011) [FLAC] {3CD}\CD2\12 - Koko (master).wav

Peak level 73.0 %
Extraction speed 5.1 X
Track quality 99.9 %
Test CRC 54E0627A
Copy CRC 54E0627A
Accurately ripped (confidence 3) [9DAE9515] (AR v2)
Copy OK

Track 13

Filename D:\_EAC\Charlie Parker - Integrale Charlie Parker, Vol. 2, Now's The Time (2011) [FLAC] {3CD}\CD2\13 - How High the Moon.wav

Peak level 92.5 %
Extraction speed 5.8 X
Track quality 99.9 %
Test CRC FB6FB94A
Copy CRC FB6FB94A
Accurately ripped (confidence 3) [C0F13CE2] (AR v2)
Copy OK

Track 14

Filename D:\_EAC\Charlie Parker - Integrale Charlie Parker, Vol. 2, Now's The Time (2011) [FLAC] {3CD}\CD2\14 - 52nd Street Theme.wav

Peak level 69.8 %
Extraction speed 4.5 X
Track quality 99.9 %
Test CRC 3F0E017C
Copy CRC 3F0E017C
Accurately ripped (confidence 3) [12E72CB8] (AR v2)
Copy OK

Track 15

Filename D:\_EAC\Charlie Parker - Integrale Charlie Parker, Vol. 2, Now's The Time (2011) [FLAC] {3CD}\CD2\15 - Dizzy Boogie (master).wav

Peak level 73.4 %
Extraction speed 7.3 X
Track quality 100.0 %
Test CRC DB2C4E44
Copy CRC DB2C4E44
Accurately ripped (confidence 3) [62C902ED] (AR v2)
Copy OK

Track 16

Filename D:\_EAC\Charlie Parker - Integrale Charlie Parker, Vol. 2, Now's The Time (2011) [FLAC] {3CD}\CD2\16 - Dizzy Boogie.wav

Peak level 81.4 %
Extraction speed 7.5 X
Track quality 100.0 %
Test CRC AE6E93CA
Copy CRC AE6E93CA
Accurately ripped (confidence 3) [0E7F8DA8] (AR v2)
Copy OK

Track 17

Filename D:\_EAC\Charlie Parker - Integrale Charlie Parker, Vol. 2, Now's The Time (2011) [FLAC] {3CD}\CD2\17 - Flat Food Floogie.wav

Peak level 75.6 %
Extraction speed 7.4 X
Track quality 100.0 %
Test CRC D2736E27
Copy CRC D2736E27
Accurately ripped (confidence 3) [BF342B70] (AR v2)
Copy OK

Track 18

Filename D:\_EAC\Charlie Parker - Integrale Charlie Parker, Vol. 2, Now's The Time (2011) [FLAC] {3CD}\CD2\18 - Flat Food Floogie (master).wav

Peak level 98.4 %
Extraction speed 5.9 X
Track quality 99.9 %
Test CRC 19A3DFDA
Copy CRC 19A3DFDA
Accurately ripped (confidence 3) [1A3E71E0] (AR v2)
Copy OK

Track 19

Filename D:\_EAC\Charlie Parker - Integrale Charlie Parker, Vol. 2, Now's The Time (2011) [FLAC] {3CD}\CD2\19 - Popity Pop.wav

Peak level 81.7 %
Extraction speed 7.9 X
Track quality 100.0 %
Test CRC 0EF2184A
Copy CRC 0EF2184A
Accurately ripped (confidence 3) [11A231D3] (AR v2)
Copy OK

Track 20

Filename D:\_EAC\Charlie Parker - Integrale Charlie Parker, Vol. 2, Now's The Time (2011) [FLAC] {3CD}\CD2\20 - Slim's Jam.wav

Peak level 73.7 %
Extraction speed 8.1 X
Track quality 100.0 %
Test CRC 5089A734
Copy CRC 5089A734
Accurately ripped (confidence 3) [3D1AFEDE] (AR v2)
Copy OK

Track 21

Filename D:\_EAC\Charlie Parker - Integrale Charlie Parker, Vol. 2, Now's The Time (2011) [FLAC] {3CD}\CD2\21 - Dizzy Atmosphere-1.wav

Peak level 88.8 %
Extraction speed 8.7 X
Track quality 100.0 %
Test CRC E7969A1C
Copy CRC E7969A1C
Accurately ripped (confidence 3) [835F69B8] (AR v2)
Copy OK

Track 22

Filename D:\_EAC\Charlie Parker - Integrale Charlie Parker, Vol. 2, Now's The Time (2011) [FLAC] {3CD}\CD2\22 - Groovin' High.wav

Peak level 98.8 %
Extraction speed 9.0 X
Track quality 100.0 %
Test CRC A717D25A
Copy CRC A717D25A
Accurately ripped (confidence 3) [1970C5EB] (AR v2)
Copy OK

Track 23

Filename D:\_EAC\Charlie Parker - Integrale Charlie Parker, Vol. 2, Now's The Time (2011) [FLAC] {3CD}\CD2\23 - Shaw 'Nuff.wav

Peak level 98.3 %
Extraction speed 7.9 X
Track quality 99.9 %
Test CRC DFD3A547
Copy CRC DFD3A547
Accurately ripped (confidence 3) [0124ED96] (AR v2)
Copy OK

Track 24

Filename D:\_EAC\Charlie Parker - Integrale Charlie Parker, Vol. 2, Now's The Time (2011) [FLAC] {3CD}\CD2\24 - Salt Peanuts.wav

Peak level 96.5 %
Extraction speed 7.9 X
Track quality 100.0 %
Test CRC 2A9452A5
Copy CRC 2A9452A5
Accurately ripped (confidence 3) [901A4786] (AR v2)
Copy OK


All tracks accurately ripped

No errors occurred

End of status report

–– CUETools DB Plugin V2.1.6

[CTDB TOCID: T27yu9oI0ytSGyUpZZzrhlMCqt4-] found
Submit result: T27yu9oI0ytSGyUpZZzrhlMCqt4- has been confirmed
Track | CTDB Status
1 | (4/4) Accurately ripped
2 | (3/4) Accurately ripped
3 | (4/4) Accurately ripped
4 | (3/4) Accurately ripped
5 | (3/4) Accurately ripped
6 | (4/4) Accurately ripped
7 | (4/4) Accurately ripped
8 | (4/4) Accurately ripped
9 | (4/4) Accurately ripped
10 | (4/4) Accurately ripped
11 | (4/4) Accurately ripped
12 | (4/4) Accurately ripped
13 | (4/4) Accurately ripped
14 | (4/4) Accurately ripped
15 | (4/4) Accurately ripped
16 | (4/4) Accurately ripped
17 | (4/4) Accurately ripped
18 | (4/4) Accurately ripped
19 | (4/4) Accurately ripped
20 | (4/4) Accurately ripped
21 | (4/4) Accurately ripped
22 | (4/4) Accurately ripped
23 | (4/4) Accurately ripped
24 | (4/4) Accurately ripped


==== Log checksum 8445B471BEB4DADBEC1E1C46F4FE911B3B7AD60B44677E0986E08ED4DA0338A0 ====
Exact Audio Copy V1.3 from 2. September 2016

EAC extraction logfile from 21. October 2018, 22:01

Charlie Parker / Integrale Charlie Parker, Vol. 2, Now's The Time (CD3)

Used drive : ATAPI iHAS122 F Adapter: 1 ID: 1

Read mode : Secure
Utilize accurate stream : Yes
Defeat audio cache : Yes
Make use of C2 pointers : No

Read offset correction : 6
Overread into Lead-In and Lead-Out : No
Fill up missing offset samples with silence : Yes
Delete leading and trailing silent blocks : No
Null samples used in CRC calculations : Yes
Used interface : Native Win32 interface for Win NT & 2000
Gap handling : Appended to previous track

Used output format : User Defined Encoder
Selected bitrate : 1024 kBit/s
Quality : High
Add ID3 tag : No
Command line compressor : C:\Program Files (x86)\Exact Audio Copy_v1.3\Flac\flac.exe
Additional command line options : -8 -V -T "ARTIST=%artist%" -T "TITLE=%title%" -T "ALBUM=%albumtitle%" -T "DATE=%year%" -T "TRACKNUMBER=%tracknr%" -T "TOTALTRACKS=%numtracks%" -T "GENRE=%genre%" -T "ALBUMARTIST=%albumartist%" -T "ALBUM ARTIST=%albumartist%" -T "COMMENT=EAC Secure Mode, Test & Copy, AccurateRip, FLAC -8" %source%


TOC of the extracted CD

Track | Start | Length | Start sector | End sector
––––––––––––––––––––––––––––-
1 | 0:00.00 | 9:37.22 | 0 | 43296
2 | 9:37.22 | 8:38.17 | 43297 | 82163
3 | 18:15.39 | 9:15.21 | 82164 | 123809
4 | 27:30.60 | 11:12.45 | 123810 | 174254
5 | 38:43.30 | 7:40.29 | 174255 | 208783
6 | 46:23.59 | 3:34.44 | 208784 | 224877
7 | 49:58.28 | 2:56.15 | 224878 | 238092
8 | 52:54.43 | 3:51.02 | 238093 | 255419
9 | 56:45.45 | 5:17.54 | 255420 | 279248
10 | 62:03.24 | 5:18.61 | 279249 | 303159
11 | 67:22.10 | 2:51.46 | 303160 | 316030
12 | 70:13.56 | 5:06.65 | 316031 | 339045


Track 1

Filename D:\_EAC\Charlie Parker - Integrale Charlie Parker, Vol. 2, Now's The Time (2011) [FLAC] {3CD}\CD3\01 - Sweet Georgia Brown.wav

Pre-gap length 0:00:02.00

Peak level 98.4 %
Extraction speed 5.4 X
Track quality 100.0 %
Test CRC E6F0D065
Copy CRC E6F0D065
Accurately ripped (confidence 3) [146E559F] (AR v2)
Copy OK

Track 2

Filename D:\_EAC\Charlie Parker - Integrale Charlie Parker, Vol. 2, Now's The Time (2011) [FLAC] {3CD}\CD3\02 - Blues for Norman.wav

Peak level 98.2 %
Extraction speed 5.9 X
Track quality 99.9 %
Test CRC 47C72BF6
Copy CRC 47C72BF6
Accurately ripped (confidence 3) [F5CDFD89] (AR v2)
Copy OK

Track 3

Filename D:\_EAC\Charlie Parker - Integrale Charlie Parker, Vol. 2, Now's The Time (2011) [FLAC] {3CD}\CD3\03 - I Can't Get Started (master).wav

Peak level 82.0 %
Extraction speed 7.1 X
Track quality 100.0 %
Test CRC 6F78AA35
Copy CRC 6F78AA35
Accurately ripped (confidence 3) [F70F2CCF] (AR v2)
Copy OK

Track 4

Filename D:\_EAC\Charlie Parker - Integrale Charlie Parker, Vol. 2, Now's The Time (2011) [FLAC] {3CD}\CD3\04 - Oh! Lady Be Good.wav

Peak level 93.0 %
Extraction speed 7.4 X
Track quality 99.9 %
Test CRC CE9056B5
Copy CRC CE9056B5
Accurately ripped (confidence 3) [2AF1C50E] (AR v2)
Copy OK

Track 5

Filename D:\_EAC\Charlie Parker - Integrale Charlie Parker, Vol. 2, Now's The Time (2011) [FLAC] {3CD}\CD3\05 - After You've Gone.wav

Peak level 78.2 %
Extraction speed 8.6 X
Track quality 100.0 %
Test CRC D336C4B5
Copy CRC D336C4B5
Accurately ripped (confidence 3) [AAAE0C33] (AR v2)
Copy OK

Track 6

Filename D:\_EAC\Charlie Parker - Integrale Charlie Parker, Vol. 2, Now's The Time (2011) [FLAC] {3CD}\CD3\06 - Lover, Come Back To Me.wav

Peak level 83.6 %
Extraction speed 8.2 X
Track quality 100.0 %
Test CRC 31236798
Copy CRC 31236798
Accurately ripped (confidence 3) [39698327] (AR v2)
Copy OK

Track 7

Filename D:\_EAC\Charlie Parker - Integrale Charlie Parker, Vol. 2, Now's The Time (2011) [FLAC] {3CD}\CD3\07 - Diggin' Diz.wav

Peak level 90.4 %
Extraction speed 8.1 X
Track quality 100.0 %
Test CRC 2A936DD6
Copy CRC 2A936DD6
Accurately ripped (confidence 3) [93399A49] (AR v2)
Copy OK

Track 8

Filename D:\_EAC\Charlie Parker - Integrale Charlie Parker, Vol. 2, Now's The Time (2011) [FLAC] {3CD}\CD3\08 - Billie's Bounce.wav

Peak level 75.4 %
Extraction speed 8.7 X
Track quality 100.0 %
Test CRC 949BD86D
Copy CRC 949BD86D
Accurately ripped (confidence 3) [CD266BA4] (AR v2)
Copy OK

Track 9

Filename D:\_EAC\Charlie Parker - Integrale Charlie Parker, Vol. 2, Now's The Time (2011) [FLAC] {3CD}\CD3\09 - All The Things You Are.wav

Peak level 70.9 %
Extraction speed 7.9 X
Track quality 99.9 %
Test CRC 0A21FCA9
Copy CRC 0A21FCA9
Accurately ripped (confidence 3) [70E3F5B6] (AR v2)
Copy OK

Track 10

Filename D:\_EAC\Charlie Parker - Integrale Charlie Parker, Vol. 2, Now's The Time (2011) [FLAC] {3CD}\CD3\10 - Blue 'N' Boogie.wav

Peak level 78.1 %
Extraction speed 9.8 X
Track quality 100.0 %
Test CRC BF683A11
Copy CRC BF683A11
Accurately ripped (confidence 3) [36BAE5FB] (AR v2)
Copy OK

Track 11

Filename D:\_EAC\Charlie Parker - Integrale Charlie Parker, Vol. 2, Now's The Time (2011) [FLAC] {3CD}\CD3\11 - Anthropology.wav

Peak level 59.6 %
Extraction speed 7.0 X
Track quality 99.9 %
Test CRC B4398B3E
Copy CRC B4398B3E
Accurately ripped (confidence 3) [3F6E584E] (AR v2)
Copy OK

Track 12

Filename D:\_EAC\Charlie Parker - Integrale Charlie Parker, Vol. 2, Now's The Time (2011) [FLAC] {3CD}\CD3\12 - Ornithology.wav

Peak level 78.1 %
Extraction speed 9.9 X
Track quality 100.0 %
Test CRC F29A8960
Copy CRC F29A8960
Accurately ripped (confidence 3) [3605F6F4] (AR v2)
Copy OK


All tracks accurately ripped

No errors occurred

End of status report

–– CUETools DB Plugin V2.1.6

[CTDB TOCID: b3qhdDXoy_opFlTYiMSbZPqtq2o-] found
Submit result: b3qhdDXoy_opFlTYiMSbZPqtq2o- has been confirmed
Track | CTDB Status
1 | (4/4) Accurately ripped
2 | (4/4) Accurately ripped
3 | (4/4) Accurately ripped
4 | (4/4) Accurately ripped
5 | (4/4) Accurately ripped
6 | (4/4) Accurately ripped
7 | (4/4) Accurately ripped
8 | (4/4) Accurately ripped
9 | (4/4) Accurately ripped
10 | (4/4) Accurately ripped
11 | (4/4) Accurately ripped
12 | (4/4) Accurately ripped


==== Log checksum AC147C20566DC565FBDCEBB755AFE725B06AC5CB2A94241AE6677938C2A6540B ====


Charlie Parker - Intégrale Charlie Parker, Vol. 2, "Now's The Time", 1945-1946 (2011) {3CD Set Frémeaux & Associés FA1332}


Thanks to SavoyFun for CDs…

NEXT -> Charlie Parker - Intégrale Charlie Parker, Vol. 3, "Lover Man", 1946-1947 (2011) {3CD Set Frémeaux & Associés FA1333}

see more Charlie Parker…


===