Subcategories
Tags
Language
Tags

Glazunov - Symphonies (Evgeny Svetlanov) (2010) (6CD Box Set)

Posted By: shamanicus
Glazunov - Symphonies (Evgeny Svetlanov) (2010) (6CD Box Set)

Glazunov - Symphonies (Evgeny Svetlanov Svetlanov) (2010) (6CD Box Set)
EAC Rip | FLAC (tracks+.cue, log) | Artwork | 1.64 Gb | MP3 CBR 320kbps | RAR | 0.98 Gb
Classical | Label: Warner Classics - 2564 68162-2

6CD set of complete Glazunov Symphonies, and six other orchestral works.

Glazunov - Symphonies (Evgeny Svetlanov) (2010) (6CD Box Set)


Glazunov's symphonies, especially in the slow movements, can easily assume the qualities of old film music or even"classical elevator music". These recordings however bring the music to life, as long as you can tolerate occasionally wobbly brass and less than precise orchestral ensemble playing. Rozhdestvensky, also with a Russian orchestra, is better in those regards but a bit less exciting in the 'stormy' passages. Either that set or the Svetlanov are preferable to Jarvi, Serebrier or otaka despite their more up to date sonics. Bakels and the Malaysian
orchestra could really put these symphonies on the map (listen to their Rimsky-Korsakov recordings).
J. K. Davis MD


Glazunov - Symphonies (Evgeny Svetlanov) (2010) (6CD Box Set)


Tracklist:

Symphony no.1, E major, op.5, ''Slavonian Symphony'' (1881-2)
Symphony no.2, F sharp minor, op.16, ''To the memory of Liszt'' (1886)
Symphony no.3, D major, op.33 (1890)
Symphony no.4, E flat major, op.48 (1893)
Symphony no.5, B flat major, op.55 (1895)
Symphony no.6, C minor, op.58 (1896)
Symphony no.7, F major, ''Pastoral'', op.77 (1902)
Symphony no.8, E flat major, op.83 (1905)

''1st Overture On Three Greek Themes'', G minor, op.3 (1882)
''2nd Overture On Greek Themes'', D major, op.6 (1883)
''Stenka Razin'', Symphonic poem, B minor, op.13 (1885)
''Printemps'', Symphonic Picture, D major, op.34 (1891)
''Kremlin'', Symphonic Picture in Three parts, op.30 (1890)
''Finnish Fantasy'', C major, op.88 (1909)

Glazunov - Symphonies (Evgeny Svetlanov) (2010) (6CD Box Set)


CD1 (8 / 1:09:34)

01. Symphony no.1, E major, op.5, ''Slavonian Symphony'' (1881-2) - 1. Allegro
02. Symphony no.1, E major, op.5, ''Slavonian Symphony'' (1881-2) - 2. Scherzo. Allegro
03. Symphony no.1, E major, op.5, ''Slavonian Symphony'' (1881-2) - 3. Adagio
04. Symphony no.1, E major, op.5, ''Slavonian Symphony'' (1881-2) - 4. Finale. Allegro
05. Symphony no.5, B flat major, op.55 (1895) - 1. Moderato maestoso - Allegro
06. Symphony no.5, B flat major, op.55 (1895) - 2. Scherzo. Moderato
07. Symphony no.5, B flat major, op.55 (1895) - 3. Andante
08. Symphony no.5, B flat major, op.55 (1895) - 4. Allegro maestoso - Animato


CD2 (6 / 1:19:23)

01. Symphony no.2, F sharp minor, op.16, ''To the memory of Liszt'' (1886) - 1. Andante maestoso - Allegro
02. Symphony no.2, F sharp minor, op.16, ''To the memory of Liszt'' (1886) - 2. Andante
03. Symphony no.2, F sharp minor, op.16, ''To the memory of Liszt'' (1886) - 3. Scherzo. Allegro vivace
04. Symphony no.2, F sharp minor, op.16, ''To the memory of Liszt'' (1886) - 4. Intrada. Andantino sostenuto - Finale. Allegro
05. ''1st Overture On Three Greek Themes'', G minor, op.3 (1882)
06. ''2nd Overture On Greek Themes'', D major, op.6 (1883)


CD3 (5 / 1:02:56)

01. Symphony No.3, D major, Op. 33 (1890) - 1. Allegro
02. Symphony No.3, D major, Op. 33 (1890) - 2. Scherzo. Vivace
03. Symphony No.3, D major, Op. 33 (1890) - 3. Andante
04. Symphony No.3, D major, Op. 33 (1890) - 4. Finale. Allegro moderato
05. ''Spring'', Symphonic Picture, D major, op.34 (1891)


CD4 (7 / 1:12:35)

01. Symphony no.4, E flat major, op.48 (1893) - 1. Andante. Allegro moderato
02. Symphony no.4, E flat major, op.48 (1893) - 2. Scherzo. Allegro vivace
03. Symphony no.4, E flat major, op.48 (1893) - 3. Andante - Allegro
04. Symphony no.6, C minor, op.58 (1896) - 1. Adagio - Allegro passionato
05. Symphony no.6, C minor, op.58 (1896) - 2. Tema con variazioni. Andante
06. Symphony no.6, C minor, op.58 (1896) - 3. Intermezzo. Scherzo. Allegretto
07. Symphony no.6, C minor, op.58 (1896) - 4. Finale. Andante maestoso - Moderato


CD5 (7 / 1:07:44)

01. Symphony no.7, F major, ''Pastoral'', op.77 (1902) - 1. Allegro moderato
02. Symphony no.7, F major, ''Pastoral'', op.77 (1902) - 2. Andante
03. Symphony no.7, F major, ''Pastoral'', op.77 (1902) - 3. Scherzo. Allegro giocoso
04. Symphony no.7, F major, ''Pastoral'', op.77 (1902) - 4. Finale. Allegro maestoso - Molto pesante
05. ''Kremlin'', Symphonic Picture in Three parts, op.30 (1890) - 1. (Popular Festival) Allegro
06. ''Kremlin'', Symphonic Picture in Three parts, op.30 (1890) - 2. (In the Cloister) Andante
07. ''Kremlin'', Symphonic Picture in Three parts, op.30 (1890) - 3. (Entrance and Coronation of the Prince) Moderato


CD6 (6 / 1:13:50)

01. Symphony no.8, E flat major, op.83 (1905) - 1. Allegro moderato
02. Symphony no.8, E flat major, op.83 (1905) - 2. Mesto
03. Symphony no.8, E flat major, op.83 (1905) - 3. Scherzo. Allegro
04. Symphony no.8, E flat major, op.83 (1905) - 4. Finale. Moderato sostenuto
05. ''Stenka Razin'', Symphonic poem, B minor, op.13 (1885)
06. ''Finnish Fantasy'', C major, op.88 (1909)


Performed by the USSR Symphony Orchestra, conducted by the great Evgeny Svetlanov.

Exact Audio Copy V1.3 from 2. September 2016

EAC extraction logfile from 26. July 2017, 10:15

Various / Glazunov CD1

Used drive : PLDS DVD-RW DH16AESH Adapter: 1 ID: 0

Read mode : Secure
Utilize accurate stream : Yes
Defeat audio cache : Yes
Make use of C2 pointers : No

Read offset correction : 6
Overread into Lead-In and Lead-Out : No
Fill up missing offset samples with silence : Yes
Delete leading and trailing silent blocks : No
Null samples used in CRC calculations : Yes
Used interface : Native Win32 interface for Win NT & 2000
Gap handling : Appended to previous track

Used output format : User Defined Encoder
Selected bitrate : 1024 kBit/s
Quality : High
Add ID3 tag : No
Command line compressor : C:\Program Files (x86)\Exact Audio Copy\Flac\flac.exe
Additional command line options : -8 -e -p -V -T "ARTIST=%artist%" -T "TITLE=%title%" -T "ALBUM=%albumtitle%" -T "DATE=%year%" -T "TRACKNUMBER=%tracknr%" -T "GENRE=%genre%" -T "PERFORMER=%albuminterpret%" -T "COMPOSER=%composer%" %haslyrics%–tag-from-file=LYRICS="%lyricsfile%"%haslyrics% -T "ALBUMARTIST=%albumartist%" -T "DISCNUMBER=%cdnumber%" -T "TOTALDISCS=%totalcds%" -T "TOTALTRACKS=%numtracks%" -T "COMMENT=%comment%" %source% -o %dest%


TOC of the extracted CD

Track | Start | Length | Start sector | End sector
––––––––––––––––––––––––––––-
1 | 0:00.00 | 10:52.37 | 0 | 48936
2 | 10:52.37 | 4:55.47 | 48937 | 71108
3 | 15:48.09 | 11:21.51 | 71109 | 122234
4 | 27:09.60 | 9:02.26 | 122235 | 162910
5 | 36:12.11 | 11:24.63 | 162911 | 214273
6 | 47:36.74 | 5:21.70 | 214274 | 238418
7 | 52:58.69 | 10:11.49 | 238419 | 284292
8 | 63:10.43 | 6:23.47 | 284293 | 313064


Track 1

Filename C:\EAC\Glazunov CD1\01. Symphony no.1, E major, op.5, ''Slavonian Symphony'' (1881-2) - 1. Allegro.wav

Pre-gap length 0:00:02.00

Peak level 64.5 %
Extraction speed 2.5 X
Track quality 100.0 %
Test CRC 3D639D85
Copy CRC 3D639D85
Accurately ripped (confidence 7) [A5E65122] (AR v2)
Copy OK

Track 2

Filename C:\EAC\Glazunov CD1\02. Symphony no.1, E major, op.5, ''Slavonian Symphony'' (1881-2) - 2. Scherzo. Allegro.wav

Peak level 67.1 %
Extraction speed 2.7 X
Track quality 100.0 %
Test CRC 3DF491C9
Copy CRC 3DF491C9
Accurately ripped (confidence 7) [4F05F3C6] (AR v2)
Copy OK

Track 3

Filename C:\EAC\Glazunov CD1\03. Symphony no.1, E major, op.5, ''Slavonian Symphony'' (1881-2) - 3. Adagio.wav

Peak level 81.4 %
Extraction speed 3.2 X
Track quality 100.0 %
Test CRC F16415BA
Copy CRC F16415BA
Accurately ripped (confidence 7) [3181F516] (AR v2)
Copy OK

Track 4

Filename C:\EAC\Glazunov CD1\04. Symphony no.1, E major, op.5, ''Slavonian Symphony'' (1881-2) - 4. Finale. Allegro.wav

Peak level 97.7 %
Extraction speed 3.6 X
Track quality 100.0 %
Test CRC AF021C4A
Copy CRC AF021C4A
Accurately ripped (confidence 7) [41ECEC55] (AR v2)
Copy OK

Track 5

Filename C:\EAC\Glazunov CD1\05. Symphony no.5, B flat major, op.55 (1895) - 1. Moderato maestoso - Allegro.wav

Peak level 83.1 %
Extraction speed 4.0 X
Track quality 100.0 %
Test CRC 08B77910
Copy CRC 08B77910
Accurately ripped (confidence 7) [A953879D] (AR v2)
Copy OK

Track 6

Filename C:\EAC\Glazunov CD1\06. Symphony no.5, B flat major, op.55 (1895) - 2. Scherzo. Moderato.wav

Peak level 35.9 %
Extraction speed 4.0 X
Track quality 100.0 %
Test CRC 09AC5E11
Copy CRC 09AC5E11
Accurately ripped (confidence 7) [FF044D37] (AR v2)
Copy OK

Track 7

Filename C:\EAC\Glazunov CD1\07. Symphony no.5, B flat major, op.55 (1895) - 3. Andante.wav

Peak level 71.1 %
Extraction speed 4.4 X
Track quality 100.0 %
Test CRC 9C54530D
Copy CRC 9C54530D
Accurately ripped (confidence 7) [B76719E9] (AR v2)
Copy OK

Track 8

Filename C:\EAC\Glazunov CD1\08. Symphony no.5, B flat major, op.55 (1895) - 4. Allegro maestoso - Animato.wav

Peak level 98.4 %
Extraction speed 4.5 X
Track quality 100.0 %
Test CRC 97ECBBDF
Copy CRC 97ECBBDF
Accurately ripped (confidence 7) [81A640FD] (AR v2)
Copy OK


All tracks accurately ripped

No errors occurred

End of status report

–– CUETools DB Plugin V2.1.6

[CTDB TOCID: Nhl0yemTtfQBhLDoY2MUwKTG6.k-] found
Submit result: Nhl0yemTtfQBhLDoY2MUwKTG6.k- has been confirmed
Track | CTDB Status
1 | (14/14) Accurately ripped
2 | (14/14) Accurately ripped
3 | (14/14) Accurately ripped
4 | (14/14) Accurately ripped
5 | (14/14) Accurately ripped
6 | (14/14) Accurately ripped
7 | (14/14) Accurately ripped
8 | (14/14) Accurately ripped


==== Log checksum B63EC9E92920587221A43002918CEAFDB63278CC923AA27626DBF7580969B7DA ====

Exact Audio Copy V1.3 from 2. September 2016

EAC extraction logfile from 26. July 2017, 11:08

Svetlanov, USSR SO / Glazunov CD2

Used drive : PLDS DVD-RW DH16AESH Adapter: 1 ID: 0

Read mode : Secure
Utilize accurate stream : Yes
Defeat audio cache : Yes
Make use of C2 pointers : No

Read offset correction : 6
Overread into Lead-In and Lead-Out : No
Fill up missing offset samples with silence : Yes
Delete leading and trailing silent blocks : No
Null samples used in CRC calculations : Yes
Used interface : Native Win32 interface for Win NT & 2000
Gap handling : Appended to previous track

Used output format : User Defined Encoder
Selected bitrate : 1024 kBit/s
Quality : High
Add ID3 tag : No
Command line compressor : C:\Program Files (x86)\Exact Audio Copy\Flac\flac.exe
Additional command line options : -8 -e -p -V -T "ARTIST=%artist%" -T "TITLE=%title%" -T "ALBUM=%albumtitle%" -T "DATE=%year%" -T "TRACKNUMBER=%tracknr%" -T "GENRE=%genre%" -T "PERFORMER=%albuminterpret%" -T "COMPOSER=%composer%" %haslyrics%–tag-from-file=LYRICS="%lyricsfile%"%haslyrics% -T "ALBUMARTIST=%albumartist%" -T "DISCNUMBER=%cdnumber%" -T "TOTALDISCS=%totalcds%" -T "TOTALTRACKS=%numtracks%" -T "COMMENT=%comment%" %source% -o %dest%


TOC of the extracted CD

Track | Start | Length | Start sector | End sector
––––––––––––––––––––––––––––-
1 | 0:00.00 | 14:31.51 | 0 | 65375
2 | 14:31.51 | 13:17.57 | 65376 | 125207
3 | 27:49.33 | 7:21.58 | 125208 | 158340
4 | 35:11.16 | 12:37.47 | 158341 | 215162
5 | 47:48.63 | 15:02.54 | 215163 | 282866
6 | 62:51.42 | 16:31.43 | 282867 | 357234


Track 1

Filename C:\EAC\Glazunov CD2\01. Symphony no.2, F sharp minor, op.16, ''To the memory of Liszt'' (1886) - 1. Andante maestoso - Allegro.wav

Pre-gap length 0:00:02.00

Peak level 97.7 %
Extraction speed 2.6 X
Track quality 100.0 %
Test CRC DBD91FFA
Copy CRC DBD91FFA
Accurately ripped (confidence 6) [741813B4] (AR v2)
Copy OK

Track 2

Filename C:\EAC\Glazunov CD2\02. Symphony no.2, F sharp minor, op.16, ''To the memory of Liszt'' (1886) - 2. Andante.wav

Peak level 42.4 %
Extraction speed 2.9 X
Track quality 99.9 %
Test CRC 185AB392
Copy CRC 185AB392
Accurately ripped (confidence 6) [EB12B11B] (AR v2)
Copy OK

Track 3

Filename C:\EAC\Glazunov CD2\03. Symphony no.2, F sharp minor, op.16, ''To the memory of Liszt'' (1886) - 3. Scherzo. Allegro vivace.wav

Peak level 67.7 %
Extraction speed 3.5 X
Track quality 100.0 %
Test CRC 6A6F9BB3
Copy CRC 6A6F9BB3
Accurately ripped (confidence 6) [21B97BAA] (AR v2)
Copy OK

Track 4

Filename C:\EAC\Glazunov CD2\04. Symphony no.2, F sharp minor, op.16, ''To the memory of Liszt'' (1886) - 4. Intrada. Andantino sostenuto - Finale. Allegro.wav

Peak level 97.7 %
Extraction speed 3.5 X
Track quality 99.9 %
Test CRC 2C26230B
Copy CRC 2C26230B
Accurately ripped (confidence 6) [EE268F22] (AR v2)
Copy OK

Track 5

Filename C:\EAC\Glazunov CD2\05. ''1st Overture On Three Greek Themes'', G minor, op.3 (1882).wav

Peak level 85.1 %
Extraction speed 4.0 X
Track quality 99.9 %
Test CRC 33696F79
Copy CRC 33696F79
Accurately ripped (confidence 6) [79D94833] (AR v2)
Copy OK

Track 6

Filename C:\EAC\Glazunov CD2\06. ''2nd Overture On Greek Themes'', D major, op.6 (1883).wav

Peak level 98.6 %
Extraction speed 4.9 X
Track quality 100.0 %
Test CRC A312D663
Copy CRC A312D663
Accurately ripped (confidence 6) [2CD6AB2C] (AR v2)
Copy OK


All tracks accurately ripped

No errors occurred

End of status report

–– CUETools DB Plugin V2.1.6

[CTDB TOCID: ypsdBMXurO4.eALc2jBPFfVBXQA-] found
Submit result: ypsdBMXurO4.eALc2jBPFfVBXQA- has been confirmed
Track | CTDB Status
1 | (15/15) Accurately ripped
2 | (15/15) Accurately ripped
3 | (15/15) Accurately ripped
4 | (15/15) Accurately ripped
5 | (15/15) Accurately ripped
6 | (15/15) Accurately ripped


==== Log checksum 863A2ACA41EB614D938E13768AAAE83956AE57A40CCDB568A14847C631A24740 ====

Exact Audio Copy V1.3 from 2. September 2016

EAC extraction logfile from 26. July 2017, 11:49

Svetlanov, USSR SO / Glazunov CD3

Used drive : PLDS DVD-RW DH16AESH Adapter: 1 ID: 0

Read mode : Secure
Utilize accurate stream : Yes
Defeat audio cache : Yes
Make use of C2 pointers : No

Read offset correction : 6
Overread into Lead-In and Lead-Out : No
Fill up missing offset samples with silence : Yes
Delete leading and trailing silent blocks : No
Null samples used in CRC calculations : Yes
Used interface : Native Win32 interface for Win NT & 2000
Gap handling : Appended to previous track

Used output format : User Defined Encoder
Selected bitrate : 1024 kBit/s
Quality : High
Add ID3 tag : No
Command line compressor : C:\Program Files (x86)\Exact Audio Copy\Flac\flac.exe
Additional command line options : -8 -e -p -V -T "ARTIST=%artist%" -T "TITLE=%title%" -T "ALBUM=%albumtitle%" -T "DATE=%year%" -T "TRACKNUMBER=%tracknr%" -T "GENRE=%genre%" -T "PERFORMER=%albuminterpret%" -T "COMPOSER=%composer%" %haslyrics%–tag-from-file=LYRICS="%lyricsfile%"%haslyrics% -T "ALBUMARTIST=%albumartist%" -T "DISCNUMBER=%cdnumber%" -T "TOTALDISCS=%totalcds%" -T "TOTALTRACKS=%numtracks%" -T "COMMENT=%comment%" %source% -o %dest%


TOC of the extracted CD

Track | Start | Length | Start sector | End sector
––––––––––––––––––––––––––––-
1 | 0:00.00 | 13:16.61 | 0 | 59760
2 | 13:16.61 | 8:20.70 | 59761 | 97330
3 | 21:37.56 | 16:08.04 | 97331 | 169934
4 | 37:45.60 | 14:00.41 | 169935 | 232975
5 | 51:46.26 | 11:09.36 | 232976 | 283186


Track 1

Filename C:\EAC\Glazunov CD3\01. Symphony No.3, D major, Op. 33 (1890) - 1. Allegro.wav

Pre-gap length 0:00:02.00

Peak level 91.2 %
Extraction speed 2.3 X
Track quality 99.9 %
Test CRC A1BEC669
Copy CRC A1BEC669
Accurately ripped (confidence 6) [18DF98FB] (AR v2)
Copy OK

Track 2

Filename C:\EAC\Glazunov CD3\02. Symphony No.3, D major, Op. 33 (1890) - 2. Scherzo. Vivace.wav

Peak level 47.8 %
Extraction speed 3.0 X
Track quality 100.0 %
Test CRC 3F45EA9C
Copy CRC 3F45EA9C
Accurately ripped (confidence 6) [B04A0123] (AR v2)
Copy OK

Track 3

Filename C:\EAC\Glazunov CD3\03. Symphony No.3, D major, Op. 33 (1890) - 3. Andante.wav

Peak level 66.5 %
Extraction speed 3.6 X
Track quality 100.0 %
Test CRC 5EDDDABC
Copy CRC 5EDDDABC
Accurately ripped (confidence 6) [05CB585A] (AR v2)
Copy OK

Track 4

Filename C:\EAC\Glazunov CD3\04. Symphony No.3, D major, Op. 33 (1890) - 4. Finale. Allegro moderato.wav

Peak level 95.5 %
Extraction speed 4.1 X
Track quality 100.0 %
Test CRC D37B6EE9
Copy CRC D37B6EE9
Accurately ripped (confidence 6) [C93E523D] (AR v2)
Copy OK

Track 5

Filename C:\EAC\Glazunov CD3\05. ''Spring'', Symphonic Picture, D major, op.34 (1891).wav

Peak level 29.9 %
Extraction speed 4.5 X
Track quality 100.0 %
Test CRC ECD3E3D7
Copy CRC ECD3E3D7
Accurately ripped (confidence 6) [0858B0AE] (AR v2)
Copy OK


All tracks accurately ripped

No errors occurred

End of status report

–– CUETools DB Plugin V2.1.6

[CTDB TOCID: roj9lxQ7EkS7hk4Ar_NhiSn2x4Y-] found
Submit result: roj9lxQ7EkS7hk4Ar_NhiSn2x4Y- has been confirmed
Track | CTDB Status
1 | (14/14) Accurately ripped
2 | (14/14) Accurately ripped
3 | (14/14) Accurately ripped
4 | (14/14) Accurately ripped
5 | (14/14) Accurately ripped


==== Log checksum D89E4869EC890A9B827FAAE1D6FEDF8D7AC5CC08FFDFC291347E8CD2549FAD18 ====

Exact Audio Copy V1.3 from 2. September 2016

EAC extraction logfile from 26. July 2017, 12:32

Svetlanov, USSR SO / Glazunov CD4

Used drive : PLDS DVD-RW DH16AESH Adapter: 1 ID: 0

Read mode : Secure
Utilize accurate stream : Yes
Defeat audio cache : Yes
Make use of C2 pointers : No

Read offset correction : 6
Overread into Lead-In and Lead-Out : No
Fill up missing offset samples with silence : Yes
Delete leading and trailing silent blocks : No
Null samples used in CRC calculations : Yes
Used interface : Native Win32 interface for Win NT & 2000
Gap handling : Appended to previous track

Used output format : User Defined Encoder
Selected bitrate : 1024 kBit/s
Quality : High
Add ID3 tag : No
Command line compressor : C:\Program Files (x86)\Exact Audio Copy\Flac\flac.exe
Additional command line options : -8 -e -p -V -T "ARTIST=%artist%" -T "TITLE=%title%" -T "ALBUM=%albumtitle%" -T "DATE=%year%" -T "TRACKNUMBER=%tracknr%" -T "GENRE=%genre%" -T "PERFORMER=%albuminterpret%" -T "COMPOSER=%composer%" %haslyrics%–tag-from-file=LYRICS="%lyricsfile%"%haslyrics% -T "ALBUMARTIST=%albumartist%" -T "DISCNUMBER=%cdnumber%" -T "TOTALDISCS=%totalcds%" -T "TOTALTRACKS=%numtracks%" -T "COMMENT=%comment%" %source% -o %dest%


TOC of the extracted CD

Track | Start | Length | Start sector | End sector
––––––––––––––––––––––––––––-
1 | 0:00.00 | 15:57.11 | 0 | 71785
2 | 15:57.11 | 5:13.50 | 71786 | 95310
3 | 21:10.61 | 13:10.65 | 95311 | 154625
4 | 34:21.51 | 11:03.45 | 154626 | 204395
5 | 45:25.21 | 11:40.55 | 204396 | 256950
6 | 57:06.01 | 5:08.21 | 256951 | 280071
7 | 62:14.22 | 10:20.65 | 280072 | 326636


Track 1

Filename C:\EAC\Glazunov CD4\01. Symphony no.4, E flat major, op.48 (1893) - 1. Andante. Allegro moderato.wav

Pre-gap length 0:00:02.00

Peak level 89.1 %
Extraction speed 2.4 X
Track quality 99.9 %
Test CRC F577E1CE
Copy CRC F577E1CE
Accurately ripped (confidence 6) [773C0153] (AR v2)
Copy OK

Track 2

Filename C:\EAC\Glazunov CD4\02. Symphony no.4, E flat major, op.48 (1893) - 2. Scherzo. Allegro vivace.wav

Peak level 46.6 %
Extraction speed 2.9 X
Track quality 100.0 %
Test CRC 78027572
Copy CRC 78027572
Accurately ripped (confidence 6) [8518C0B9] (AR v2)
Copy OK

Track 3

Filename C:\EAC\Glazunov CD4\03. Symphony no.4, E flat major, op.48 (1893) - 3. Andante - Allegro.wav

Peak level 89.1 %
Extraction speed 3.5 X
Track quality 100.0 %
Test CRC 99D31627
Copy CRC 99D31627
Accurately ripped (confidence 6) [ADCD2299] (AR v2)
Copy OK

Track 4

Filename C:\EAC\Glazunov CD4\04. Symphony no.6, C minor, op.58 (1896) - 1. Adagio - Allegro passionato.wav

Peak level 91.2 %
Extraction speed 3.9 X
Track quality 100.0 %
Test CRC 5BDE0DBA
Copy CRC 5BDE0DBA
Accurately ripped (confidence 6) [5AD479BF] (AR v2)
Copy OK

Track 5

Filename C:\EAC\Glazunov CD4\05. Symphony no.6, C minor, op.58 (1896) - 2. Tema con variazioni. Andante.wav

Peak level 87.3 %
Extraction speed 4.3 X
Track quality 100.0 %
Test CRC C56A2698
Copy CRC C56A2698
Accurately ripped (confidence 6) [0D038320] (AR v2)
Copy OK

Track 6

Filename C:\EAC\Glazunov CD4\06. Symphony no.6, C minor, op.58 (1896) - 3. Intermezzo. Scherzo. Allegretto.wav

Peak level 13.5 %
Extraction speed 4.2 X
Track quality 100.0 %
Test CRC 6C90E7BA
Copy CRC 6C90E7BA
Accurately ripped (confidence 6) [44E8AD4A] (AR v2)
Copy OK

Track 7

Filename C:\EAC\Glazunov CD4\07. Symphony no.6, C minor, op.58 (1896) - 4. Finale. Andante maestoso - Moderato.wav

Peak level 89.1 %
Extraction speed 4.0 X
Track quality 99.9 %
Test CRC 337A98D4
Copy CRC 337A98D4
Accurately ripped (confidence 6) [E175F0BA] (AR v2)
Copy OK


All tracks accurately ripped

No errors occurred

End of status report

–– CUETools DB Plugin V2.1.6

[CTDB TOCID: 1CHgjW19AerTQClXzMrvqicVaQk-] found
Submit result: 1CHgjW19AerTQClXzMrvqicVaQk- has been confirmed
Track | CTDB Status
1 | (13/13) Accurately ripped
2 | (13/13) Accurately ripped
3 | (13/13) Accurately ripped
4 | (13/13) Accurately ripped
5 | (13/13) Accurately ripped
6 | (13/13) Accurately ripped
7 | (13/13) Accurately ripped


==== Log checksum 34EA310EDEFBB2F9833AA51C3A869E4422D85AC4050610A44BFE8060864DAFEA ====

Exact Audio Copy V1.3 from 2. September 2016

EAC extraction logfile from 26. July 2017, 13:14

Svetlanov, USSR SO / Glazunov CD5

Used drive : PLDS DVD-RW DH16AESH Adapter: 1 ID: 0

Read mode : Secure
Utilize accurate stream : Yes
Defeat audio cache : Yes
Make use of C2 pointers : No

Read offset correction : 6
Overread into Lead-In and Lead-Out : No
Fill up missing offset samples with silence : Yes
Delete leading and trailing silent blocks : No
Null samples used in CRC calculations : Yes
Used interface : Native Win32 interface for Win NT & 2000
Gap handling : Appended to previous track

Used output format : User Defined Encoder
Selected bitrate : 1024 kBit/s
Quality : High
Add ID3 tag : No
Command line compressor : C:\Program Files (x86)\Exact Audio Copy\Flac\flac.exe
Additional command line options : -8 -e -p -V -T "ARTIST=%artist%" -T "TITLE=%title%" -T "ALBUM=%albumtitle%" -T "DATE=%year%" -T "TRACKNUMBER=%tracknr%" -T "GENRE=%genre%" -T "PERFORMER=%albuminterpret%" -T "COMPOSER=%composer%" %haslyrics%–tag-from-file=LYRICS="%lyricsfile%"%haslyrics% -T "ALBUMARTIST=%albumartist%" -T "DISCNUMBER=%cdnumber%" -T "TOTALDISCS=%totalcds%" -T "TOTALTRACKS=%numtracks%" -T "COMMENT=%comment%" %source% -o %dest%


TOC of the extracted CD

Track | Start | Length | Start sector | End sector
––––––––––––––––––––––––––––-
1 | 0:00.00 | 10:13.25 | 0 | 45999
2 | 10:13.25 | 12:26.17 | 46000 | 101966
3 | 22:39.42 | 5:05.74 | 101967 | 124915
4 | 27:45.41 | 10:31.67 | 124916 | 172307
5 | 38:17.33 | 9:10.33 | 172308 | 213590
6 | 47:27.66 | 10:57.41 | 213591 | 262906
7 | 58:25.32 | 9:18.68 | 262907 | 304824


Track 1

Filename C:\EAC\Glazunov CD5\01. Symphony no.7, F major, ''Pastoral'', op.77 (1902) - 1. Allegro moderato.wav

Pre-gap length 0:00:02.00

Peak level 70.8 %
Extraction speed 2.4 X
Track quality 100.0 %
Test CRC 7DF5D26E
Copy CRC 7DF5D26E
Accurately ripped (confidence 6) [057E4A47] (AR v2)
Copy OK

Track 2

Filename C:\EAC\Glazunov CD5\02. Symphony no.7, F major, ''Pastoral'', op.77 (1902) - 2. Andante.wav

Peak level 53.7 %
Extraction speed 3.1 X
Track quality 100.0 %
Test CRC FA0D1FA8
Copy CRC FA0D1FA8
Accurately ripped (confidence 6) [23036325] (AR v2)
Copy OK

Track 3

Filename C:\EAC\Glazunov CD5\03. Symphony no.7, F major, ''Pastoral'', op.77 (1902) - 3. Scherzo. Allegro giocoso.wav

Peak level 91.2 %
Extraction speed 3.2 X
Track quality 100.0 %
Test CRC D9E1B2F5
Copy CRC D9E1B2F5
Accurately ripped (confidence 6) [D29B3962] (AR v2)
Copy OK

Track 4

Filename C:\EAC\Glazunov CD5\04. Symphony no.7, F major, ''Pastoral'', op.77 (1902) - 4. Finale. Allegro maestoso - Molto pesante.wav

Peak level 93.4 %
Extraction speed 3.7 X
Track quality 100.0 %
Test CRC 32F5AF8E
Copy CRC 32F5AF8E
Accurately ripped (confidence 6) [DAF5850E] (AR v2)
Copy OK

Track 5

Filename C:\EAC\Glazunov CD5\05. ''Kremlin'', Symphonic Picture in Three parts, op.30 (1890) - 1. (Popular Festival) Allegro.wav

Peak level 93.3 %
Extraction speed 3.4 X
Track quality 99.9 %
Test CRC 3500A494
Copy CRC 3500A494
Accurately ripped (confidence 6) [68CA55D4] (AR v2)
Copy OK

Track 6

Filename C:\EAC\Glazunov CD5\06. ''Kremlin'', Symphonic Picture in Three parts, op.30 (1890) - 2. (In the Cloister) Andante.wav

Peak level 52.8 %
Extraction speed 4.3 X
Track quality 100.0 %
Test CRC FB0CD83D
Copy CRC FB0CD83D
Accurately ripped (confidence 6) [226CB3FD] (AR v2)
Copy OK

Track 7

Filename C:\EAC\Glazunov CD5\07. ''Kremlin'', Symphonic Picture in Three parts, op.30 (1890) - 3. (Entrance and Coronation of the Prince) Moderato.wav

Peak level 89.0 %
Extraction speed 4.6 X
Track quality 100.0 %
Test CRC 0A9E3AF8
Copy CRC 0A9E3AF8
Accurately ripped (confidence 6) [FD886E5B] (AR v2)
Copy OK


All tracks accurately ripped

No errors occurred

End of status report

–– CUETools DB Plugin V2.1.6

[CTDB TOCID: wM4s8Qs88TjSy7p78G.XdKpFcW8-] found
Submit result: wM4s8Qs88TjSy7p78G.XdKpFcW8- has been confirmed
Track | CTDB Status
1 | (13/13) Accurately ripped
2 | (13/13) Accurately ripped
3 | (13/13) Accurately ripped
4 | (13/13) Accurately ripped
5 | (13/13) Accurately ripped
6 | (13/13) Accurately ripped
7 | (12/13) Accurately ripped


==== Log checksum 0A07F4ECE40BB87A32C0082854E0C37B824C7DD5DBDCF2042FA3B91584C6EDA8 ====

Exact Audio Copy V1.3 from 2. September 2016

EAC extraction logfile from 26. July 2017, 13:58

Svetlanov, USSR SO / Glazunov CD6

Used drive : PLDS DVD-RW DH16AESH Adapter: 1 ID: 0

Read mode : Secure
Utilize accurate stream : Yes
Defeat audio cache : Yes
Make use of C2 pointers : No

Read offset correction : 6
Overread into Lead-In and Lead-Out : No
Fill up missing offset samples with silence : Yes
Delete leading and trailing silent blocks : No
Null samples used in CRC calculations : Yes
Used interface : Native Win32 interface for Win NT & 2000
Gap handling : Appended to previous track

Used output format : User Defined Encoder
Selected bitrate : 1024 kBit/s
Quality : High
Add ID3 tag : No
Command line compressor : C:\Program Files (x86)\Exact Audio Copy\Flac\flac.exe
Additional command line options : -8 -e -p -V -T "ARTIST=%artist%" -T "TITLE=%title%" -T "ALBUM=%albumtitle%" -T "DATE=%year%" -T "TRACKNUMBER=%tracknr%" -T "GENRE=%genre%" -T "PERFORMER=%albuminterpret%" -T "COMPOSER=%composer%" %haslyrics%–tag-from-file=LYRICS="%lyricsfile%"%haslyrics% -T "ALBUMARTIST=%albumartist%" -T "DISCNUMBER=%cdnumber%" -T "TOTALDISCS=%totalcds%" -T "TOTALTRACKS=%numtracks%" -T "COMMENT=%comment%" %source% -o %dest%


TOC of the extracted CD

Track | Start | Length | Start sector | End sector
––––––––––––––––––––––––––––-
1 | 0:00.00 | 10:46.44 | 0 | 48493
2 | 10:46.44 | 14:15.13 | 48494 | 112631
3 | 25:01.57 | 6:33.74 | 112632 | 142180
4 | 31:35.56 | 13:42.05 | 142181 | 203835
5 | 45:17.61 | 16:10.44 | 203836 | 276629
6 | 61:28.30 | 12:21.10 | 276630 | 332214


Track 1

Filename C:\EAC\Glazunov CD6\01. Symphony no.8, E flat major, op.83 (1905) - 1. Allegro moderato.wav

Pre-gap length 0:00:02.00

Peak level 83.6 %
Extraction speed 2.5 X
Track quality 100.0 %
Test CRC 195EEAF7
Copy CRC 195EEAF7
Accurately ripped (confidence 6) [81287604] (AR v2)
Copy OK

Track 2

Filename C:\EAC\Glazunov CD6\02. Symphony no.8, E flat major, op.83 (1905) - 2. Mesto.wav

Peak level 77.0 %
Extraction speed 3.1 X
Track quality 100.0 %
Test CRC E086878C
Copy CRC E086878C
Accurately ripped (confidence 6) [FBDE059B] (AR v2)
Copy OK

Track 3

Filename C:\EAC\Glazunov CD6\03. Symphony no.8, E flat major, op.83 (1905) - 3. Scherzo. Allegro.wav

Peak level 97.3 %
Extraction speed 3.4 X
Track quality 100.0 %
Test CRC 01A992EA
Copy CRC 01A992EA
Accurately ripped (confidence 6) [433630F3] (AR v2)
Copy OK

Track 4

Filename C:\EAC\Glazunov CD6\04. Symphony no.8, E flat major, op.83 (1905) - 4. Finale. Moderato sostenuto.wav

Peak level 92.8 %
Extraction speed 3.9 X
Track quality 100.0 %
Test CRC 955F94C9
Copy CRC 955F94C9
Accurately ripped (confidence 6) [FE3A6432] (AR v2)
Copy OK

Track 5

Filename C:\EAC\Glazunov CD6\05. ''Stenka Razin'', Symphonic poem, B minor, op.13 (1885).wav

Peak level 82.4 %
Extraction speed 4.4 X
Track quality 100.0 %
Test CRC 76DDFFF5
Copy CRC 76DDFFF5
Accurately ripped (confidence 6) [54F2F9DB] (AR v2)
Copy OK

Track 6

Filename C:\EAC\Glazunov CD6\06. ''Finnish Fantasy'', C major, op.88 (1909).wav

Peak level 61.9 %
Extraction speed 4.7 X
Track quality 100.0 %
Test CRC 40CF9D51
Copy CRC 40CF9D51
Accurately ripped (confidence 6) [3FEC7551] (AR v2)
Copy OK


All tracks accurately ripped

No errors occurred

End of status report

–– CUETools DB Plugin V2.1.6

[CTDB TOCID: MLn1Vj3XuI5LcteaKwU2bF9P8MA-] found
Submit result: MLn1Vj3XuI5LcteaKwU2bF9P8MA- has been confirmed
Track | CTDB Status
1 | (14/14) Accurately ripped
2 | (14/14) Accurately ripped
3 | (14/14) Accurately ripped
4 | (14/14) Accurately ripped
5 | (14/14) Accurately ripped
6 | (14/14) Accurately ripped


==== Log checksum AE3C712E48415ACB64DBFF1403332FDA354E13772AC519F01F21817A0E500184 ====


Thanks to the Original customer.