Tags
Language
Tags
February 2024
Su Mo Tu We Th Fr Sa
28 29 30 31 1 2 3
4 5 6 7 8 9 10
11 12 13 14 15 16 17
18 19 20 21 22 23 24
25 26 27 28 29 1 2
Attention❗ To save your time, in order to download anything on this site, you must be registered 👉 HERE. If you do not have a registration yet, it is better to do it right away. ✌

( • )( • ) ( ͡⚆ ͜ʖ ͡⚆ ) (‿ˠ‿)
SpicyMags.xyz

Don Cherry - Art Deco (1988) {A&M Records CD5258 rel 1989}

Posted By: ruskaval
Don Cherry - Art Deco (1988) {A&M Records CD5258 rel 1989}

Don Cherry - Art Deco (1988) {A&M Records CD5258 rel 1989}
EAC rip (secure mode) | FLAC (tracks)+CUE+LOG -> 312 Mb | MP3 @320 -> 133 Mb
Full Artwork @ 300 dpi (jpg) -> 37 Mb | 5% repair rar
© 1989 A&M Records, Inc. | CD 5258
Jazz / Post Bop / Modal Music / Progressive Jazz / Trumpet

Although it is not mentioned anywhere on the outside of this CD, this session is very much a reunion. Trumpeter Don Cherry is reunited with bassist Charlie Haden and drummer Billy Higgins from the early Ornette Coleman Quartet and, most importantly, tenor saxophonist James Clay. Clay, who after playing with Cherry in Los Angeles in the 1950s and doing a few recordings moved back to Texas, had been in obscurity for decades. Fortunately, his playing is quite strong on what turns out to be a surprising bop-oriented session. Comprised of superior standards, a few group originals and three Ornette Coleman tunes (including the classic "The Blessing"), this set is quite accessible and finds all of the musicians in top form.
Don Cherry - Art Deco (1988) {A&M Records CD5258 rel 1989}


Personnel:

Don Cherry - trumpet
James Clay - tenor saxophone
Charlie Haden - bass
Billy Higgins - drums

Recorded directly to two-track digital tape using a Sony 3402 (Dash) recorder, on August 27, 28, and 30, 1988 at Van Gelder Recording Studio, Englewood Cliffs, New Jersey.

Track Listing:

01 - Art Deco
02 - When Will The Blues Leave
03 - Body And Soul
04 - Bemsha Swing
05 - Maffy
06 - Folk Medley
07 - The Blessing
08 - Passing
09 - I've Grown Accustomed To Your Face
10 - Compute

EAC extraction logfile from 8. September 2010, 18:21 for CD
Don Cherry / Art Deco

Used drive : HP DVD Writer 1170d Adapter: 1 ID: 1
Read mode : Secure with NO C2, accurate stream, disable cache
Read offset correction : 6
Overread into Lead-In and Lead-Out : No

Used output format : C:\Eac\Codecs\flac.exe (User Defined Encoder)
320 kBit/s
Additional command line options : -8 -V -T "artist=%a" -T "title=%t" -T "album=%g" -T "date=%y" -T "tracknumber=%n" -T "genre=%m" -T "comment=EAC Flac 1.1.2 -8" %s

Other options :
Fill up missing offset samples with silence : Yes
Delete leading and trailing silent blocks : No
Installed external ASPI interface


Track 1
Filename C:\Documents and Settings\cherry\01 - Art Deco.wav

Pre-gap length 0:00:02.00

Peak level 100.0 %
Track quality 100.0 %
Test CRC D5522240
Copy CRC D5522240
Copy OK

Track 2
Filename C:\Documents and Settings\cherry\02 - When Will The Blues Leave.wav

Pre-gap length 0:00:04.53

Peak level 92.6 %
Track quality 100.0 %
Test CRC 0979E105
Copy CRC 0979E105
Copy OK

Track 3
Filename C:\Documents and Settings\cherry\03 - Body And Soul.wav

Pre-gap length 0:00:03.73

Peak level 91.2 %
Track quality 100.0 %
Test CRC 87A7F768
Copy CRC 87A7F768
Copy OK

Track 4
Filename C:\Documents and Settings\cherry\04 - Bemsha Swing.wav

Pre-gap length 0:00:02.33

Peak level 90.9 %
Track quality 100.0 %
Test CRC 8BB2497D
Copy CRC 8BB2497D
Copy OK

Track 5
Filename C:\Documents and Settings\cherry\05 - Maffy.wav

Pre-gap length 0:00:03.49

Peak level 79.0 %
Track quality 100.0 %
Test CRC FE5CED86
Copy CRC FE5CED86
Copy OK

Track 6
Filename C:\Documents and Settings\cherry\06 - Folk Medley.wav

Pre-gap length 0:00:02.44

Peak level 41.9 %
Track quality 100.0 %
Test CRC 3D5BD7CC
Copy CRC 3D5BD7CC
Copy OK

Track 7
Filename C:\Documents and Settings\cherry\07 - The Blessing.wav

Pre-gap length 0:00:03.16

Peak level 76.2 %
Track quality 99.9 %
Test CRC 79D9D523
Copy CRC 79D9D523
Copy OK

Track 8
Filename C:\Documents and Settings\cherry\08 - Passing.wav

Pre-gap length 0:00:03.80

Peak level 71.8 %
Track quality 100.0 %
Test CRC 32CEC8BC
Copy CRC 32CEC8BC
Copy OK

Track 9
Filename C:\Documents and Settings\cherry\09 - I've Grown Accustomed To Your Face.wav

Pre-gap length 0:00:03.97

Peak level 86.6 %
Track quality 100.0 %
Test CRC 7CC0A1A4
Copy CRC 7CC0A1A4
Copy OK

Track 10
Filename C:\Documents and Settings\cherry\10 - Compute.wav

Pre-gap length 0:00:05.82

Peak level 97.5 %
Track quality 100.0 %
Test CRC D13F7F4C
Copy CRC D13F7F4C
Copy OK

No errors occured


End of status report


Don Cherry - Art Deco (1988) {A&M Records CD5258 rel 1989}

Don Cherry - Art Deco (1988) {A&M Records CD5258 rel 1989}


see more Don Cherry…


===