Tags
Language
Tags

Paul Bley, Jimmy Giuffre, Steve Swallow - The Life of a Trio, Sunday (1989) {Owl Records OWL060CD rel 1990}

Posted By: ruskaval
Paul Bley, Jimmy Giuffre, Steve Swallow - The Life of a Trio, Sunday (1989) {Owl Records OWL060CD rel 1990}

Paul Bley, Jimmy Giuffre, Steve Swallow - The Life of a Trio, Sunday (1989) {Owl Records OWL060CD rel 1990}
EAC rip (secure mode) | FLAC (tracks)+CUE+LOG -> 214 Mb | MP3 @320 -> 160 Mb
Full Artwork @ 600 dpi (jpg) -> 91 Mb | 5% repair rar
© 1990 Owl Records | OWL060CD
Jazz / Contemporary Jazz / Avant-Garde Jazz / Chamber Jazz

The second night of the 1989 reunion in New York of the 1961-1962 Jimmy Giuffre 3 with pianist Paul Bley and (now electric) bassist Steve Swallow in some ways eclipses the first. The fact that there is more integration between the trio members as a whole than on the first evening is certainly one place to start. At the very beginning, "Sensing" – with Giuffre on soprano and Bley playing bass notes in the lowest register as Swallow enters and takes over the role and Bley moves to the middle – is a stunner, though it is only four minutes and 13 seconds long.

The breadth of the players seems to have come back to them as a unit with these live, as-they-happened, no-second-take performances. There are six full performances here – and oddly enough the most satisfying of them is a composed piece by Carla Bley entitled "Where Were We?" – instead of three from the previous evening. Giuffre is more comfortable on the soprano here, and the duos are quite literally amazing. Bley has a pair of piano solos, Giuffre has one clarinet solo, and the rest are duos made up of either bass and piano, clarinet and bass, soprano and piano, soprano and bass, etc. The joy of music-making and the inherent lyricism in these pieces reflect not only a sense of familiarity with the dialogue and improvisational feel of each player, but the true desire to communicate from inside the sound being explored to the listener as well. There may have been a few more viscerally exciting performances by vanguard jazz trios during 1989, but few of them that revealed – via the strength of restraint – what tonality, dissonance, and harmony can achieve when what is explored is music for its own sake. Highly recommended.
Paul Bley, Jimmy Giuffre, Steve Swallow - The Life of a Trio, Sunday (1989) {Owl Records OWL060CD rel 1990}


ARTISTS
Jimmy Giuffre - soprano saxophone, clarinet
Paul Bley - piano
Steve Swallow - electric bass

Track Listing
01 - Sensing
02 - Monique
03 - The Giant Guitar and the Black Stick
04 - Industrial Suite
05 - Sanctuary Much
06 - Tango del mar
07 - The Hidden Voice
08 - Mephisto
09 - Where were We
10 - Sweet Song
11 - Scrambled Legs
12 - Play Ball
13 - Fallen Statue
14 - Things
15 - Two singers
16 - The life of a trio

Exact Audio Copy V0.99 prebeta 5 from 4. May 2009

EAC extraction logfile from 17. July 2009, 13:57

Paul Bley / The Life of a Trio: Sunday

Used drive : PLEXTOR DVDR PX-860A Adapter: 0 ID: 0

Read mode : Secure
Utilize accurate stream : Yes
Defeat audio cache : Yes
Make use of C2 pointers : No

Read offset correction : 96
Overread into Lead-In and Lead-Out : No
Fill up missing offset samples with silence : Yes
Delete leading and trailing silent blocks : No
Null samples used in CRC calculations : Yes
Used interface : Native Win32 interface for Win NT & 2000
Gap handling : Appended to previous track

Used output format : User Defined Encoder
Selected bitrate : 896 kBit/s
Quality : High
Add ID3 tag : No
Command line compressor : C:\Program Files\FLAC\flac.exe
Additional command line options : -8 -V -T "ARTIST=%a" -T "TITLE=%t" -T "ALBUM=%g" -T "DATE=%y" -T "TRACKNUMBER=%n" -T "TOTALTRACKS=%x" -T "GENRE=%m" -T "ALBUM ARTIST=%v" -T "ALBUMARTIST=%v" -T "COMMENT=EAC V0.99 prebeta 5, Secure Mode, Test & Copy, Accurat


TOC of the extracted CD

Track | Start | Length | Start sector | End sector
––––––––––––––––––––––––––––-
1 | 0:00.33 | 4:12.12 | 33 | 18944
2 | 4:12.45 | 3:26.13 | 18945 | 34407
3 | 7:38.58 | 5:58.47 | 34408 | 61304
4 | 13:37.30 | 3:15.15 | 61305 | 75944
5 | 16:52.45 | 3:17.30 | 75945 | 90749
6 | 20:10.00 | 6:01.65 | 90750 | 117889
7 | 26:11.65 | 3:06.63 | 117890 | 131902
8 | 29:18.53 | 4:04.15 | 131903 | 150217
9 | 33:22.68 | 4:50.60 | 150218 | 172027
10 | 38:13.53 | 3:25.70 | 172028 | 187472
11 | 41:39.48 | 2:02.05 | 187473 | 196627
12 | 43:41.53 | 7:46.00 | 196628 | 231577
13 | 51:27.53 | 1:25.30 | 231578 | 237982
14 | 52:53.08 | 3:35.47 | 237983 | 254154
15 | 56:28.55 | 3:52.68 | 254155 | 271622
16 | 60:21.48 | 6:26.02 | 271623 | 300574


Track 1

Filename D:\DL\Paul Bley Jimmy Giuffre Steve Swallow - The Life of a Trio Sunday (1989) [FLAC] {OWL Records}\01 - Sensing.wav

Pre-gap length 0:00:02.44

Peak level 74.7 %
Track quality 100.0 %
Test CRC DEB26CF0
Copy CRC DEB26CF0
Track not present in AccurateRip database
Copy OK

Track 2

Filename D:\DL\Paul Bley Jimmy Giuffre Steve Swallow - The Life of a Trio Sunday (1989) [FLAC] {OWL Records}\02 - Monique.wav

Pre-gap length 0:00:01.22

Peak level 78.8 %
Track quality 100.0 %
Test CRC BCD1A128
Copy CRC BCD1A128
Track not present in AccurateRip database
Copy OK

Track 3

Filename D:\DL\Paul Bley Jimmy Giuffre Steve Swallow - The Life of a Trio Sunday (1989) [FLAC] {OWL Records}\03 - The Giant Guitar and the Black Stick.wav

Pre-gap length 0:00:01.10

Peak level 49.0 %
Track quality 99.9 %
Test CRC 06556CCE
Copy CRC 06556CCE
Track not present in AccurateRip database
Copy OK

Track 4

Filename D:\DL\Paul Bley Jimmy Giuffre Steve Swallow - The Life of a Trio Sunday (1989) [FLAC] {OWL Records}\04 - Industrial Suite.wav

Pre-gap length 0:00:01.16

Peak level 54.3 %
Track quality 100.0 %
Test CRC 96A7A874
Copy CRC 96A7A874
Track not present in AccurateRip database
Copy OK

Track 5

Filename D:\DL\Paul Bley Jimmy Giuffre Steve Swallow - The Life of a Trio Sunday (1989) [FLAC] {OWL Records}\05 - Sanctuary Much.wav

Pre-gap length 0:00:02.16

Peak level 55.6 %
Track quality 100.0 %
Test CRC 218D8A96
Copy CRC 218D8A96
Track not present in AccurateRip database
Copy OK

Track 6

Filename D:\DL\Paul Bley Jimmy Giuffre Steve Swallow - The Life of a Trio Sunday (1989) [FLAC] {OWL Records}\06 - Tango del mar.wav

Peak level 59.8 %
Track quality 100.0 %
Test CRC 589FCAFA
Copy CRC 589FCAFA
Track not present in AccurateRip database
Copy OK

Track 7

Filename D:\DL\Paul Bley Jimmy Giuffre Steve Swallow - The Life of a Trio Sunday (1989) [FLAC] {OWL Records}\07 - The Hidden Voice.wav

Peak level 64.9 %
Track quality 100.0 %
Test CRC 3EA6275F
Copy CRC 3EA6275F
Track not present in AccurateRip database
Copy OK

Track 8

Filename D:\DL\Paul Bley Jimmy Giuffre Steve Swallow - The Life of a Trio Sunday (1989) [FLAC] {OWL Records}\08 - Mephisto.wav

Pre-gap length 0:00:00.30

Peak level 79.0 %
Track quality 100.0 %
Test CRC D70F5780
Copy CRC D70F5780
Track not present in AccurateRip database
Copy OK

Track 9

Filename D:\DL\Paul Bley Jimmy Giuffre Steve Swallow - The Life of a Trio Sunday (1989) [FLAC] {OWL Records}\09 - Where were We .wav

Pre-gap length 0:00:00.37

Peak level 45.0 %
Track quality 100.0 %
Test CRC 124ADC90
Copy CRC 124ADC90
Track not present in AccurateRip database
Copy OK

Track 10

Filename D:\DL\Paul Bley Jimmy Giuffre Steve Swallow - The Life of a Trio Sunday (1989) [FLAC] {OWL Records}\10 - Sweet Song.wav

Pre-gap length 0:00:01.40

Peak level 43.7 %
Track quality 100.0 %
Test CRC DA9800D4
Copy CRC DA9800D4
Track not present in AccurateRip database
Copy OK

Track 11

Filename D:\DL\Paul Bley Jimmy Giuffre Steve Swallow - The Life of a Trio Sunday (1989) [FLAC] {OWL Records}\11 - Scrambled Legs.wav

Pre-gap length 0:00:02.60

Peak level 54.0 %
Track quality 100.0 %
Test CRC 76C9F705
Copy CRC 76C9F705
Track not present in AccurateRip database
Copy OK

Track 12

Filename D:\DL\Paul Bley Jimmy Giuffre Steve Swallow - The Life of a Trio Sunday (1989) [FLAC] {OWL Records}\12 - Play Ball.wav

Pre-gap length 0:00:00.33

Peak level 75.5 %
Track quality 100.0 %
Test CRC 87688C7B
Copy CRC 87688C7B
Track not present in AccurateRip database
Copy OK

Track 13

Filename D:\DL\Paul Bley Jimmy Giuffre Steve Swallow - The Life of a Trio Sunday (1989) [FLAC] {OWL Records}\13 - Fallen Statue.wav

Pre-gap length 0:00:00.80

Peak level 50.4 %
Track quality 100.0 %
Test CRC 8949D646
Copy CRC 8949D646
Track not present in AccurateRip database
Copy OK

Track 14

Filename D:\DL\Paul Bley Jimmy Giuffre Steve Swallow - The Life of a Trio Sunday (1989) [FLAC] {OWL Records}\14 - Things.wav

Peak level 76.5 %
Track quality 100.0 %
Test CRC F2EB9B45
Copy CRC F2EB9B45
Track not present in AccurateRip database
Copy OK

Track 15

Filename D:\DL\Paul Bley Jimmy Giuffre Steve Swallow - The Life of a Trio Sunday (1989) [FLAC] {OWL Records}\15 - Two singers.wav

Pre-gap length 0:00:02.62

Peak level 51.0 %
Track quality 100.0 %
Test CRC E6341888
Copy CRC E6341888
Track not present in AccurateRip database
Copy OK

Track 16

Filename D:\DL\Paul Bley Jimmy Giuffre Steve Swallow - The Life of a Trio Sunday (1989) [FLAC] {OWL Records}\16 - The life of a trio.wav

Pre-gap length 0:00:01.46

Peak level 54.3 %
Track quality 99.4 %
Test CRC AA5C89FA
Copy CRC AA5C89FA
Track not present in AccurateRip database
Copy OK


None of the tracks are present in the AccurateRip database

No errors occurred

End of status report


Paul Bley, Jimmy Giuffre, Steve Swallow - The Life of a Trio, Sunday (1989) {Owl Records OWL060CD rel 1990}

Paul Bley, Jimmy Giuffre, Steve Swallow - The Life of a Trio, Sunday (1989) {Owl Records OWL060CD rel 1990}


see also:
Paul Bley, Jimmy Giuffre, Stev...wl–Universal 0147312 rel 2001}



===