Subcategories
Tags
Language
Tags

Wilhelm Furtwängler: Das Vermächtnis / The Legacy - Box 2: Beethoven (2010)

Posted By: ArlegZ
Wilhelm Furtwängler: Das Vermächtnis / The Legacy - Box 2: Beethoven (2010)

Wilhelm Furtwängler: Das Vermächtnis / The Legacy - Box 2: Beethoven (2010)
EAC | FLAC | Image (Cue & Log) ~ 3.32 Gb | Total time: 14:08:42 | Scans included
Classical | Label: Membran Music | # 233110 | Recorded: 1926-1954

Conductor Wilhelm Furtwangler already enjoyed a worldwide legendary standing during his lifetime - he was considered the German conductor and performances were greeted with rapturous applause. Today, more than 50 years after his death, Wilhelm Furtwangler is still an icon and his work has become an integral part ofthe music scene.
But just what makes up this fascination? And what makes his recordings so special? This edition provides the answers.
These 107 CDs contain all the works Furtwangler ever recorded for release on record - and the "live" recordings he made for radio broadcast. In the case of different versions of the same work having been produced (for example there are 12 recordings of Beethoven's Eroica!.0 the best, most beautiful, or the most exciting interpretations have been chosen for this edition. In addition the numerous bonus CDs and tracks present excerpts taken from alternative recordings.
From his very first recording (Weber's Freischiitz Overture, 1928) to his very last (Wagner's Valkyrie, 1954), this edition features productions of all the Beethoven and Brahms symphonies, the complete Rome recording of Wagner's Ring, recordings of the famous symphonies composed by Schubert, Schumann, Bruckner and Mozart, highlights taken from the Salzburg recordings of Don Giovanni, Magic Flute and Figaro, a live Bayreuth recording of Mastersingers etc. etc. etc.
The edition has been complemented by recordings of rehearsals and interviews. In addition the recording of the famous Salzburg song recital in 1953 reflects on the pianist Wilhelm Furtwangler as accompanist to Elisabeth Schwarzkopf.
Furthermore, the edition contains a DVD with a video clip featuring the famous music critic Prof. Dr. Joachim Kaiser, who provides the answer to the question: why is Wilhelm Furtwangler still the most famous conductor in the world?

Contents:
Ludwig van Beethoven (1770-1827)
CD 8-12: Symphonies No. 1-9
- Symphony No. 1 - Royal Concertgebouw Orchestra - 07/13/1950
- Symphony No. 2 - Vienna Philharmonic 10/03/1948
- Symphony No. 3 - Vienna Philharmonic 11/26-27/1952
- Symphony No. 4 - Vienna Philharmonic 12/01-03/1952
- Symphony No. 5 - Berlin Philharmonic 05/27/1947
- Symphony No. 6 - Vienna Philharmonic 11/24-25/1952
- Symphony No. 7 - Vienna Philharmonic 01/18-19/1950
- Symphony No. 8 - Berlin Philharmonic 04/14/1953
- Symphony No. 9 - Bayreuth Festspiel Orchestra 06/29/1951
CD 13:
- Egmont Overture - Berlin Philharmonic 05/27/1947
- Coriolan Overture - Vienna Philharmonic 10/29/1951
- Leonore II Overture - Berlin Philharmonic 10/18/1949
- Große Fuge Op. 133 - Vienna Philharmonic 08/30/1954
- Cavatina from String Quartet Op. 130 (Version for String Orchestra) - Berlin Philharmonic 1940
CD 14:
- Piano Concerto No. 1 - Adrian Aeschbacher, Lucerne Festival Orchestra 10/27/1947
- Piano Concerto No. 4 - Conrad Hansen, Berlin Philharmonic 12/03/1943
CD 15:
- Piano Concerto No. 5 - Edwin Fischer, Philharmonia Orchestra 02/19-20/1951
CD 16:
- Violin Concerto - Wolfgang Schneiderhan, Berlin Philharmonic 05/18/1953
- Romance for Violin and Orchestra Nos. 1-2 - Yehudi Menuhin, Philharmonia Orchestra 04/09/1953
CD 17-18:
- Fidelio - Martha Mödl, Wolfgang Windgassen, Gottlob Frick, Otto Edelmann, Vienna State Opera Choir, Vienna Philharmonic 10/13-17/1953
CD 19:
- Symphony No. 5: I - Berlin Philharmonic 10/16/1926
- Egmont verture - Berlin Philharmonic 1933
- Symphony No. 3: IV - Berlin Philharmonic 06/20/1950
- Symphony No. 9: I - Berlin Philharmonic 04/19/1942
- Symphony No. 9: II - Vienna Philharmonic 05/30/1953
CD 20:
- Leonore III Overture - Vienna Philharmonic 06/02/1944
- Piano Concerto No. 4: III - Pietro Scarpini piano, RAI Symphony Orchestra of Rome 01/19/1952
- Violin Concerto: III - Erich Röhn violin, Berlin Philharmonic 01/12/1944
- Fidelio: Jetzt Schätzchen, jetzt sind wir allein - Lisa della Casa, Rudolf Schock, Vienna Philharmonic 08/03/1948
- Fidelio excerpts - Kirsten Flagstad, Josef Greindl, Elisabeth Schwarzkopf, Vienna Philharmonic 08/05/1950



Exact Audio Copy V1.5 from 20. February 2020

EAC extraction logfile from 12. January 2021, 17:13

Wilhelm Furtwängler, Royal Concertgebouw Orchestra Amsterdam / Das Vermächtnis (The Legacy) - CD 08

Used drive : HL-DT-STDVDRAM GH24NS95 Adapter: 1 ID: 0

Read mode : Secure
Utilize accurate stream : Yes
Defeat audio cache : Yes
Make use of C2 pointers : No

Read offset correction : 6
Overread into Lead-In and Lead-Out : No
Fill up missing offset samples with silence : Yes
Delete leading and trailing silent blocks : No
Null samples used in CRC calculations : Yes
Used interface : Native Win32 interface for Win NT & 2000

Used output format : User Defined Encoder
Selected bitrate : 128 kBit/s
Quality : High
Add ID3 tag : No
Command line compressor : C:\Program Files\Exact Audio Copy\Flac\flac.exe
Additional command line options : -V -8 -T "Date=%year%" -T "Genre=%genre%" %source%


TOC of the extracted CD

Track | Start | Length | Start sector | End sector
––––––––––––––––––––––––––––-
1 | 0:00.00 | 7:31.58 | 0 | 33882
2 | 7:31.58 | 7:10.30 | 33883 | 66162
3 | 14:42.13 | 3:39.17 | 66163 | 82604
4 | 18:21.30 | 6:14.51 | 82605 | 110705
5 | 24:36.06 | 16:08.33 | 110706 | 183338
6 | 40:44.39 | 17:20.68 | 183339 | 261406
7 | 58:05.32 | 6:33.70 | 261407 | 290951
8 | 64:39.27 | 12:14.74 | 290952 | 346075


Range status and errors

Selected range

Filename C:\ArlegZ\Wilhelm Furtwangler - Das Vermachtnis (The Legacy) - CD 08.wav

Peak level 97.7 %
Extraction speed 2.0 X
Range quality 100.0 %
Test CRC 5B98C915
Copy CRC 5B98C915
Copy OK

No errors occurred


AccurateRip summary

Track 1 accurately ripped (confidence 30) [ABB7390F] (AR v2)
Track 2 accurately ripped (confidence 30) [CF543E27] (AR v2)
Track 3 accurately ripped (confidence 30) [DBB984F4] (AR v2)
Track 4 accurately ripped (confidence 30) [0E7F0425] (AR v2)
Track 5 accurately ripped (confidence 31) [FCD522CB] (AR v2)
Track 6 accurately ripped (confidence 30) [AF0ABA02] (AR v2)
Track 7 accurately ripped (confidence 30) [2E3805F7] (AR v2)
Track 8 accurately ripped (confidence 30) [BB31CB50] (AR v2)

All tracks accurately ripped

End of status report

–– CUETools DB Plugin V2.1.6

[CTDB TOCID: SI6m4YBtdZ8FQHJHyd.2wD.f8rQ-] found
Submit result: SI6m4YBtdZ8FQHJHyd.2wD.f8rQ- has been confirmed
Track | CTDB Status
1 | (54/54) Accurately ripped
2 | (54/54) Accurately ripped
3 | (54/54) Accurately ripped
4 | (54/54) Accurately ripped
5 | (54/54) Accurately ripped
6 | (54/54) Accurately ripped
7 | (54/54) Accurately ripped
8 | (53/54) Accurately ripped


==== Log checksum 3D9199D6C2573778F2961929BB2460A1AD1513ACC790866E0BE9D5469C643A3E ====


Exact Audio Copy V1.5 from 20. February 2020

EAC extraction logfile from 12. January 2021, 20:04

Wilhelm Furtwängler, Wiener Philharmoniker / Das Vermächtnis (The Legacy) - CD 09

Used drive : HL-DT-STDVDRAM GH24NS95 Adapter: 1 ID: 0

Read mode : Secure
Utilize accurate stream : Yes
Defeat audio cache : Yes
Make use of C2 pointers : No

Read offset correction : 6
Overread into Lead-In and Lead-Out : No
Fill up missing offset samples with silence : Yes
Delete leading and trailing silent blocks : No
Null samples used in CRC calculations : Yes
Used interface : Native Win32 interface for Win NT & 2000

Used output format : User Defined Encoder
Selected bitrate : 128 kBit/s
Quality : High
Add ID3 tag : No
Command line compressor : C:\Program Files\Exact Audio Copy\Flac\flac.exe
Additional command line options : -V -8 -T "Date=%year%" -T "Genre=%genre%" %source%


TOC of the extracted CD

Track | Start | Length | Start sector | End sector
––––––––––––––––––––––––––––-
1 | 0:00.00 | 10:11.17 | 0 | 45841
2 | 10:11.17 | 11:10.07 | 45842 | 96098
3 | 21:21.24 | 4:02.58 | 96099 | 114306
4 | 25:24.07 | 6:47.52 | 114307 | 144883
5 | 32:11.59 | 10:35.73 | 144884 | 192581
6 | 42:47.57 | 11:45.39 | 192582 | 245495
7 | 54:33.21 | 5:57.72 | 245496 | 272342
8 | 60:31.18 | 7:30.47 | 272343 | 306139


Range status and errors

Selected range

Filename C:\ArlegZ\Wilhelm Furtwangler - Das Vermachtnis (The Legacy) - CD 09.wav

Peak level 97.7 %
Extraction speed 1.8 X
Range quality 100.0 %
Test CRC 0063D79D
Copy CRC 0063D79D
Copy OK

No errors occurred


AccurateRip summary

Track 1 accurately ripped (confidence 35) [AFBA84DC] (AR v2)
Track 2 accurately ripped (confidence 35) [70CCCAF8] (AR v2)
Track 3 accurately ripped (confidence 35) [C5FAA009] (AR v2)
Track 4 accurately ripped (confidence 35) [C82C98A1] (AR v2)
Track 5 accurately ripped (confidence 35) [A62F0850] (AR v2)
Track 6 accurately ripped (confidence 35) [34B1C83E] (AR v2)
Track 7 accurately ripped (confidence 35) [4FD81E7B] (AR v2)
Track 8 accurately ripped (confidence 35) [7B10677B] (AR v2)

All tracks accurately ripped

End of status report

–– CUETools DB Plugin V2.1.6

[CTDB TOCID: 46n70cNZShsAO5fBGootHSeLJ0s-] found
Submit result: already submitted
Track | CTDB Status
1 | (54/54) Accurately ripped
2 | (54/54) Accurately ripped
3 | (54/54) Accurately ripped
4 | (54/54) Accurately ripped
5 | (54/54) Accurately ripped
6 | (54/54) Accurately ripped
7 | (54/54) Accurately ripped
8 | (54/54) Accurately ripped


==== Log checksum D40B7EC03C21B8E9E80428093B0151E0A3EACF957011341BEF06B2422CB24B08 ====


Exact Audio Copy V1.5 from 20. February 2020

EAC extraction logfile from 12. January 2021, 19:14

Wilhelm Furtwängler, Berliner Philharmoniker / Das Vermächtnis (The Legacy) - CD 10

Used drive : HL-DT-STDVDRAM GH24NS95 Adapter: 1 ID: 0

Read mode : Secure
Utilize accurate stream : Yes
Defeat audio cache : Yes
Make use of C2 pointers : No

Read offset correction : 6
Overread into Lead-In and Lead-Out : No
Fill up missing offset samples with silence : Yes
Delete leading and trailing silent blocks : No
Null samples used in CRC calculations : Yes
Used interface : Native Win32 interface for Win NT & 2000

Used output format : User Defined Encoder
Selected bitrate : 128 kBit/s
Quality : High
Add ID3 tag : No
Command line compressor : C:\Program Files\Exact Audio Copy\Flac\flac.exe
Additional command line options : -V -8 -T "Date=%year%" -T "Genre=%genre%" %source%


TOC of the extracted CD

Track | Start | Length | Start sector | End sector
––––––––––––––––––––––––––––-
1 | 0:00.00 | 8:14.26 | 0 | 37075
2 | 8:14.26 | 10:35.53 | 37076 | 84753
3 | 18:50.04 | 5:47.59 | 84754 | 110837
4 | 24:37.63 | 7:59.71 | 110838 | 146833
5 | 32:37.59 | 11:53.63 | 146834 | 200371
6 | 44:31.47 | 13:26.60 | 200372 | 260881
7 | 57:58.32 | 5:58.38 | 260882 | 287769
8 | 63:56.70 | 4:08.20 | 287770 | 306389
9 | 68:05.15 | 9:23.69 | 306390 | 348683


Range status and errors

Selected range

Filename C:\ArlegZ\Wilhelm Furtwangler - Das Vermachtnis (The Legacy) - CD 10.wav

Peak level 97.7 %
Extraction speed 2.0 X
Range quality 100.0 %
Test CRC D29768ED
Copy CRC D29768ED
Copy OK

No errors occurred


AccurateRip summary

Track 1 accurately ripped (confidence 24) [4DD722F7] (AR v2)
Track 2 accurately ripped (confidence 24) [0A26755E] (AR v2)
Track 3 accurately ripped (confidence 24) [C7580E47] (AR v2)
Track 4 accurately ripped (confidence 24) [6DFF3FF6] (AR v2)
Track 5 accurately ripped (confidence 24) [4EF9B374] (AR v2)
Track 6 accurately ripped (confidence 24) [9FB80CCA] (AR v2)
Track 7 accurately ripped (confidence 24) [BB0BC8D0] (AR v2)
Track 8 accurately ripped (confidence 24) [455AF609] (AR v2)
Track 9 accurately ripped (confidence 24) [0D5D5E28] (AR v2)

All tracks accurately ripped

End of status report

–– CUETools DB Plugin V2.1.6

[CTDB TOCID: il1GKT65DunUHAyZCSU8_z9nBQs-] found
Submit result: il1GKT65DunUHAyZCSU8_z9nBQs- has been confirmed
Track | CTDB Status
1 | (54/54) Accurately ripped
2 | (54/54) Accurately ripped
3 | (54/54) Accurately ripped
4 | (54/54) Accurately ripped
5 | (54/54) Accurately ripped
6 | (54/54) Accurately ripped
7 | (54/54) Accurately ripped
8 | (54/54) Accurately ripped
9 | (52/54) Accurately ripped


==== Log checksum 0B53D17BC7D89128F1841D2DD9346DA7CB56FE06B508948D9904841E5EA0AC6F ====


Exact Audio Copy V1.5 from 20. February 2020

EAC extraction logfile from 12. January 2021, 20:54

Wilhelm Furtwängler, Wiener Philharmoniker / Das Vermächtnis (The Legacy) - CD 11

Used drive : HL-DT-STDVDRAM GH24NS95 Adapter: 1 ID: 0

Read mode : Secure
Utilize accurate stream : Yes
Defeat audio cache : Yes
Make use of C2 pointers : No

Read offset correction : 6
Overread into Lead-In and Lead-Out : No
Fill up missing offset samples with silence : Yes
Delete leading and trailing silent blocks : No
Null samples used in CRC calculations : Yes
Used interface : Native Win32 interface for Win NT & 2000

Used output format : User Defined Encoder
Selected bitrate : 128 kBit/s
Quality : High
Add ID3 tag : No
Command line compressor : C:\Program Files\Exact Audio Copy\Flac\flac.exe
Additional command line options : -V -8 -T "Date=%year%" -T "Genre=%genre%" %source%


TOC of the extracted CD

Track | Start | Length | Start sector | End sector
––––––––––––––––––––––––––––-
1 | 0:00.00 | 12:55.62 | 0 | 58186
2 | 12:55.62 | 10:17.35 | 58187 | 104496
3 | 23:13.22 | 8:39.06 | 104497 | 143427
4 | 31:52.28 | 6:53.19 | 143428 | 174421
5 | 38:45.47 | 8:03.40 | 174422 | 210686
6 | 46:49.12 | 4:32.10 | 210687 | 231096
7 | 51:21.22 | 5:36.43 | 231097 | 256339
8 | 56:57.65 | 7:48.30 | 256340 | 291469


Range status and errors

Selected range

Filename C:\ArlegZ\Wilhelm Furtwangler - Das Vermachtnis (The Legacy) - CD 11.wav

Peak level 97.7 %
Extraction speed 1.8 X
Range quality 100.0 %
Test CRC 5FDD3492
Copy CRC 5FDD3492
Copy OK

No errors occurred


AccurateRip summary

Track 1 accurately ripped (confidence 32) [9C084312] (AR v2)
Track 2 accurately ripped (confidence 33) [1F9C7AFE] (AR v2)
Track 3 accurately ripped (confidence 33) [3F5EF6BD] (AR v2)
Track 4 accurately ripped (confidence 33) [8DC006F4] (AR v2)
Track 5 accurately ripped (confidence 33) [7D1C9A05] (AR v2)
Track 6 accurately ripped (confidence 33) [BDD8528F] (AR v2)
Track 7 accurately ripped (confidence 33) [B95FA475] (AR v2)
Track 8 accurately ripped (confidence 31) [FC194367] (AR v2)

All tracks accurately ripped

End of status report

–– CUETools DB Plugin V2.1.6

[CTDB TOCID: PLqjj77d6Af2dAjnjVXIpznPiTE-] found
Submit result: PLqjj77d6Af2dAjnjVXIpznPiTE- has been confirmed
Track | CTDB Status
1 | (53/53) Accurately ripped
2 | (53/53) Accurately ripped
3 | (53/53) Accurately ripped
4 | (53/53) Accurately ripped
5 | (53/53) Accurately ripped
6 | (53/53) Accurately ripped
7 | (53/53) Accurately ripped
8 | (50/53) Accurately ripped


==== Log checksum E41091303C02AD4AA515CC03C13CED5054D404AB4FED505CB7EFBF641F7C8E5D ====


Exact Audio Copy V1.5 from 20. February 2020

EAC extraction logfile from 12. January 2021, 22:18

Wilhelm Furtwängler, Chor und Orchester der Bayreuther Festspiele / Das Vermächtnis (The Legacy) - CD 12

Used drive : HL-DT-STDVDRAM GH24NS95 Adapter: 1 ID: 0

Read mode : Secure
Utilize accurate stream : Yes
Defeat audio cache : Yes
Make use of C2 pointers : No

Read offset correction : 6
Overread into Lead-In and Lead-Out : No
Fill up missing offset samples with silence : Yes
Delete leading and trailing silent blocks : No
Null samples used in CRC calculations : Yes
Used interface : Native Win32 interface for Win NT & 2000

Used output format : User Defined Encoder
Selected bitrate : 128 kBit/s
Quality : High
Add ID3 tag : No
Command line compressor : C:\Program Files\Exact Audio Copy\Flac\flac.exe
Additional command line options : -V -8 -T "Date=%year%" -T "Genre=%genre%" %source%


TOC of the extracted CD

Track | Start | Length | Start sector | End sector
––––––––––––––––––––––––––––-
1 | 0:00.00 | 17:49.14 | 0 | 80188
2 | 17:49.14 | 11:56.53 | 80189 | 133941
3 | 29:45.67 | 19:33.56 | 133942 | 221972
4 | 49:19.48 | 25:10.03 | 221973 | 335225


Range status and errors

Selected range

Filename C:\ArlegZ\Wilhelm Furtwangler - Das Vermachtnis (The Legacy) - CD 12.wav

Peak level 97.7 %
Extraction speed 1.9 X
Range quality 99.9 %
Test CRC B32606C1
Copy CRC B32606C1
Copy OK

No errors occurred


AccurateRip summary

Track 1 accurately ripped (confidence 32) [E0C8B864] (AR v2)
Track 2 accurately ripped (confidence 34) [39C57D4D] (AR v2)
Track 3 accurately ripped (confidence 34) [E4F0B0A8] (AR v2)
Track 4 accurately ripped (confidence 35) [A05DF66A] (AR v2)

All tracks accurately ripped

End of status report

–– CUETools DB Plugin V2.1.6

[CTDB TOCID: qKy3VDtx9mpPmpHUGUjk282Afns-] found
Submit result: qKy3VDtx9mpPmpHUGUjk282Afns- has been confirmed
Track | CTDB Status
1 | (54/55) Accurately ripped
2 | (55/55) Accurately ripped
3 | (54/55) Accurately ripped
4 | (54/55) Accurately ripped


==== Log checksum 07595D1C0860E24AB0B835FC9AC36BD4BBD68E3B835799E16783D1498B62D2FA ====


Wilhelm Furtwängler: Das Vermächtnis / The Legacy - Box 2: Beethoven (2010)