Subcategories

Oscar Peterson, George Shearing, Monty Alexander & others - Swinging Jazz Piano [Recorded 1965-1978] (2006)

Posted By: gribovar
Oscar Peterson, George Shearing, Monty Alexander & others - Swinging Jazz Piano [Recorded 1965-1978] (2006)

Oscar Peterson, George Shearing, Monty Alexander & others - Swinging Jazz Piano [Recorded 1965-1978] (2006)
EAC Rip | FLAC (image+.cue+log) - 400 MB | MP3 CBR 320 kbps (LAME 3.93) - 171 MB | Covers (4 MB) included
Genre: Piano Jazz, Swing | RAR 3% Rec. | Label: Universal Music (06024 9877095)

The Jazz Club series is an attractive addition to the Verve catalogue. With it's modern design and popular choice of repertoire, the Jazz Club is not only opened for Jazz fans, but for everyone that loves good music.
Tracklist:
01. Billy Taylor - La Petite Mambo
02. Tete Montoliu - Speak Low
03. Monty Alexander - Blue Alexander
04. Friedrich Gulda - Blues For H.G.
05. Milt Buckner - Glady's Dance
06. Francy Boland - Dark Eyes
07. Earl Hines - Second Balcony Jump
08. Oscar Peterson - Lulu's Back In Town
09. How Could You Do A Thing Like That To Me
10. Eddie Thompson - Hello, Dolly!
11. George Shearing - Love Walked In
12. Paul Kuhn & Horst Jankowski - Honeysuckle Rose
13. Hank Jones - The Oregon Grinder
14. Red Garland - Daahoud
15. Hampton Hawes - I'm All Smiles

Total time: 01:11:19

Exact Audio Copy V1.0 beta 3 from 29. August 2011

Отчёт EAC об извлечении, выполненном 5. августа 2013, 21:29

Various Artists / Verve Jazzclub: Swinging Jazz Piano

Дисковод: ASUS DRW-22B2ST Adapter: 2 ID: 1

Режим чтения : Достоверность
Использование точного потока : Да
Отключение кэша аудио : Да
Использование указателей C2 : Нет

Коррекция смещения при чтении : 6
Способность читать области Lead-in и Lead-out : Нет
Заполнение пропущенных сэмплов тишиной : Да
Удаление блоков с тишиной в начале и конце : Нет
При вычислениях CRC использовались нулевые сэмплы : Да
Интерфейс : Установленный внешний ASPI-интерфейс

Выходной формат : Внутренние WAV-операции
Формат сэмплов : 44.100 Гц; 16 бит; стерео


TOC извлечённого CD

Трек | Старт | Длительность | Начальный сектор | Конечный сектор
––––––––––––––––––––––––––––––––––-
1 | 0:00.00 | 4:49.15 | 0 | 21689
2 | 4:49.15 | 4:21.35 | 21690 | 41299
3 | 9:10.50 | 3:27.02 | 41300 | 56826
4 | 12:37.52 | 5:58.33 | 56827 | 83709
5 | 18:36.10 | 4:30.62 | 83710 | 104021
6 | 23:06.72 | 3:51.31 | 104022 | 121377
7 | 26:58.28 | 5:10.08 | 121378 | 144635
8 | 32:08.36 | 2:08.20 | 144636 | 154255
9 | 34:16.56 | 3:49.06 | 154256 | 171436
10 | 38:05.62 | 6:07.38 | 171437 | 198999
11 | 44:13.25 | 3:55.23 | 199000 | 216647
12 | 48:08.48 | 7:10.00 | 216648 | 248897
13 | 55:18.48 | 4:26.05 | 248898 | 268852
14 | 59:44.53 | 6:21.47 | 268853 | 297474
15 | 66:06.25 | 5:12.51 | 297475 | 320925


Характеристики диапазона извлечения и сообщения об ошибках

Выбранный диапазон

Имя файла E:\MP3Files\МУЗ РАБОЧИЙ\EAC\FLAC\Various Artists - Verve Jazzclub- Swinging Jazz Piano.wav

Пиковый уровень 99.9 %
Скорость извлечения 3.6 X
Качество диапазона 100.0 %
CRC теста 39533985
CRC копии 39533985
Копирование… OK

Ошибок не произошло


AccurateRip: сводка

Трек 1 : извлечено точно (доверие 7) [C3B81781] (AR v2)
Трек 2 : извлечено точно (доверие 7) [6FEF8599] (AR v2)
Трек 3 : извлечено точно (доверие 7) [1F3CFD21] (AR v2)
Трек 4 : извлечено точно (доверие 7) [E4885392] (AR v2)
Трек 5 : извлечено точно (доверие 7) [ABEF0B40] (AR v2)
Трек 6 : извлечено точно (доверие 8) [03F7DB3D] (AR v2)
Трек 7 : извлечено точно (доверие 7) [B9DEE16A] (AR v2)
Трек 8 : извлечено точно (доверие 7) [F345FBBC] (AR v2)
Трек 9 : извлечено точно (доверие 8) [53F3C047] (AR v2)
Трек 10 : извлечено точно (доверие 7) [546CC0BF] (AR v2)
Трек 11 : извлечено точно (доверие 8) [B789724C] (AR v2)
Трек 12 : извлечено точно (доверие 7) [5177D5D2] (AR v2)
Трек 13 : извлечено точно (доверие 7) [AFE855F5] (AR v2)
Трек 14 : извлечено точно (доверие 7) [DB6D5805] (AR v2)
Трек 15 : извлечено точно (доверие 7) [44616C12] (AR v2)

Все треки извлечены точно

Конец отчёта

==== Контрольная сумма отчёта AED24D1983993498CBEFE54A58D915AC9562689DE8D6ACB8C744A2A45DA92A1C ====

[CUETools log; Date: 11.10.2018 18:21:24; Version: 2.1.4]
[CTDB TOCID: QD9B8ajZjztwwvsgCyukH1.17Ns-] found.
Track | CTDB Status
1 | (46/46) Accurately ripped
2 | (46/46) Accurately ripped
3 | (46/46) Accurately ripped
4 | (46/46) Accurately ripped
5 | (46/46) Accurately ripped
6 | (46/46) Accurately ripped
7 | (46/46) Accurately ripped
8 | (46/46) Accurately ripped
9 | (46/46) Accurately ripped
10 | (46/46) Accurately ripped
11 | (45/46) Accurately ripped
12 | (46/46) Accurately ripped
13 | (45/46) Accurately ripped
14 | (46/46) Accurately ripped
15 | (44/46) Accurately ripped
[AccurateRip ID: 00256670-01aa356c-e310b70f] found.
Track [ CRC | V2 ] Status
01 [621a96bd|c3b81781] (17+16/33) Accurately ripped
02 [80283091|6fef8599] (17+16/33) Accurately ripped
03 [88448da9|1f3cfd21] (17+16/33) Accurately ripped
04 [65fb7c81|e4885392] (17+16/33) Accurately ripped
05 [a8f69795|abef0b40] (17+16/33) Accurately ripped
06 [54b12afd|03f7db3d] (17+17/34) Accurately ripped
07 [10ffb088|b9dee16a] (17+16/33) Accurately ripped
08 [8eea6e97|f345fbbc] (17+16/33) Accurately ripped
09 [18a837a9|53f3c047] (17+17/34) Accurately ripped
10 [dbcd4577|546cc0bf] (17+16/33) Accurately ripped
11 [1cc4f251|b789724c] (17+17/34) Accurately ripped
12 [1c8187a5|5177d5d2] (17+16/33) Accurately ripped
13 [548bc7c7|afe855f5] (17+16/33) Accurately ripped
14 [e5fcb206|db6d5805] (17+16/33) Accurately ripped
15 [f49a4622|44616c12] (17+16/33) Accurately ripped

Track Peak [ CRC32 ] [W/O NULL] [ LOG ]
– 99,9 [39533985] [53F13F07] CRC32
01 98,9 [02360A31] [48CDE6EE]
02 62,4 [3371251D] [53A7D65D]
03 83,3 [5934AA6E] [244C5268]
04 75,1 [87B1B077] [84260DDD]
05 73,6 [45A7B6F1] [E0C2F603]
06 52,0 [FB945359] [BFCA7A95]
07 70,3 [464716D6] [CAD18E57]
08 73,3 [B9E0ACE6] [F5A50D92]
09 69,1 [8674C9E8] [6D861A5B]
10 70,9 [62280863] [97645230]
11 90,2 [5AE6EA7C] [02024A0D]
12 84,7 [BAFC67C9] [E37BE656]
13 61,1 [6F972225] [360D04D9]
14 99,9 [36F68C4B] [1C16A760]
15 69,4 [FB6B6AA3] [E6729011]

Thanks to the original releaser