Subcategories

Nina Simone, Nylon, George Duke, Beady Belle & others - Chill-Out Jazz [Recorded 1961-2007] (2009)

Posted By: gribovar
Nina Simone, Nylon, George Duke, Beady Belle & others - Chill-Out Jazz [Recorded 1961-2007] (2009)

Nina Simone, Nylon, George Duke, Beady Belle & others - Chill-Out Jazz [Recorded 1961-2007] (2009)
EAC Rip | FLAC (image+.cue+log) - 411 MB | MP3 CBR 320 kbps (LAME 3.93) - 186 MB | Covers (3 MB) included
Genre: Jazz, Vocal Jazz, Chillout | RAR 3% Rec. | Label: Universal Music (4605026711891)

The Jazz Club series is an attractive addition to the Verve catalogue. With it's modern design and popular choice of repertoire, the Jazz Club is not only opened for Jazz fans, but for everyone that loves good music.
Tracklist:
01. Beady Belle - Closer
02. Don Menza - Morning Song
03. George Shearing - Killing Me Softly With His Song
04. Francy Boland & The Orchestra - Autumn In New York
05. Eugen Cicero - Im Mondenschein
06. James Brown - Home At Last
07. Jim Hall - In A Sentimantal Mood
08. Shirley Horn - Return To Paradise
09. Meshell Ndegeocello feat. Sabina Sciubba - Aquarium
10. Sidsel Endresen - Traveling Still
11. Gonzales - Overnight
12. Roy Hargrove - A Dream Of You
13. Nina Simone - Chilly Winds Don't Blow
14. Yusef Lateef - The Plum Blossom
15. George Duke - Feel
16. Nylon - Der Mond Hatte Frei

Total time: 01:17:39

Exact Audio Copy V0.99 prebeta 5 from 4. May 2009

Отчёт EAC об извлечении, выполненном 8. декабря 2012, 9:51

Various / Jazzclub Moods - Chill-Out Jazz

Дисковод: ASUS SBC-06D1S-U Adapter: 2 ID: 0

Режим чтения : Достоверность
Использование точного потока : Да
Отключение кэша аудио : Да
Использование указателей C2 : Нет

Коррекция смещения при чтении : 102
Способность читать области Lead-in и Lead-out : Нет
Заполнение пропущенных сэмплов тишиной : Да
Удаление блоков с тишиной в начале и конце : Нет
При вычислениях CRC использовались нулевые сэмплы : Да
Интерфейс : Встроенный Win32-интерфейс для Win NT/2000

Выходной формат : Пользовательский кодировщик
Выбранный битрейт : 768 kBit/s
Качество : Высокий
Добавление ID3-тэга : Нет
Утилита сжатия : C:\Program Files (x86)\Exact Audio Copy\Flac\flac.exe
Дополнительные параметры : -6 -V -T "ARTIST=%a" -T "TITLE=%t" -T "ALBUM=%g" -T "DATE=%y" -T "TRACKNUMBER=%n" -T "GENRE=%m" -T "COMMENT=%e" %s -o %d


TOC извлечённого CD

Трек | Старт | Длительность | Начальный сектор | Конечный сектор
––––––––––––––––––––––––––––––––––-
1 | 0:00.00 | 3:17.37 | 0 | 14811
2 | 3:17.37 | 6:53.32 | 14812 | 45818
3 | 10:10.69 | 2:53.06 | 45819 | 58799
4 | 13:04.00 | 5:57.23 | 58800 | 85597
5 | 19:01.23 | 4:54.21 | 85598 | 107668
6 | 23:55.44 | 5:13.38 | 107669 | 131181
7 | 29:09.07 | 5:50.12 | 131182 | 157443
8 | 34:59.19 | 5:08.74 | 157444 | 180617
9 | 40:08.18 | 4:45.43 | 180618 | 202035
10 | 44:53.61 | 4:54.65 | 202036 | 224150
11 | 49:48.51 | 3:24.17 | 224151 | 239467
12 | 53:12.68 | 6:11.72 | 239468 | 267364
13 | 59:24.65 | 4:02.34 | 267365 | 285548
14 | 63:27.24 | 4:55.44 | 285549 | 307717
15 | 68:22.68 | 5:36.18 | 307718 | 332935
16 | 73:59.11 | 3:39.53 | 332936 | 349413


Характеристики диапазона извлечения и сообщения об ошибках

Выбранный диапазон

Имя файла F:\EAC_AdvantiX\Jazzclub - Chill-Out Jazz\Jazzclub - Chill-Out Jazz.wav

Пиковый уровень 98.8 %
Качество диапазона 99.9 %
CRC копии 0C4D2EEE
Копирование… OK

Ошибок не произошло


AccurateRip: сводка

Трек 1 точность не определена (достоверность 5) [081DCD43], AccurateRip вернул [BC00907A]
Трек 2 точность не определена (достоверность 5) [7E6DA88F], AccurateRip вернул [8D962E8B]
Трек 3 точность не определена (достоверность 4) [435A00F5], AccurateRip вернул [C2957ED7]
Трек 4 точность не определена (достоверность 4) [06192A71], AccurateRip вернул [43A132DB]
Трек 5 точность не определена (достоверность 4) [F3825103], AccurateRip вернул [57547F07]
Трек 6 точность не определена (достоверность 4) [87F86FB1], AccurateRip вернул [438B4D55]
Трек 7 точность не определена (достоверность 4) [F158D77B], AccurateRip вернул [E92000D7]
Трек 8 точность не определена (достоверность 5) [07D267DF], AccurateRip вернул [E6AE5580]
Трек 9 точность не определена (достоверность 4) [6E2A05ED], AccurateRip вернул [2449562D]
Трек 10 точность не определена (достоверность 4) [13626EE0], AccurateRip вернул [467B8AB8]
Трек 11 точность не определена (достоверность 4) [E6025392], AccurateRip вернул [40BAC822]
Трек 12 точность не определена (достоверность 5) [7B01DE86], AccurateRip вернул [13FD2500]
Трек 13 точность не определена (достоверность 4) [AABF1F1B], AccurateRip вернул [E44A19C3]
Трек 14 точность не определена (достоверность 4) [2E09A274], AccurateRip вернул [A5F06EA8]
Трек 15 точность не определена (достоверность 5) [68260586], AccurateRip вернул [EA2F9E8C]
Трек 16 точность не определена (достоверность 4) [77773D2F], AccurateRip вернул [F3F9FA1E]

Ни один трек не прошёл проверки на точность
В вашей базе может быть иной вариант штамповки диска

Конец отчёта

[CUETools log; Date: 14.01.2020 21:45:41; Version: 2.1.4]
[CTDB TOCID: 6w8seiFbB4UDQfspeYAzBOmYO5A-] found.
Track | CTDB Status
1 | (101/101) Accurately ripped
2 | (101/101) Accurately ripped
3 | (101/101) Accurately ripped
4 | (100/101) Accurately ripped
5 | (100/101) Accurately ripped
6 | (101/101) Accurately ripped
7 | (101/101) Accurately ripped
8 | (101/101) Accurately ripped
9 | (101/101) Accurately ripped
10 | ( 99/101) Accurately ripped
11 | ( 97/101) Accurately ripped
12 | ( 99/101) Accurately ripped
13 | (100/101) Accurately ripped
14 | ( 98/101) Accurately ripped
15 | (100/101) Accurately ripped
16 | ( 97/101) Accurately ripped
[AccurateRip ID: 002da1f3-02253f86-dd123210] found.
Track [ CRC | V2 ] Status
01 [081dcd43|b29572ec] (00+00/36) No match
02 [7e6da88f|3eab2fc6] (00+00/36) No match
03 [435a00f5|c9266c18] (00+00/35) No match
04 [06192a71|e1fc1da5] (00+00/35) No match
05 [f3825103|8b8c4e08] (00+00/35) No match
06 [87f86fb1|c8ff07ba] (00+00/35) No match
07 [f158d77b|59fc44a4] (00+00/36) No match
08 [07d267df|f184df77] (00+00/36) No match
09 [6e2a05ed|1fb61af3] (00+00/36) No match
10 [13626ee0|a5fa4936] (00+00/36) No match
11 [e6025392|f48e1cfb] (00+00/36) No match
12 [7b01de86|df19cbfc] (00+00/37) No match
13 [aabf1f1b|167f55a2] (00+00/34) No match
14 [2e09a274|397a772a] (00+00/33) No match
15 [68260586|f75fed7f] (00+00/36) No match
16 [77773d2f|c696f495] (00+00/34) No match
Offsetted by 90:
01 [27da68cd] (05/36) Accurately ripped
02 [fdccf59b] (05/36) Accurately ripped
03 [c2957ed7] (05/35) Accurately ripped
04 [43a132db] (05/35) Accurately ripped
05 [57547f07] (05/35) Accurately ripped
06 [438b4d55] (05/35) Accurately ripped
07 [e92000d7] (05/36) Accurately ripped
08 [1f62259f] (05/36) Accurately ripped
09 [2449562d] (05/36) Accurately ripped
10 [467b8ab8] (05/36) Accurately ripped
11 [40bac822] (05/36) Accurately ripped
12 [db5598b6] (05/37) Accurately ripped
13 [e44a19c3] (05/34) Accurately ripped
14 [a5f06ea8] (05/33) Accurately ripped
15 [83c69d14] (05/36) Accurately ripped
16 [bebb1973] (04/34) Accurately ripped
Offsetted by 78:
01 [67e36521] (00/36) No match (V2 was not tested)
02 [6448c933] (00/36) No match (V2 was not tested)
03 [4b383adb] (00/35) No match (V2 was not tested)
04 [b2e464ef] (00/35) No match (V2 was not tested)
05 [27e3238f] (00/35) No match (V2 was not tested)
06 [e644851d] (00/35) No match (V2 was not tested)
07 [fb49b70f] (00/36) No match (V2 was not tested)
08 [0b2cd91f] (00/36) No match (V2 was not tested)
09 [a59a7ead] (00/36) No match (V2 was not tested)
10 [c833ed68] (00/36) No match (V2 was not tested)
11 [67d56342] (00/36) No match (V2 was not tested)
12 [df8eb316] (00/37) No match (V2 was not tested)
13 [9859b413] (00/34) No match (V2 was not tested)
14 [409e7590] (00/33) No match (V2 was not tested)
15 [801799f0] (00/36) No match (V2 was not tested)
16 [8207627b] (00/34) No match (V2 was not tested)

Track Peak [ CRC32 ] [W/O NULL] [ LOG ]
– 98,8 [0C4D2EEE] [A3F7054F] CRC32
01 85,1 [C2CA5B3C] [D88DFBC5]
02 98,8 [DF6AA077] [90948836]
03 92,9 [5D2811DE] [C151CCB8]
04 87,6 [26F79396] [884F2AA9]
05 96,7 [6D86D593] [60C44AE4]
06 70,0 [95A3F864] [BDAAF11F]
07 73,4 [D02FF014] [59E49319]
08 98,8 [8D426182] [9529BC69]
09 79,9 [7C805436] [38472137]
10 78,8 [D4EC0B8C] [12A952A4]
11 94,5 [3FE0E4F6] [1961A00F]
12 98,8 [16AAA177] [9D2A22D8]
13 97,1 [F8AE383D] [FAC11EA0]
14 83,1 [EC99E7CF] [DF352C80]
15 98,8 [4B8DB448] [7A82821B]
16 91,5 [B1341BE1] [31DF11BD]

Thanks to the original releaser