Subcategories
Tags
Language
Tags

VA - Naxos 25th Anniversary: Great Opera (2012) (10 CD Box Set)

Posted By: murena
VA - Naxos 25th Anniversary: Great Opera (2012) (10 CD Box Set)

VA - Naxos 25th Anniversary: Great Opera (2012) (10 CD Box Set)
EAC Rip | FLAC (Image+.cue, log) | 2,87 Gb | Scans -> 168 mb
MP3 320 kbps | 10 CDs, 11:29:20 min | 1,71 Gb
Genre: Classical, Opera / Label: Naxos

The Great Classics series from Naxos is the perfect introduction to myriad genres of classical music. Comprising both complete and compiled selections from the greatest works in the repertoire, the boxes are bursting with wonderful pieces of music, both recognizable and unfamiliar. The boxes take the listener on a thrilling tour of some of the worlds most dramatic musical media, encompassing music from six centuries and featuring sensational performers. All boxes come with a fascinating booklet with detailed information on the genre itself, chronological placement of each work, and a comprehensive study of the music. A fitting celebration of 25 years of superb music from Naxos, the worlds favourite classical label.

VA - Naxos 25th Anniversary: Great Opera (2012) (10 CD Box Set)


GREAT OPERA includes Highlights CDs from the following operas:
CD01 Mozart: Don Giovanni
CD02 Mozart: Die Zauberflöte
CD03 Rossini: Il Barbiere di Siviglia
CD04 Verdi: La Traviata
CD05 Verdi: Aida
CD06 Bizet: Carmen
CD07 Mascagni: Cavalleria Rusticana / Leoncavallo: Pagliacci
CD08 Puccini: Tosca
CD09 Puccini: Madama Butterfly
CD10 Puccini La Bohème

CD01 Mozart: Don Giovanni
1. Overture 00:05:56
Act I
2. Scene 1: Introduzione: Notte e giorno faticar (Leporello, Donna Anna, Don Giovanni, Il Commendatore) 00:05:31
3. Scene 3: Duetto: Fuggi, crudele, fuggi! (Donna Anna, Don Ottavio) 00:03:58
4. Scene 5: Aria: Ah chi mi dice mai (Donna Elvira, Don Giovanni, Leporello) 00:03:38
5. Scene 5: Aria: Madamina, il catalogo e questo (Leporello) 00:05:41
6. Scene 7: Coro: Giovinette che fate all'amore (Zerlina, Masetto, Chorus) 00:01:26
7. Scene 8: Aria: Ho capito, signor si (Masetto) 00:01:41
8. Scene 9: Duettino: La ci darem la mano (Zerlina, Don Giovanni) 00:03:15
9. Scene 10: Aria: Ah fuggi il traditor (Donna Elvira) 00:01:17
10. Scene 12: Quartetto: Non ti fidar, o misera (Donna Anna, Donna Elvira, Don Ottavio, Don Giovanni) 00:04:15
11. Scene 13: Recitativo accompagnato ed Aria: Don Ottavio, son morta! - Aria: Or sai chi l'onore (Donna Anna, Don Ottavio) 00:06:08
12. Scene 13 Appendix: Aria: Dalla sua pace (Don Ottavio) 00:03:39
13. Scene 15: Aria: Fin ch'han dal vino (Don Giovanni) 00:01:28
14. Scene 16: Aria: Batti, batti, o bel Masetto (Zerlina) 00:03:33
15. Scene 3: Canzonetta: Deh, vieni alla finestra (Don Giovanni) 00:01:58
Act II
16. Scene 6: Aria: Vedrai, carino (Zerlina) 00:03:40
17. Scene 10: Aria: Il mio tesoro intanto (Don Ottavio) 00:04:03
18. Scene 10 Appendix 2: Recitativo accompagnato ed Aria: In quali eccessi (Donna Elvira) 00:05:35
19. Scene 15: Don Giovanni, a cenar teco (Il Commendatore, Don Giovanni, Leporello, Chorus) 00:06:37
20. Scene 16: Questo e il fin (Donna Anna, Donna Elvira, Zerlina, Don Ottavio, Masetto, Leporello) 00:01:53

CD02 Mozart: Die Zauberflote
Act I:
1. Overture 00:06:40
2. Zu hilfe! Zu hilfe! (Tamino, the Three Ladies) 00:06:27
3. Der Vogelfanger bin ich ja (Papageno) 00:02:58
4. Dies Bildnis ist bezaubernd schon (Tamino) 00:03:36
5. O zitt're nicht, mein lieber Sohn! (Queen of the Night) 00:04:48
6. Hm! Hm! Hm! Hm! (Papageno, Tamino, the Three Ladies) 00:06:11
7. Bei Mannern, welche Liebe fuhlen (Pamina, Papageno) 00:03:02
8. Wie stark ist nicht dein Zauberton! (Tamino) 00:02:46
9. Schnelle Fusse, rascher Mut (Pamina, Papageno, Monostatos, Slaves) 00:03:16
Act II:
10. March of the Priests 00:02:41
11. O Isis und Osiris (Sarastro, Chorus) 00:03:03
12. Alles fuhlt der liebe Freuden (Monostatos) 00:01:19
13. Der Holle Rache kocht in meinen Herzen (Queen of the Night) 00:02:56
14. In diesen heil'gen Hallen (Sarastro) 00:03:58
15. Ach, ich fuhl's (Pamina) 00:04:18
16. Ein Madchen oder Weibchen (Papageno) 00:04:12
17. Pa - Pa - Pa - Pa - Pa - Pa - Papageno (Papageno, Papagena) 00:02:30
18. Nur stille, stille, stille, stille (Monostatos, Queen of the Night, the Three Ladies) 00:02:10
19. Die Strahlen der Sonne vertreiben die Nacht (Sarastro, Chorus) 00:02:44

CD03 Rossini: Il Barbiere di Siviglia
1. Overture 00:06:43
Act I
2. Cavatina: Ecco, ridente in cielo (Conte) 00:04:46
3. Cavatina: Largo al factotum della citta (Figaro) 00:04:37
4. Duetto: All'idea di quel metallo (Figaro, Conte) 00:08:35
5. Cavatina: Una voce poco fa (Rosina) 00:05:56
6. Aria: La calunnia e un venticello (Basilio) 00:04:34
7. Duetto: Dunque io son… tu non m'inganni (Rosina, Figaro) 00:05:03
8. Aria A un dottor della mia sorte (Bartolo) 00:06:13
9. Finale: Fredda ed immobile 00:07:54
Act II
10. Duetto: Pace e gioia sia con voi (Conte, Bartolo) 00:03:01
11. Aria: Contro un cor che accende amore (Rosina, Conte) 00:07:16
12. Sequito del Quintetto: Buona sera, mio signore 00:02:11
13. Aria: Il vecchiotto cerca moglie (Berta) 00:03:10
14. Terzetto: Ah! qual colpo inaspettato! (Rosina, Figaro, Conte) 00:06:39
15. Finaletto: Di si felice innesto serbiam memoria eterna 00:02:06

CD04 Verdi: La Traviata
Act I:
1. Prelude 00:03:51
2. Brindisi: Libiamo ne'lieti calici, "Drinking Song" (Alfredo, Chorus, Violetta) 00:02:55
3. Un di, felice, eterea (Alfredo, Violetta) 00:03:02
4. E' strano! e strano! (Violetta) 00:03:27
5. Follie! … Sempre libera degg'io (Violetta) 00:04:39
Act II
6. Scene 1: Lunge da lei per me (Alfredo) 00:03:41
7. Scene 1: O mio rimorso! (Alfredo) 00:01:33
8. Scene 1: Pura si come un angelo - Dite alla giovine (Germont, Violetta) 00:10:02
9. Scene 1: Dammi tu forza, o cielo! (Violetta, Annina, Alfredo) 00:03:49
10. Scene 1: Di Provenza il mar, il suol (Germont) 00:03:58
11. Scene 2: Noi siamo zingarelle (Chorus, Flora, Marchese) 00:02:44
Act III:
12. Prelude 00:04:00
13. Teneste la promessa (Violetta) 00:04:03
14. Signora! … Che t'accade - Parigi, o cara (Annina, Violetta, Alfredo) 00:04:56
15. Ah, Violetta! … Voi, Signor! - E strano! … Che! (Germont, Violetta, Alfredo, Dottore, Annina, chorus) 00:05:33

CD05 Verdi: Aida
1. Prelude 00:04:13
Act I:
2. Se quel guerrier io fossi! … Celeste Aida 00:04:29
3. Ritorna vincitor! … I sacri nomi di padre, d'amante 00:06:30
4. Dance of the Priestesses 00:02:38
Act II:
5. Dance of the Moorish Slaves 00:01:47
6. Sul del Nilo al sacro lido … Numi, pieta del mio martir 00:02:54
7. Gloria all' Egitto 00:03:20
8. Grand March 00:01:35
9. Ballet Music 00:04:44
10. Vieni, o guerrero vindice 00:02:29
Act III:
11. Qui Radames verra! … O patria mia 00:06:23
12. Ciel mio padre! … Su dunque! 00:05:09
Act IV:
13. L'Aborrita rivale a me sfuggia … Gia i Sacerdoti 00:03:55
14. Die mie discolpe 00:00:59
15. Morire! Ah, tu dei vivere 00:02:39
16. Chi ti salva, sciagurato 00:00:37
17. E la morte un ben supremo 00:01:25
18. La fatal pietra … Morir! si pura e bella 00:06:08
19. O terra, addio; addio di vale di pianto 00:05:19

CD06 Bizet: Carmen
1. Prelude 00:03:34
Act I:
2. La cloche a sonnee (Cigarette Factory Girls) 00:04:01
3. L'amour est un oiseau rebelle, 'Habanera' (Carmen) 00:04:54
4. Seguidilla and Duet: Pres des remparts de Seville (Carmen, Don Jose) 00:04:26
5. Entr'acte 00:01:40
Act II:
6. Couplets: Votre toast, je peux vous le rendre (Escamillo, Chorus, Carmen) 00:05:00
7. La fleur que tu m'avais jetee (Don Jose, Carmen) 00:08:09
8. Entr'acte 00:03:10
Act III:
9. Sextet and Chorus: Ecoute, ecoute, compagnon (Carmen, Don Jose, le Dancaire, Le Remendado, Frasquita, Mercedes, Smugglers) 00:04:19
10. Ensemble and Chorus: Quant au douanier, c'est notre affaire! (Carmen, Mercedes, Frasquita, Tous, Toutes Les Femmes, Micaela) 00:03:11
11. Je dis que rien m'epouvante (Micaela) 00:05:06
12. Entr'acte 00:02:26
Act IV:
13. March and Chorus: Les voici! les voici! (Children, Sellers) 00:15:53

CD07 Mascagni: Cavalleria Rusticana / Leoncavallo: Pagliacci
Mascagni: Cavalleria Rusticana
1. Prelude: O Lola ch'ai di latti fior di spino, "Siciliana" (Turiddu) 00:07:59
2. Chorus: Gli aranci olezzano (Villagers) 00:07:40
3. Regina Coeli: Scene and Prayer - Beato voi, compar Alfio (Lucia, Alfio, Santuzza and Villagers) 00:07:22
4. Intermezzo 00:03:38
5. Brindisi: Viva il vino spumeggiante (Turiddu, Lola and Villagers) 00:02:37
6. Mamma, quel vino e generoso (Turiddu, Lucia and Santuzza) 00:05:10
Leoncavallo: Pagliacci
7. Prologue 00:02:35
8. Prologue: Si puo Si puo (Tonio) 00:04:19
Act I
9. Scene 1: Via di li! (Canio) 00:03:35
10. Scene 1: Scene and Chorus of the Bells: I zampognari! (Villagers) 00:03:50
11. Scene 2: Ballatella: Hui! Hui!… Stridono lassu (Nedda) 00:02:24
12. Scene 3: Vesti la giubba (Canio) 00:03:12
Act II
13. Scene 1: Ohe! Ohe! (Villagers) 00:03:46
14. Scene 2: No! Pagglioccio non son (Canio) 00:03:50
15. Scene 2: Ah! No, per mia madre! (Nedda, Silvio, Beppe, Tonio, Canio and Villagers) 00:01:33

CD08 Puccini: Tosca
Act I:
1. Sante ampolle! - Recondita armonia (Il Sagrestano, Cavaradossi) 00:05:25
2. Mario! Mario! Mario! (Tosca, Cavaradossi, Angelotti) 00:03:10
3. Non la sospiri la nostra casetta (Tosca, Cavaradossi) 00:02:34
4. Ah, quegli occhi! … (Tosca, Cavaradossi) 00:05:27
5. Tre sbirri, una carrozza (Scarpia, Spoletta, Chorus) 00:04:33
Act II:
6. Tosca e un buon falco! (Scarpia, Sciarrone) 00:04:38
7. Orsu, Tosca, parlate - Nel pozzo … nel giardino … (Scarpia, Tosca, Cavaradossi, Spoletta, Sciarrone) 00:04:11
8. Floria! … Amore … - Vittoria! Vittoria! (Cavaradossi, Tosca, Scarpia, Sciarrone) 00:04:20
9. Quanto … Quanto Il prezzo! … - Odi E' il tamburo (Tosca, Scarpia) 00:04:36
10. Vissi d'arte, vissi d'amore (Tosca, Scarpia) 00:03:56
11. Io tenni la promessa … - E qual via scegliete - Tosca, finalmente mia! (Scarpia, Tosca) 00:07:27
Act III:
12. Introduction 00:01:30
13. Io de'sospiri (Un Pastore) 00:03:48
14. Mario Cavaradossi A voi (Un Carceriere, Cavaradossi) 00:04:27
15. E lucevan le stelle … (Cavaradossi) 00:03:00
16. Ah! Franchigia a Floria Tosca … - Il tuo sangue o il mio amore volea … (Cavaradossi, Tosca) 00:02:43
17. O dolci mani - Senti … l'ora e vicina - maro sol per te m'era morire (Cavaradossi, Tosca, Un Carceriere) 00:08:00
18. Come e lunga l'attesa! (Tosca) 00:02:29
19. Presto, su! Mario! Mario! (Tosca, Male Chorus, Sciarrone, Spoletta) 00:01:23

CD09 Puccini: Madama Butterfly
Act I :
1. Dovunque al mondo 00:03:06
2. Ed e bella la sposa 00:01:03
3. Amore o grillo 00:02:56
4. Ecco! Son giunte al sommo del pendio 00:03:32
5. Bimba, bimba, non piangere 00:02:17
6. Viene la sers 00:03:51
7. Bimba dagli occhi pieni di malia 00:11:03
Act II :
8. Un bel di, vedremo 00:04:41
9. Vedrai, piccolo amor 00:04:06
10. Tutto, tutto, sia pien di fior 00:10:21
11. Humming Chorus 00:02:52
Act III :
12. Introduction… Oh eh! Oh eh! 00:08:20
13. Con onor muore 00:05:13

CD10 Puccini La Boheme
ACT I:
1. Questo Mar Rosso - mi ammollisce e assidera 00:04:15
2. Oh! sventata, sventata! 00:01:30
3. Che gelida manina 00:04:22
4. Si, mi chiamo Mimi 00:04:37
5. O soave fanciulla 00:03:46
ACT II:
6. Viva Parpignol 00:02:09
7. Oh! - Essa! - Musetta! 00:03:21
8. Quando me'n vo' 00:04:41
9. Caro! Fuori il danaro! 00:02:18
ACT III:
10. Ohe, la, le guardie! Aprite! 00:03:37
11. Mimi! - Speravo di trovarvi qui 00:04:35
12. Marcello, finalmente! 00:04:58
13. Donde lieta usci 00:02:42
14. Dunque e proprio finita! 00:05:09
ACT IV:
15. In un coupe… O Mimi, tu piu non torni 00:04:14
16. Vecchia zimarra, senti 00:02:18
17. Sono andati 00:05:11
18. Che ha detto il medico 00:02:23


CD1:
Exact Audio Copy V1.0 beta 3 from 29. August 2011
EAC extraction logfile from 7. June 2012, 21:35
Mozart: Don Giovanni / Great Opera CD1
Used drive : HL-DT-STDVDRAM GSA-H60N Adapter: 2 ID: 0
Read mode : Secure
Utilize accurate stream : Yes
Defeat audio cache : Yes
Make use of C2 pointers : No
Read offset correction : 667
Overread into Lead-In and Lead-Out : No
Fill up missing offset samples with silence : Yes
Delete leading and trailing silent blocks : No
Null samples used in CRC calculations : Yes
Used interface : Native Win32 interface for Win NT & 2000
Used output format : Internal WAV Routines
Sample format : 44.100 Hz; 16 Bit; Stereo
TOC of the extracted CD
Track | Start | Length | Start sector | End sector
––––––––––––––––––––––––––––-
1 | 0:00.00 | 5:55.20 | 0 | 26644
2 | 5:55.20 | 5:33.57 | 26645 | 51676
3 | 11:29.02 | 3:59.60 | 51677 | 69661
4 | 15:28.62 | 3:39.47 | 69662 | 86133
5 | 19:08.34 | 5:42.18 | 86134 | 111801
6 | 24:50.52 | 1:26.12 | 111802 | 118263
7 | 26:16.64 | 1:41.54 | 118264 | 125892
8 | 27:58.43 | 3:15.19 | 125893 | 140536
9 | 31:13.62 | 1:16.39 | 140537 | 146275
10 | 32:30.26 | 4:18.13 | 146276 | 165638
11 | 36:48.39 | 6:08.49 | 165639 | 193287
12 | 42:57.13 | 3:38.48 | 193288 | 209685
13 | 46:35.61 | 1:29.73 | 209686 | 216433
14 | 48:05.59 | 3:33.07 | 216434 | 232415
15 | 51:38.66 | 2:00.17 | 232416 | 241432
16 | 53:39.08 | 3:38.68 | 241433 | 257850
17 | 57:18.01 | 4:05.19 | 257851 | 276244
18 | 61:23.20 | 5:34.24 | 276245 | 301318
19 | 66:57.44 | 6:38.54 | 301319 | 331222
20 | 73:36.23 | 1:50.35 | 331223 | 339507
Range status and errors
Selected range
Filename C:\Documents and Settings\Admin\Рабочий стол\Lossless Galaxy Rip by ALLexxess\Naxos Records 25 Years\2012 Great Opera (10CD Box Set Naxos Records)\CD01 Mozart - Don Giovanni\Great Opera CD1 (Mozart - Don Giovanni).wav
Peak level 100.0 %
Extraction speed 6.2 X
Range quality 99.9 %
Test CRC 69CEFEFF
Copy CRC 69CEFEFF
Copy OK
No errors occurred
AccurateRip summary
Track 1 not present in database
Track 2 not present in database
Track 3 not present in database
Track 4 not present in database
Track 5 not present in database
Track 6 not present in database
Track 7 not present in database
Track 8 not present in database
Track 9 not present in database
Track 10 not present in database
Track 11 not present in database
Track 12 not present in database
Track 13 not present in database
Track 14 not present in database
Track 15 not present in database
Track 16 not present in database
Track 17 not present in database
Track 18 not present in database
Track 19 not present in database
Track 20 not present in database
None of the tracks are present in the AccurateRip database
End of status report
==== Log checksum 6F7D9234A7D5503C1180A6D790294829AC4EF17BF22B59888FFA1BAE22935AB2 ====



CD2:
Exact Audio Copy V1.0 beta 3 from 29. August 2011
EAC extraction logfile from 7. June 2012, 22:30
Mozart: Die Zauberflote / Great Opera CD2
Used drive : HL-DT-STDVDRAM GSA-H60N Adapter: 2 ID: 0
Read mode : Secure
Utilize accurate stream : Yes
Defeat audio cache : Yes
Make use of C2 pointers : No
Read offset correction : 667
Overread into Lead-In and Lead-Out : No
Fill up missing offset samples with silence : Yes
Delete leading and trailing silent blocks : No
Null samples used in CRC calculations : Yes
Used interface : Native Win32 interface for Win NT & 2000
Used output format : Internal WAV Routines
Sample format : 44.100 Hz; 16 Bit; Stereo
TOC of the extracted CD
Track | Start | Length | Start sector | End sector
––––––––––––––––––––––––––––-
1 | 0:00.00 | 6:40.50 | 0 | 30049
2 | 6:40.50 | 6:27.07 | 30050 | 59081
3 | 13:07.57 | 2:57.38 | 59082 | 72394
4 | 16:05.20 | 3:36.34 | 72395 | 88628
5 | 19:41.54 | 4:47.26 | 88629 | 110179
6 | 24:29.05 | 6:11.57 | 110180 | 138061
7 | 30:40.62 | 3:01.40 | 138062 | 151676
8 | 33:42.27 | 2:46.28 | 151677 | 164154
9 | 36:28.55 | 3:16.05 | 164155 | 178859
10 | 39:44.60 | 2:40.32 | 178860 | 190891
11 | 42:25.17 | 3:03.30 | 190892 | 204646
12 | 45:28.47 | 1:19.23 | 204647 | 210594
13 | 46:47.70 | 2:55.57 | 210595 | 223776
14 | 49:43.52 | 3:57.68 | 223777 | 241619
15 | 53:41.45 | 4:17.30 | 241620 | 260924
16 | 57:59.00 | 4:12.22 | 260925 | 279846
17 | 62:11.22 | 2:30.20 | 279847 | 291116
18 | 64:41.42 | 2:09.50 | 291117 | 300841
19 | 66:51.17 | 2:44.35 | 300842 | 313176
Range status and errors
Selected range
Filename C:\Documents and Settings\Admin\Рабочий стол\Lossless Galaxy Rip by ALLexxess\Naxos Records 25 Years\2012 Great Opera (10CD Box Set Naxos Records)\CD02 Mozart - Die Zauberflote\Great Opera CD2 (Mozart - Die Zauberflote).wav
Peak level 90.4 %
Extraction speed 6.0 X
Range quality 99.9 %
Test CRC 6F893380
Copy CRC 6F893380
Copy OK
No errors occurred
AccurateRip summary
Track 1 cannot be verified as accurate (confidence 5) [6DB588F2], AccurateRip returned [4ACFE03F] (AR v2)
Track 2 cannot be verified as accurate (confidence 5) [3C67B7B5], AccurateRip returned [C9BE4680] (AR v2)
Track 3 cannot be verified as accurate (confidence 5) [D8F18CB9], AccurateRip returned [24AA91A4] (AR v2)
Track 4 cannot be verified as accurate (confidence 5) [E40CE617], AccurateRip returned [577B2A18] (AR v2)
Track 5 cannot be verified as accurate (confidence 5) [00015B54], AccurateRip returned [486AE7A9] (AR v2)
Track 6 cannot be verified as accurate (confidence 5) [809252D6], AccurateRip returned [AD81EF90] (AR v2)
Track 7 cannot be verified as accurate (confidence 5) [1C86FD9D], AccurateRip returned [C83CFA80] (AR v2)
Track 8 cannot be verified as accurate (confidence 5) [8DE1E02B], AccurateRip returned [DE006781] (AR v2)
Track 9 cannot be verified as accurate (confidence 5) [B4128DB9], AccurateRip returned [B4DBE9B7] (AR v2)
Track 10 cannot be verified as accurate (confidence 5) [B9DB82C9], AccurateRip returned [8489CDE7] (AR v2)
Track 11 cannot be verified as accurate (confidence 5) [653BC5D4], AccurateRip returned [56D7A24C] (AR v2)
Track 12 cannot be verified as accurate (confidence 5) [CD4F0505], AccurateRip returned [6685C6D5] (AR v2)
Track 13 cannot be verified as accurate (confidence 5) [F73E3AC5], AccurateRip returned [B20EC41F] (AR v2)
Track 14 cannot be verified as accurate (confidence 5) [8E4A4F09], AccurateRip returned [0EBE477E] (AR v2)
Track 15 cannot be verified as accurate (confidence 5) [98FF262C], AccurateRip returned [267629A1] (AR v2)
Track 16 cannot be verified as accurate (confidence 5) [1D8EF230], AccurateRip returned [68407EE1] (AR v2)
Track 17 cannot be verified as accurate (confidence 5) [F01950A5], AccurateRip returned [F0889A26] (AR v2)
Track 18 cannot be verified as accurate (confidence 5) [0BDC407D], AccurateRip returned [EACF1175] (AR v2)
Track 19 cannot be verified as accurate (confidence 4) [3FF6D48A], AccurateRip returned [620996DD] (AR v2)
No tracks could be verified as accurate
You may have a different pressing from the one(s) in the database
End of status report
==== Log checksum 9DEB049E27CE3175B961ECCE38FB53B31B5EA86C975C64FF07EF93F9D3EC3982 ====



CD3:
Exact Audio Copy V1.0 beta 3 from 29. August 2011
EAC extraction logfile from 8. June 2012, 20:16
Rossini: Il Barbiere di Siviglia / Great Opera CD3
Used drive : HL-DT-STDVDRAM GSA-H60N Adapter: 2 ID: 0
Read mode : Secure
Utilize accurate stream : Yes
Defeat audio cache : Yes
Make use of C2 pointers : No
Read offset correction : 667
Overread into Lead-In and Lead-Out : No
Fill up missing offset samples with silence : Yes
Delete leading and trailing silent blocks : No
Null samples used in CRC calculations : Yes
Used interface : Native Win32 interface for Win NT & 2000
Used output format : Internal WAV Routines
Sample format : 44.100 Hz; 16 Bit; Stereo
TOC of the extracted CD
Track | Start | Length | Start sector | End sector
––––––––––––––––––––––––––––-
1 | 0:00.00 | 6:43.12 | 0 | 30236
2 | 6:43.12 | 4:45.65 | 30237 | 51676
3 | 11:29.02 | 4:36.73 | 51677 | 72449
4 | 16:06.00 | 8:35.07 | 72450 | 111081
5 | 24:41.07 | 5:56.55 | 111082 | 137836
6 | 30:37.62 | 4:33.23 | 137837 | 158334
7 | 35:11.10 | 5:03.47 | 158335 | 181106
8 | 40:14.57 | 6:12.33 | 181107 | 209039
9 | 46:27.15 | 7:54.50 | 209040 | 244639
10 | 54:21.65 | 3:00.17 | 244640 | 258156
11 | 57:22.07 | 7:16.45 | 258157 | 290901
12 | 64:38.52 | 2:11.03 | 290902 | 300729
13 | 66:49.55 | 3:09.22 | 300730 | 314926
14 | 69:59.02 | 6:39.00 | 314927 | 344851
15 | 76:38.02 | 2:06.40 | 344852 | 354341
Range status and errors
Selected range
Filename C:\Documents and Settings\Admin\Рабочий стол\Lossless Galaxy Rip by ALLexxess\Naxos Records 25 Years\2012 Great Opera (10CD Box Set Naxos Records)\CD03 Rossini - Il Barbiere di Siviglia\Great Opera CD3 (Rossini - Il Barbiere di Siviglia).wav
Peak level 93.1 %
Extraction speed 6.3 X
Range quality 99.9 %
Test CRC 42B83946
Copy CRC 42B83946
Copy OK
No errors occurred
AccurateRip summary
Track 1 cannot be verified as accurate (confidence 2) [B22FB1B9], AccurateRip returned [643E324F] (AR v2)
Track 2 cannot be verified as accurate (confidence 2) [1341F514], AccurateRip returned [850B1D52] (AR v2)
Track 3 cannot be verified as accurate (confidence 2) [1290E002], AccurateRip returned [D98ED141] (AR v2)
Track 4 cannot be verified as accurate (confidence 2) [E153E3F9], AccurateRip returned [19E10CFA] (AR v2)
Track 5 cannot be verified as accurate (confidence 3) [3B71BC9D], AccurateRip returned [5E28590E] (AR v2)
Track 6 cannot be verified as accurate (confidence 3) [064B4C08], AccurateRip returned [F0A948BA] (AR v2)
Track 7 cannot be verified as accurate (confidence 3) [249BE848], AccurateRip returned [6DFA90EC] (AR v2)
Track 8 cannot be verified as accurate (confidence 2) [04102CB6], AccurateRip returned [AE5AC417] (AR v2)
Track 9 cannot be verified as accurate (confidence 2) [1AF9415F], AccurateRip returned [E9A8289F] (AR v2)
Track 10 cannot be verified as accurate (confidence 2) [238773BA], AccurateRip returned [C4F34243] (AR v2)
Track 11 cannot be verified as accurate (confidence 2) [65AFD316], AccurateRip returned [67E9DCA5] (AR v2)
Track 12 cannot be verified as accurate (confidence 2) [EBC6AB41], AccurateRip returned [C7204A88] (AR v2)
Track 13 cannot be verified as accurate (confidence 2) [091C75C9], AccurateRip returned [54FD9E28] (AR v2)
Track 14 cannot be verified as accurate (confidence 2) [D2111AB3], AccurateRip returned [F5682994] (AR v2)
Track 15 cannot be verified as accurate (confidence 2) [C98751A3], AccurateRip returned [F5777DD8] (AR v2)
No tracks could be verified as accurate
You may have a different pressing from the one(s) in the database
End of status report
==== Log checksum BF019183B25D1C3545C7EFBDCF34A84682DF00415257B86017C1A2D88E7DAB01 ====



CD4:
Exact Audio Copy V1.0 beta 3 from 29. August 2011
EAC extraction logfile from 8. June 2012, 21:30
Verdi: La Traviata / Great Opera CD4
Used drive : HL-DT-STDVDRAM GSA-H60N Adapter: 2 ID: 0
Read mode : Secure
Utilize accurate stream : Yes
Defeat audio cache : Yes
Make use of C2 pointers : No
Read offset correction : 667
Overread into Lead-In and Lead-Out : No
Fill up missing offset samples with silence : Yes
Delete leading and trailing silent blocks : No
Null samples used in CRC calculations : Yes
Used interface : Native Win32 interface for Win NT & 2000
Used output format : Internal WAV Routines
Sample format : 44.100 Hz; 16 Bit; Stereo
TOC of the extracted CD
Track | Start | Length | Start sector | End sector
––––––––––––––––––––––––––––-
1 | 0:00.25 | 3:57.00 | 25 | 17799
2 | 3:57.25 | 3:01.00 | 17800 | 31374
3 | 6:58.25 | 3:08.00 | 31375 | 45474
4 | 10:06.25 | 3:34.00 | 45475 | 61524
5 | 13:40.25 | 4:45.00 | 61525 | 82899
6 | 18:25.25 | 3:47.00 | 82900 | 99924
7 | 22:12.25 | 1:39.00 | 99925 | 107349
8 | 23:51.25 | 10:08.00 | 107350 | 152949
9 | 33:59.25 | 3:55.00 | 152950 | 170574
10 | 37:54.25 | 4:05.00 | 170575 | 188949
11 | 41:59.25 | 2:50.00 | 188950 | 201699
12 | 44:49.25 | 4:07.00 | 201700 | 220224
13 | 48:56.25 | 4:09.00 | 220225 | 238899
14 | 53:05.25 | 5:03.00 | 238900 | 261624
15 | 58:08.25 | 5:33.70 | 261625 | 286669
Range status and errors
Selected range
Filename C:\Documents and Settings\Admin\Рабочий стол\Lossless Galaxy Rip by ALLexxess\Naxos Records 25 Years\2012 Great Opera (10CD Box Set Naxos Records)\CD04 Verdi - La Traviata\Great Opera CD4 (Verdi - La Traviata).wav
Peak level 98.8 %
Extraction speed 6.2 X
Range quality 100.0 %
Test CRC E8D7B7EA
Copy CRC E8D7B7EA
Copy OK
No errors occurred
AccurateRip summary
Track 1 not present in database
Track 2 not present in database
Track 3 not present in database
Track 4 not present in database
Track 5 not present in database
Track 6 not present in database
Track 7 not present in database
Track 8 not present in database
Track 9 not present in database
Track 10 not present in database
Track 11 not present in database
Track 12 not present in database
Track 13 not present in database
Track 14 not present in database
Track 15 not present in database
None of the tracks are present in the AccurateRip database
End of status report
==== Log checksum C09DDB04F8E7DC8977C0E3F662AD4B585B0C06D5E8C5A7D74E0B1BC233177536 ====



CD5:
Exact Audio Copy V1.0 beta 3 from 29. August 2011
EAC extraction logfile from 8. June 2012, 22:28
Verdi: Aida / Great Opera CD5
Used drive : HL-DT-STDVDRAM GSA-H60N Adapter: 2 ID: 0
Read mode : Secure
Utilize accurate stream : Yes
Defeat audio cache : Yes
Make use of C2 pointers : No
Read offset correction : 667
Overread into Lead-In and Lead-Out : No
Fill up missing offset samples with silence : Yes
Delete leading and trailing silent blocks : No
Null samples used in CRC calculations : Yes
Used interface : Native Win32 interface for Win NT & 2000
Used output format : Internal WAV Routines
Sample format : 44.100 Hz; 16 Bit; Stereo
TOC of the extracted CD
Track | Start | Length | Start sector | End sector
––––––––––––––––––––––––––––-
1 | 0:00.00 | 4:13.22 | 0 | 18996
2 | 4:13.22 | 4:29.28 | 18997 | 39199
3 | 8:42.50 | 6:29.25 | 39200 | 68399
4 | 15:12.00 | 2:38.72 | 68400 | 80321
5 | 17:50.72 | 1:46.08 | 80322 | 88279
6 | 19:37.05 | 2:54.62 | 88280 | 101391
7 | 22:31.67 | 3:19.60 | 101392 | 116376
8 | 25:51.52 | 1:34.53 | 116377 | 123479
9 | 27:26.30 | 4:43.70 | 123480 | 144774
10 | 32:10.25 | 2:29.35 | 144775 | 155984
11 | 34:39.60 | 6:23.07 | 155985 | 184716
12 | 41:02.67 | 5:08.48 | 184717 | 207864
13 | 46:11.40 | 3:54.69 | 207865 | 225483
14 | 50:06.34 | 0:59.13 | 225484 | 229921
15 | 51:05.47 | 2:39.23 | 229922 | 241869
16 | 53:44.70 | 0:36.22 | 241870 | 244591
17 | 54:21.17 | 1:25.55 | 244592 | 251021
18 | 55:46.72 | 6:07.65 | 251022 | 278611
19 | 61:54.62 | 5:18.13 | 278612 | 302474
Range status and errors
Selected range
Filename C:\Documents and Settings\Admin\Рабочий стол\Lossless Galaxy Rip by ALLexxess\Naxos Records 25 Years\2012 Great Opera (10CD Box Set Naxos Records)\CD05 Verdi - Aida\Great Opera CD5 (Verdi - Aida).wav
Peak level 97.7 %
Extraction speed 6.0 X
Range quality 100.0 %
Test CRC 18FBAD9B
Copy CRC 18FBAD9B
Copy OK
No errors occurred
AccurateRip summary
Track 1 cannot be verified as accurate (confidence 1) [AF9C9AEA], AccurateRip returned [4C1BA7FA] (AR v2)
Track 2 cannot be verified as accurate (confidence 1) [EA020A11], AccurateRip returned [27BDF725] (AR v2)
Track 3 cannot be verified as accurate (confidence 1) [8A485E77], AccurateRip returned [1B247DFE] (AR v2)
Track 4 cannot be verified as accurate (confidence 1) [8FAA3ADA], AccurateRip returned [C36C330F] (AR v2)
Track 5 cannot be verified as accurate (confidence 1) [0413194B], AccurateRip returned [36E67634] (AR v2)
Track 6 cannot be verified as accurate (confidence 1) [A55479C0], AccurateRip returned [F2A9FEF9] (AR v2)
Track 7 cannot be verified as accurate (confidence 1) [EC1705C3], AccurateRip returned [C6A5E7DC] (AR v2)
Track 8 cannot be verified as accurate (confidence 1) [1DB7B6F3], AccurateRip returned [02F0D762] (AR v2)
Track 9 cannot be verified as accurate (confidence 1) [031F22A5], AccurateRip returned [76F962D7] (AR v2)
Track 10 cannot be verified as accurate (confidence 1) [84CF73FC], AccurateRip returned [8D44A78A] (AR v2)
Track 11 cannot be verified as accurate (confidence 1) [D77EC39E], AccurateRip returned [16747235] (AR v2)
Track 12 cannot be verified as accurate (confidence 1) [2D4F1181], AccurateRip returned [8A8ED100] (AR v2)
Track 13 cannot be verified as accurate (confidence 1) [AB7BA6E5], AccurateRip returned [CE1B572E] (AR v2)
Track 14 cannot be verified as accurate (confidence 1) [F8DF8C98], AccurateRip returned [5C421C6B] (AR v2)
Track 15 cannot be verified as accurate (confidence 1) [F6C88044], AccurateRip returned [00AAC4E6] (AR v2)
Track 16 cannot be verified as accurate (confidence 1) [03C0B1AE], AccurateRip returned [699E73B4] (AR v2)
Track 17 cannot be verified as accurate (confidence 1) [AA577B16], AccurateRip returned [CA1B2ACA] (AR v2)
Track 18 cannot be verified as accurate (confidence 1) [255C5399], AccurateRip returned [683D6B11] (AR v2)
Track 19 cannot be verified as accurate (confidence 1) [96E062B1], AccurateRip returned [B11ABD01] (AR v2)
No tracks could be verified as accurate
You may have a different pressing from the one(s) in the database
End of status report
==== Log checksum F579EF5235160EDA472439F8C8BE68785B7A143A96698B3D73C62D7C4651A9DC ====



CD6:
Exact Audio Copy V1.0 beta 3 from 29. August 2011
EAC extraction logfile from 9. June 2012, 17:26
Bizet: Carmen / Great Opera CD6
Used drive : HL-DT-STDVDRAM GSA-H60N Adapter: 2 ID: 0
Read mode : Secure
Utilize accurate stream : Yes
Defeat audio cache : Yes
Make use of C2 pointers : No
Read offset correction : 667
Overread into Lead-In and Lead-Out : No
Fill up missing offset samples with silence : Yes
Delete leading and trailing silent blocks : No
Null samples used in CRC calculations : Yes
Used interface : Native Win32 interface for Win NT & 2000
Used output format : Internal WAV Routines
Sample format : 44.100 Hz; 16 Bit; Stereo
TOC of the extracted CD
Track | Start | Length | Start sector | End sector
––––––––––––––––––––––––––––-
1 | 0:00.00 | 3:34.27 | 0 | 16076
2 | 3:34.27 | 4:00.73 | 16077 | 34149
3 | 7:35.25 | 4:54.00 | 34150 | 56199
4 | 12:29.25 | 4:26.00 | 56200 | 76149
5 | 16:55.25 | 1:40.00 | 76150 | 83649
6 | 18:35.25 | 5:00.00 | 83650 | 106149
7 | 23:35.25 | 8:09.00 | 106150 | 142824
8 | 31:44.25 | 3:09.55 | 142825 | 157054
9 | 34:54.05 | 4:19.20 | 157055 | 176499
10 | 39:13.25 | 3:11.00 | 176500 | 190824
11 | 42:24.25 | 5:06.00 | 190825 | 213774
12 | 47:30.25 | 2:26.00 | 213775 | 224724
13 | 49:56.25 | 15:52.55 | 224725 | 296179
Range status and errors
Selected range
Filename C:\Documents and Settings\Admin\Рабочий стол\Lossless Galaxy Rip by ALLexxess\Naxos Records 25 Years\2012 Great Opera (10CD Box Set Naxos Records)\CD06 Bizet - Carmen\Great Opera CD6 (Bizet - Carmen).wav
Peak level 100.0 %
Extraction speed 6.1 X
Range quality 100.0 %
Test CRC 265B7D04
Copy CRC 265B7D04
Copy OK
No errors occurred
AccurateRip summary
Track 1 cannot be verified as accurate (confidence 7) [214D896D], AccurateRip returned [0712B771] (AR v2)
Track 2 cannot be verified as accurate (confidence 7) [05C4036D], AccurateRip returned [58809913] (AR v2)
Track 3 cannot be verified as accurate (confidence 7) [9A675AD1], AccurateRip returned [58D93ECC] (AR v2)
Track 4 cannot be verified as accurate (confidence 7) [9F7CDBA3], AccurateRip returned [D7E60D57] (AR v2)
Track 5 cannot be verified as accurate (confidence 7) [F066C19D], AccurateRip returned [3139F15D] (AR v2)
Track 6 cannot be verified as accurate (confidence 7) [88D6E624], AccurateRip returned [47343D38] (AR v2)
Track 7 cannot be verified as accurate (confidence 7) [31D954A1], AccurateRip returned [A7D20B00] (AR v2)
Track 8 cannot be verified as accurate (confidence 7) [D923A31C], AccurateRip returned [7B3A7379] (AR v2)
Track 9 cannot be verified as accurate (confidence 7) [D43ACA5B], AccurateRip returned [A07351D6] (AR v2)
Track 10 cannot be verified as accurate (confidence 7) [366598E9], AccurateRip returned [053192E2] (AR v2)
Track 11 cannot be verified as accurate (confidence 7) [FFD84635], AccurateRip returned [80CF0432] (AR v2)
Track 12 cannot be verified as accurate (confidence 7) [0317FAF4], AccurateRip returned [B1061F00] (AR v2)
Track 13 cannot be verified as accurate (confidence 7) [1CB999E8], AccurateRip returned [22E521EF] (AR v2)
No tracks could be verified as accurate
You may have a different pressing from the one(s) in the database
End of status report
==== Log checksum 9349DAB9F1DBEC57E64E5DE4F7C7D2112116DEF0D567F967F882397687493FA8 ====




CD7:

Exact Audio Copy V1.0 beta 3 from 29. August 2011
EAC extraction logfile from 9. June 2012, 21:03
Mascagni & Leoncavallo / Great Opera CD7
Used drive : HL-DT-STDVDRAM GSA-H60N Adapter: 2 ID: 0
Read mode : Secure
Utilize accurate stream : Yes
Defeat audio cache : Yes
Make use of C2 pointers : No
Read offset correction : 667
Overread into Lead-In and Lead-Out : No
Fill up missing offset samples with silence : Yes
Delete leading and trailing silent blocks : No
Null samples used in CRC calculations : Yes
Used interface : Native Win32 interface for Win NT & 2000
Used output format : Internal WAV Routines
Sample format : 44.100 Hz; 16 Bit; Stereo
TOC of the extracted CD
Track | Start | Length | Start sector | End sector
––––––––––––––––––––––––––––-
1 | 0:00.00 | 7:59.07 | 0 | 35931
2 | 7:59.07 | 7:40.05 | 35932 | 70436
3 | 15:39.12 | 7:21.39 | 70437 | 103550
4 | 23:00.51 | 3:37.58 | 103551 | 119883
5 | 26:38.34 | 2:37.10 | 119884 | 131668
6 | 29:15.44 | 5:09.41 | 131669 | 154884
7 | 34:25.10 | 2:34.59 | 154885 | 166493
8 | 36:59.69 | 4:18.51 | 166494 | 185894
9 | 41:18.45 | 3:34.73 | 185895 | 202017
10 | 44:53.43 | 3:49.52 | 202018 | 219244
11 | 48:43.20 | 2:23.69 | 219245 | 230038
12 | 51:07.14 | 3:11.64 | 230039 | 244427
13 | 54:19.03 | 3:45.55 | 244428 | 261357
14 | 58:04.58 | 3:50.24 | 261358 | 278631
15 | 61:55.07 | 1:32.68 | 278632 | 285599
Range status and errors
Selected range
Filename C:\Documents and Settings\Admin\Рабочий стол\Lossless Galaxy Rip by ALLexxess\Naxos Records 25 Years\2012 Great Opera (10CD Box Set Naxos Records)\CD07 Mascagni & Leoncavallo\Great Opera CD7 (Mascagni & Leoncavallo).wav
Peak level 100.0 %
Extraction speed 6.1 X
Range quality 100.0 %
Test CRC 774B5907
Copy CRC 774B5907
Copy OK
No errors occurred
AccurateRip summary
Track 1 not present in database
Track 2 not present in database
Track 3 not present in database
Track 4 not present in database
Track 5 not present in database
Track 6 not present in database
Track 7 not present in database
Track 8 not present in database
Track 9 not present in database
Track 10 not present in database
Track 11 not present in database
Track 12 not present in database
Track 13 not present in database
Track 14 not present in database
Track 15 not present in database
None of the tracks are present in the AccurateRip database
End of status report
==== Log checksum 87785D444F7E00143E76DF389399482A472993FD5239D7BB21ECC8848D0D4524 ====



CD8:
Exact Audio Copy V1.0 beta 3 from 29. August 2011
EAC extraction logfile from 9. June 2012, 21:51
Puccini :Tosca / Great Opera CD8
Used drive : HL-DT-STDVDRAM GSA-H60N Adapter: 2 ID: 0
Read mode : Secure
Utilize accurate stream : Yes
Defeat audio cache : Yes
Make use of C2 pointers : No
Read offset correction : 667
Overread into Lead-In and Lead-Out : No
Fill up missing offset samples with silence : Yes
Delete leading and trailing silent blocks : No
Null samples used in CRC calculations : Yes
Used interface : Native Win32 interface for Win NT & 2000
Used output format : Internal WAV Routines
Sample format : 44.100 Hz; 16 Bit; Stereo
TOC of the extracted CD
Track | Start | Length | Start sector | End sector
––––––––––––––––––––––––––––-
1 | 0:00.00 | 5:31.25 | 0 | 24849
2 | 5:31.25 | 3:10.47 | 24850 | 39146
3 | 8:41.72 | 2:38.28 | 39147 | 51024
4 | 11:20.25 | 5:31.00 | 51025 | 75849
5 | 16:51.25 | 4:41.00 | 75850 | 96924
6 | 21:32.25 | 4:45.00 | 96925 | 118299
7 | 26:17.25 | 4:11.07 | 118300 | 137131
8 | 30:28.32 | 4:20.03 | 137132 | 156634
9 | 34:48.35 | 4:36.35 | 156635 | 177369
10 | 39:24.70 | 4:00.30 | 177370 | 195399
11 | 43:25.25 | 7:34.00 | 195400 | 229449
12 | 50:59.25 | 1:30.00 | 229450 | 236199
13 | 52:29.25 | 3:48.65 | 236200 | 253364
14 | 56:18.15 | 4:26.72 | 253365 | 273386
15 | 60:45.12 | 3:00.18 | 273387 | 286904
16 | 63:45.30 | 2:43.17 | 286905 | 299146
17 | 66:28.47 | 8:00.05 | 299147 | 335151
18 | 74:28.52 | 2:29.00 | 335152 | 346326
19 | 76:57.52 | 1:23.43 | 346327 | 352594
Range status and errors
Selected range
Filename C:\Documents and Settings\Admin\Рабочий стол\Lossless Galaxy Rip by ALLexxess\Naxos Records 25 Years\2012 Great Opera (10CD Box Set Naxos Records)\CD08 Puccini - Tosca\Great Opera CD8 (Puccini - Tosca).wav
Peak level 100.0 %
Extraction speed 5.9 X
Range quality 99.9 %
Test CRC E938A94E
Copy CRC E938A94E
Copy OK
No errors occurred
AccurateRip summary
Track 1 cannot be verified as accurate (confidence 3) [EE74C10F], AccurateRip returned [6DD8C3D0] (AR v2)
Track 2 cannot be verified as accurate (confidence 3) [FDB4779C], AccurateRip returned [DB0DB739] (AR v2)
Track 3 cannot be verified as accurate (confidence 3) [EB28FEC8], AccurateRip returned [52EEC7FD] (AR v2)
Track 4 cannot be verified as accurate (confidence 3) [601C3DF1], AccurateRip returned [36452110] (AR v2)
Track 5 cannot be verified as accurate (confidence 3) [D66333D1], AccurateRip returned [5632B57F] (AR v2)
Track 6 cannot be verified as accurate (confidence 3) [C17BD265], AccurateRip returned [F442A048] (AR v2)
Track 7 cannot be verified as accurate (confidence 3) [65C073AE], AccurateRip returned [D2B3DBE9] (AR v2)
Track 8 cannot be verified as accurate (confidence 3) [E741D806], AccurateRip returned [3255040C] (AR v2)
Track 9 cannot be verified as accurate (confidence 2) [EB299FF4], AccurateRip returned [0C8FF9B5] (AR v2)
Track 10 cannot be verified as accurate (confidence 3) [B9134BDA], AccurateRip returned [2BE60C3F] (AR v2)
Track 11 cannot be verified as accurate (confidence 3) [B43DBA7A], AccurateRip returned [11F0336A] (AR v2)
Track 12 cannot be verified as accurate (confidence 3) [894CA45D], AccurateRip returned [76BE06C8] (AR v2)
Track 13 cannot be verified as accurate (confidence 2) [5A113AB7], AccurateRip returned [55872330] (AR v2)
Track 14 cannot be verified as accurate (confidence 3) [3FCF200C], AccurateRip returned [DF720B84] (AR v2)
Track 15 cannot be verified as accurate (confidence 3) [1A4E3BD3], AccurateRip returned [D4D0C7F5] (AR v2)
Track 16 cannot be verified as accurate (confidence 3) [B9956727], AccurateRip returned [FCD4B7B6] (AR v2)
Track 17 cannot be verified as accurate (confidence 3) [979F3746], AccurateRip returned [6FED3344] (AR v2)
Track 18 cannot be verified as accurate (confidence 3) [F4398FAA], AccurateRip returned [D54A3EC9] (AR v2)
Track 19 cannot be verified as accurate (confidence 3) [D4DF22B2], AccurateRip returned [63A3A071] (AR v2)
No tracks could be verified as accurate
You may have a different pressing from the one(s) in the database
End of status report
==== Log checksum 7CAC1FF827EF6CC7A1FA275D4AB8C282721ED714833E2A31A3CAAB16BFA0D3B3 ====



CD9:
Exact Audio Copy V1.0 beta 3 from 29. August 2011
EAC extraction logfile from 9. June 2012, 22:59
Puccini: Madama Butterfly / Great Opera CD9
Used drive : HL-DT-STDVDRAM GSA-H60N Adapter: 2 ID: 0
Read mode : Secure
Utilize accurate stream : Yes
Defeat audio cache : Yes
Make use of C2 pointers : No
Read offset correction : 667
Overread into Lead-In and Lead-Out : No
Fill up missing offset samples with silence : Yes
Delete leading and trailing silent blocks : No
Null samples used in CRC calculations : Yes
Used interface : Native Win32 interface for Win NT & 2000
Used output format : Internal WAV Routines
Sample format : 44.100 Hz; 16 Bit; Stereo
TOC of the extracted CD
Track | Start | Length | Start sector | End sector
––––––––––––––––––––––––––––-
1 | 0:00.00 | 3:06.07 | 0 | 13956
2 | 3:06.07 | 1:03.45 | 13957 | 18726
3 | 4:09.52 | 2:55.35 | 18727 | 31886
4 | 7:05.12 | 3:32.13 | 31887 | 47799
5 | 10:37.25 | 2:17.45 | 47800 | 58119
6 | 12:54.70 | 3:50.15 | 58120 | 75384
7 | 16:45.10 | 11:03.15 | 75385 | 125124
8 | 27:48.25 | 4:41.00 | 125125 | 146199
9 | 32:29.25 | 4:06.17 | 146200 | 164666
10 | 36:35.42 | 10:20.43 | 164667 | 211209
11 | 46:56.10 | 2:52.15 | 211210 | 224124
12 | 49:48.25 | 8:20.00 | 224125 | 261624
13 | 58:08.25 | 5:13.32 | 261625 | 285131
Range status and errors
Selected range
Filename C:\Documents and Settings\Admin\Рабочий стол\Lossless Galaxy Rip by ALLexxess\Naxos Records 25 Years\2012 Great Opera (10CD Box Set Naxos Records)\CD09 Puccini - Madama Butterfly\Great Opera CD9 (Puccini - Madama Butterfly).wav
Peak level 97.7 %
Extraction speed 5.9 X
Range quality 99.9 %
Test CRC DBA44FC3
Copy CRC DBA44FC3
Copy OK
No errors occurred
AccurateRip summary
Track 1 cannot be verified as accurate (confidence 6) [E63B5BD4], AccurateRip returned [27915907] (AR v2)
Track 2 cannot be verified as accurate (confidence 6) [FBF5E1FF], AccurateRip returned [FA4402D4] (AR v2)
Track 3 cannot be verified as accurate (confidence 6) [F15366A6], AccurateRip returned [1A1250A4] (AR v2)
Track 4 cannot be verified as accurate (confidence 6) [0B540B1D], AccurateRip returned [5F5545EA] (AR v2)
Track 5 cannot be verified as accurate (confidence 6) [BA50A7A6], AccurateRip returned [FCB76A29] (AR v2)
Track 6 cannot be verified as accurate (confidence 6) [F40F0461], AccurateRip returned [5AAA106A] (AR v2)
Track 7 cannot be verified as accurate (confidence 6) [70FE5059], AccurateRip returned [62663F3F] (AR v2)
Track 8 cannot be verified as accurate (confidence 6) [C7E3EE88], AccurateRip returned [B5A6415A] (AR v2)
Track 9 cannot be verified as accurate (confidence 6) [87DDD9B8], AccurateRip returned [7DF8F643] (AR v2)
Track 10 cannot be verified as accurate (confidence 6) [90B14232], AccurateRip returned [B0549BB6] (AR v2)
Track 11 cannot be verified as accurate (confidence 6) [D749EDF8], AccurateRip returned [1AF4A732] (AR v2)
Track 12 cannot be verified as accurate (confidence 6) [80661DD9], AccurateRip returned [D618EDFA] (AR v2)
Track 13 cannot be verified as accurate (confidence 6) [00A3B6FA], AccurateRip returned [3F88CE5D] (AR v2)
No tracks could be verified as accurate
You may have a different pressing from the one(s) in the database
End of status report
==== Log checksum 412C94C05BD73C27CB4F8C9134E70315DC718760E3A7F16B495F526633502BFF ====



CD10:
Exact Audio Copy V1.0 beta 3 from 29. August 2011
EAC extraction logfile from 9. June 2012, 23:43
Puccini: La Boheme / Great Opera CD10
Used drive : HL-DT-STDVDRAM GSA-H60N Adapter: 2 ID: 0
Read mode : Secure
Utilize accurate stream : Yes
Defeat audio cache : Yes
Make use of C2 pointers : No
Read offset correction : 667
Overread into Lead-In and Lead-Out : No
Fill up missing offset samples with silence : Yes
Delete leading and trailing silent blocks : No
Null samples used in CRC calculations : Yes
Used interface : Native Win32 interface for Win NT & 2000
Used output format : Internal WAV Routines
Sample format : 44.100 Hz; 16 Bit; Stereo
TOC of the extracted CD
Track | Start | Length | Start sector | End sector
––––––––––––––––––––––––––––-
1 | 0:00.00 | 4:15.25 | 0 | 19149
2 | 4:15.25 | 1:29.52 | 19150 | 25876
3 | 5:45.02 | 4:22.43 | 25877 | 45569
4 | 10:07.45 | 4:36.55 | 45570 | 66324
5 | 14:44.25 | 3:46.00 | 66325 | 83274
6 | 18:30.25 | 2:09.10 | 83275 | 92959
7 | 20:39.35 | 3:21.37 | 92960 | 108071
8 | 24:00.72 | 4:40.25 | 108072 | 129096
9 | 28:41.22 | 2:18.03 | 129097 | 139449
10 | 30:59.25 | 3:37.00 | 139450 | 155724
11 | 34:36.25 | 4:35.07 | 155725 | 176356
12 | 39:11.32 | 4:57.58 | 176357 | 198689
13 | 44:09.15 | 2:42.20 | 198690 | 210859
14 | 46:51.35 | 5:08.65 | 210860 | 234024
15 | 52:00.25 | 4:14.00 | 234025 | 253074
16 | 56:14.25 | 2:18.27 | 253075 | 263451
17 | 58:32.52 | 5:10.48 | 263452 | 286749
18 | 63:43.25 | 2:23.00 | 286750 | 297474
Range status and errors
Selected range
Filename C:\Documents and Settings\Admin\Рабочий стол\Lossless Galaxy Rip by ALLexxess\Naxos Records 25 Years\2012 Great Opera (10CD Box Set Naxos Records)\CD10 Puccini - La Boheme\Great Opera CD10 (Puccini - La Boheme).wav
Peak level 100.0 %
Extraction speed 6.1 X
Range quality 99.9 %
Test CRC 6383BAB8
Copy CRC 6383BAB8
Copy OK
No errors occurred
AccurateRip summary
Track 1 cannot be verified as accurate (confidence 3) [87C3B3BC], AccurateRip returned [CEB56AD3] (AR v2)
Track 2 cannot be verified as accurate (confidence 3) [D9ACC500], AccurateRip returned [0B189F69] (AR v2)
Track 3 cannot be verified as accurate (confidence 3) [9893D090], AccurateRip returned [4259043C] (AR v2)
Track 4 cannot be verified as accurate (confidence 3) [E9169222], AccurateRip returned [C2669F85] (AR v2)
Track 5 cannot be verified as accurate (confidence 3) [927C4519], AccurateRip returned [1B71A967] (AR v2)
Track 6 cannot be verified as accurate (confidence 3) [F67FF3F8], AccurateRip returned [7FBA2325] (AR v2)
Track 7 cannot be verified as accurate (confidence 3) [98703148], AccurateRip returned [F471DC66] (AR v2)
Track 8 cannot be verified as accurate (confidence 3) [416350EA], AccurateRip returned [7FDF0D89] (AR v2)
Track 9 cannot be verified as accurate (confidence 3) [7B6E9698], AccurateRip returned [25B9440C] (AR v2)
Track 10 cannot be verified as accurate (confidence 3) [7B047327], AccurateRip returned [49F5F20C] (AR v2)
Track 11 cannot be verified as accurate (confidence 2) [7981B2BE], AccurateRip returned [F379F03F] (AR v2)
Track 12 cannot be verified as accurate (confidence 3) [6A178055], AccurateRip returned [EA8A0A96] (AR v2)
Track 13 cannot be verified as accurate (confidence 2) [0CD70E79], AccurateRip returned [8BD264DF] (AR v2)
Track 14 cannot be verified as accurate (confidence 2) [1210A556], AccurateRip returned [6A31D0C6] (AR v2)
Track 15 cannot be verified as accurate (confidence 3) [9756A939], AccurateRip returned [D1A13322] (AR v2)
Track 16 cannot be verified as accurate (confidence 3) [2D8314FC], AccurateRip returned [B1A4E49F] (AR v2)
Track 17 cannot be verified as accurate (confidence 3) [315F7218], AccurateRip returned [D0BEC41B] (AR v2)
Track 18 cannot be verified as accurate (confidence 2) [91F37E5F], AccurateRip returned [2B0259B7] (AR v2)
No tracks could be verified as accurate
You may have a different pressing from the one(s) in the database
End of status report
==== Log checksum 5A20AB1A39A941178A5E5B0DDE8F6A44A3B53F432349D2B0145013A85D4AC5C2 ====


VA - Naxos 25th Anniversary: Great Opera (2012) (10 CD Box Set)


Thanks to original ripper.