Subcategories
Tags
Language
Tags

VA - Naxos 25th Anniversary: Great Classical Symphonies (2012) (10 CD Box Set)

Posted By: murena
VA - Naxos 25th Anniversary: Great Classical Symphonies (2012) (10 CD Box Set)

VA - Naxos 25th Anniversary: Great Classical Symphonies (2012) (10 CD Box Set)
EAC Rip | FLAC (Image+.cue, log) | 3,3 Gb | Scans -> 118 mb
MP3 320 kbps | 10 CDs, 12:28:42 min | 1,98 Gb
Genre: Classical / Label: Naxos

The word ‘symphony’ is used to describe an extended orchestral composition in Western classical music. By the eighteenth century the Italianate opera sinfonia - musical interludes between operas or concertos - had assumed the structure of three contrasting movements, and it is this form that is often considered as the direct forerunner of the orchestral symphony. With the rise of established professional orchestras, the symphony assumed a more prominent place in concert life between 1790 and 1820 until it eventually came to be regarded by many as the yardstick by which one would measure a composer’s achievement.

Without doubt, the most important symphonists of the latter part of the eighteenth century are Haydn and Mozart. Often credited with expanding the symphonic form to the four movements we are familiar with today, these two composers are together responsible for over 160 symphonies including those commonly regarded as the apex of the Classical symphonic form—Haydn’s London symphonies and Mozart’s Jupiter and Linz. A few years later, Beethoven dramatically expanded the symphony, in so doing forming the bridge between the Classical and Romantic eras. His Eroica symphony has a scale and emotional range that sets it apart from earlier works, while his Symphony No 5 is arguably the most famous symphony ever written.

VA - Naxos 25th Anniversary: Great Classical Symphonies (2012) (10 CD Box Set)


GREAT CLASSICAL SYMPHONIES includes the following symphonies:
CD 1 Haydn Symphonies Nos. 45 ‘Farewell’, 88 and 92 ‘Oxford’
CD 2 Haydn Symphonies Nos. 94 ‘Surprise’, 100 ‘Military’ and 101 ‘Clock’
CD 3 Haydn Symphonies Nos. 95, 103 ‘Drumroll’ and 104 ‘London’
CD 4 Haydn Symphonies Nos. 96 ‘Miracle’, 98 and 102
CD 5 Mozart Symphonies Nos. 25, 35 ‘Haffner’ and 41 ‘Jupiter
CD 6 Mozart Symphonies Nos. 38 ‘Prague’, 39 and 40
CD 7 Mozart Symphonies Nos. 29, 34 and 36 ‘Linz’
CD 8 Beethoven Symphonies Nos. 3 ‘Eroica’ and 8
CD 9 Beethoven Symphonies Nos. 5 and 6 ‘Pastoral’
CD 10 Beethoven Symphony No. 9 ‘Choral’

CD01 Haydn: Symphonies Nos. 45 ‘Farewell‘, 88 & 92 ‘Oxford‘
Symphony No. 45 in F sharp minor, Hob.I:45, 'Farewell'
1. I. Allegro assai 00:05:41
2. II. Adagio 00:07:39
3. III. Menuetto: Allegretto 00:03:52
4. IV. Finale: Presto - Adagio 00:08:05
Symphony No. 88 in G major, Hob.I:88
5. I. Adagio - Allegro 00:06:40
6. II. Largo 00:05:34
7. III. Menuetto: Allegretto 00:04:13
8. IV. Finale: Allegro con spirito 00:03:52
Symphony No. 92 in G major, Hob.I:92, 'Oxford'
9. I. Adagio - Allegro spiritoso 00:07:34
10. II. Adagio 00:08:13
11. III. Menuetto: Allegro 00:05:41
12. IV. Presto 00:06:03

CD02 Haydn: Symphonies Nos. 94 'Surprise', 100 'Military' & 101 'Clock'
Symphony No. 94 in G major, Hob.I:94, 'The Surprise'
1. I. Adagio: Vivace assai 00:08:45
2. II. Andante 00:05:33
3. III. Menuet: Allegro molto 00:05:03
4. IV. Allegro molto 00:04:18
Symphony No. 100 in G major, Hob.I:100, 'Military'
5. I. Adagio - Allegro 00:07:51
6. II. Allegretto 00:06:18
7. III. Menuet: Moderato 00:05:11
8. IV. Finale: Presto 00:05:31
Symphony No. 101 in D major, Hob.I:101, 'The Clock'
9. I. Adagio - Presto 00:08:07
10. II. Andante 00:07:51
11. III. Menuet: Allegretto 00:07:55
12. IV. Finale: Vivace 00:04:43

CD03 Haydn: Symphonies Nos. 95, 103 'Drumroll' & 104 'London'
Symphony No. 95 in C minor, Hob.I:95
1. I. Allegro moderato 00:06:18
2. II. Andante cantabile 00:04:38
3. III. Menuet 00:04:51
4. IV. Finale: Vivace 00:03:48
Symphony No. 103 in E flat major, Hob.I:103
5. I. Adagio - Allegro con spirito 00:09:15
6. II. Andante 00:07:56
7. III. Menuetto: Allegro 00:04:45
8. IV. Allegro con spirito 00:06:01
Symphony No. 104 in D major, Hob.I:104, 'London'
9. I. Adagio - Allegro 00:08:22
10. II. Andante 00:09:29
11. III. Menuet - Trio 00:05:26
12. IV. Finale: Spiritoso 00:06:53

CD04 Haydn Symphonies Nos. 96 'Miracle', 98 & 102
Symphony No. 96 in D major, Hob.I:96, 'The Miracle'
1. I. Adagio - Allegro 00:06:34
2. II. Andante 00:05:06
3. III. Menuetto: Allegretto 00:05:01
4. IV. Finale: Vivace assai 00:03:40
Symphony No. 98 in B flat major, Hob.I:98
5. I. Adagio - Allegro 00:08:22
6. II. Adagio 00:06:53
7. III. Menuet: Allegro 00:06:08
8. IV. Finale: Presto 00:09:17
Symphony No. 102 in B flat major, Hob.I:102
9. I. Largo - Allegro vivace 00:08:54
10. II. Adagio 00:05:41
11. III. Menuetto: Allegro 00:06:36
12. IV. Finale: Presto 00:05:06

CD05 Mozart: Symphonies Nos. 25, 35 'Haffner' & 41 'Jupiter'
Symphony No. 25 in G minor, K. 183
1. I. Allegro con brio 00:07:42
2. II. Andante 00:03:49
3. III. Menuetto 00:03:28
4. IV. Allegro 00:05:13
Symphony No. 35 in D major, K. 385, 'Haffner'
5. I. Allegro con spirito 00:05:34
6. II. Andante 00:04:29
7. III. Menuetto - Trio 00:03:00
8. IV. Finale: Presto 00:03:57
Symphony No. 41 in C major, K. 551, 'Jupiter'
9. I. Allegro vivace 00:11:22
10. II. Andante cantabile 00:11:24
11. III. Menuetto: Allegretto 00:04:45
12. IV. Molto allegro 00:09:29

CD06 Mozart: Symphonies Nos. 38 'Prague', 39 & 40
Symphony No. 38 in D major, K. 504, 'Prague'
1. I. Adagio - Allegro 00:13:23
2. II. Andante 00:08:40
3. III. Finale: Presto 00:06:18
Symphony No. 39 in E flat major, K. 543
4. I. Adagio - Allegro 00:10:56
5. II. Andante con moto 00:07:12
6. III. Menuetto: Allegretto 00:03:58
7. IV. Finale: Allegro 00:04:14
Symphony No. 40 in G minor, K. 550
8. I. Allegro molto 00:07:31
9. II. Andante 00:07:45
10. III. Menuetto: Allegretto 00:04:38
11. IV. Allegro assai 00:05:06

CD07 Mozart: Symphonies Nos. 29, 34 & 36 'Linz
Symphony No. 29 in A major, K. 201
1. I. Allegro moderato 00:07:31
2. II. Andante 00:08:58
3. III. Menuetto 00:03:02
4. IV. Allegro con spirito 00:04:53
Symphony No. 34 in C major, K. 338
5. I. Allegro vivace 00:07:50
6. II. Andante di molto 00:06:59
7. III. Allegro molto 00:04:14
Symphony No. 36 in C major, K. 425, 'Linz'
8. I. Adagio - Allegro spiritoso 00:10:44
9. II. Poco adagio 00:06:58
10. III. Menuetto 00:03:35
11. IV. Presto 00:08:11

CD08 Beethoven: Symphonies Nos. 3 'Eroica' & 8
Symphony No. 3 in E flat major, Op. 55, 'Eroica'
1. I. Allegro con brio 00:16:58
2. II. Marcia funebre: Adagio assai 00:12:52
3. III. Scherzo: Allegro vivace 00:05:53
4. IV. Finale: Allegro molto 00:11:35
Symphony No. 8 in F major, Op. 93
5. I. Allegro vivace e con brio 00:09:17
6. II. Allegretto scherzando 00:03:50
7. III. Tempo di menuetto 00:05:51
8. IV. Allegro vivace 00:07:44

CD09 Beethoven: Symphonies Nos. 5 & 6 'Pastoral
Symphony No. 5 in C minor, Op. 67
1. I. Allegro con brio 00:07:15
2. II. Andante con moto 00:09:21
3. III. Allegro 00:08:33
4. IV. Allegro 00:10:41
Symphony No. 6 in F major, Op. 68, 'Pastoral'
5. I. Pleasant, cheerful feelings aroused on approaching the countryside: Allegro ma non troppo 00:11:06
6. II. Scene by the brook: Andante molto mosso 00:12:05
7. III. Happy gathering of villagers: Allegro 00:04:59
8. IV. Thunder - storm: Allegro 00:03:54
9. V. Shepherd's song. Grateful thanks to the Almighty after the storm: Allegretto 00:09:53

CD10 Beethoven Symphony No. 9 'Choral
Symphony No. 9 in D minor, Op. 125, 'Choral'
1. I. Allegro ma non troppo, un poco maestoso 00:14:44
2. II. Molto vivace 00:13:46
3. III. Adagio molto e cantabile - Andante moderato 00:13:05
4. IV. Finale: Presto 00:23:19



CD1
Exact Audio Copy V1.0 beta 3 from 29. August 2011
EAC extraction logfile from 25. June 2012, 23:01
Haydn: Symphonies No. 45 / No. 88 / No. 92 / Great Classical Symphonies CD1
Used drive : HL-DT-STDVDRAM GSA-H60N Adapter: 2 ID: 0
Read mode : Secure
Utilize accurate stream : Yes
Defeat audio cache : Yes
Make use of C2 pointers : No
Read offset correction : 667
Overread into Lead-In and Lead-Out : No
Fill up missing offset samples with silence : Yes
Delete leading and trailing silent blocks : No
Null samples used in CRC calculations : Yes
Used interface : Native Win32 interface for Win NT & 2000
Used output format : Internal WAV Routines
Sample format : 44.100 Hz; 16 Bit; Stereo
TOC of the extracted CD
Track | Start | Length | Start sector | End sector
––––––––––––––––––––––––––––-
1 | 0:00.00 | 5:41.24 | 0 | 25598
2 | 5:41.24 | 7:39.00 | 25599 | 60023
3 | 13:20.24 | 3:52.00 | 60024 | 77423
4 | 17:12.24 | 8:05.00 | 77424 | 113798
5 | 25:17.24 | 6:40.03 | 113799 | 143801
6 | 31:57.27 | 5:34.00 | 143802 | 168851
7 | 37:31.27 | 4:13.02 | 168852 | 187828
8 | 41:44.29 | 3:52.34 | 187829 | 205262
9 | 45:36.63 | 7:34.15 | 205263 | 239327
10 | 53:11.03 | 8:12.69 | 239328 | 276296
11 | 61:23.72 | 5:41.05 | 276297 | 301876
12 | 67:05.02 | 6:02.73 | 301877 | 329099
Range status and errors
Selected range
Filename C:\Documents and Settings\Admin\Рабочий стол\Lossless Galaxy Rip by ALLexxess\Naxos Records 25 Years\2012 Great Classical Symphonies (10CD Box Set Naxos Records)\CD01 Haydn - Symph. 45 & 88 & 92\Classical Symphonies CD1.wav
Peak level 100.0 %
Extraction speed 6.3 X
Range quality 100.0 %
Test CRC 60B42E90
Copy CRC 60B42E90
Copy OK
No errors occurred
AccurateRip summary
Track 1 not present in database
Track 2 not present in database
Track 3 not present in database
Track 4 not present in database
Track 5 not present in database
Track 6 not present in database
Track 7 not present in database
Track 8 not present in database
Track 9 not present in database
Track 10 not present in database
Track 11 not present in database
Track 12 not present in database
None of the tracks are present in the AccurateRip database
End of status report
==== Log checksum 744B5AD5C61EDF4F92CAA880195D98BA527C3167C8787B8DB3B190CEEEC643BF ====


CD2
Exact Audio Copy V1.0 beta 3 from 29. August 2011
EAC extraction logfile from 26. June 2012, 17:05
Haydn: Symphonies No. 94 / No. 100 / No. 101 / Great Classical Symphonies CD2
Used drive : HL-DT-STDVDRAM GSA-H60N Adapter: 2 ID: 0
Read mode : Secure
Utilize accurate stream : Yes
Defeat audio cache : Yes
Make use of C2 pointers : No
Read offset correction : 667
Overread into Lead-In and Lead-Out : No
Fill up missing offset samples with silence : Yes
Delete leading and trailing silent blocks : No
Null samples used in CRC calculations : Yes
Used interface : Native Win32 interface for Win NT & 2000
Used output format : Internal WAV Routines
Sample format : 44.100 Hz; 16 Bit; Stereo
TOC of the extracted CD
Track | Start | Length | Start sector | End sector
––––––––––––––––––––––––––––-
1 | 0:00.00 | 8:44.45 | 0 | 39344
2 | 8:44.45 | 5:33.33 | 39345 | 64352
3 | 14:18.03 | 5:02.68 | 64353 | 87070
4 | 19:20.71 | 4:17.59 | 87071 | 106404
5 | 23:38.55 | 7:51.02 | 106405 | 141731
6 | 31:29.57 | 6:17.72 | 141732 | 170078
7 | 37:47.54 | 5:11.01 | 170079 | 193404
8 | 42:58.55 | 5:30.62 | 193405 | 218216
9 | 48:29.42 | 8:07.19 | 218217 | 254760
10 | 56:36.61 | 7:51.12 | 254761 | 290097
11 | 64:27.73 | 7:54.49 | 290098 | 325696
12 | 72:22.47 | 4:43.28 | 325697 | 346949
Range status and errors
Selected range
Filename C:\Documents and Settings\Admin\Рабочий стол\Lossless Galaxy Rip by ALLexxess\Naxos Records 25 Years\2012 Great Classical Symphonies (10CD Box Set Naxos Records)\CD02 Haydn - Symph. 94 & 100 & 101\Classical Symphonies CD2.wav
Peak level 97.7 %
Extraction speed 6.4 X
Range quality 100.0 %
Test CRC 14F6B1F8
Copy CRC 14F6B1F8
Copy OK
No errors occurred
AccurateRip summary
Track 1 not present in database
Track 2 not present in database
Track 3 not present in database
Track 4 not present in database
Track 5 not present in database
Track 6 not present in database
Track 7 not present in database
Track 8 not present in database
Track 9 not present in database
Track 10 not present in database
Track 11 not present in database
Track 12 not present in database
None of the tracks are present in the AccurateRip database
End of status report
==== Log checksum A363EA8569475D9CE7986C3A6325006E5745C68F2A95E67F3254686CAE57F9A0 ====


CD3
Exact Audio Copy V1.0 beta 3 from 29. August 2011
EAC extraction logfile from 26. June 2012, 20:02
Haydn: Symphonies No. 95 / No. 103 / No. 104 / Great Classical Symphonies CD3
Used drive : HL-DT-STDVDRAM GSA-H60N Adapter: 2 ID: 0
Read mode : Secure
Utilize accurate stream : Yes
Defeat audio cache : Yes
Make use of C2 pointers : No
Read offset correction : 667
Overread into Lead-In and Lead-Out : No
Fill up missing offset samples with silence : Yes
Delete leading and trailing silent blocks : No
Null samples used in CRC calculations : Yes
Used interface : Native Win32 interface for Win NT & 2000
Used output format : Internal WAV Routines
Sample format : 44.100 Hz; 16 Bit; Stereo
TOC of the extracted CD
Track | Start | Length | Start sector | End sector
––––––––––––––––––––––––––––-
1 | 0:00.32 | 6:18.02 | 32 | 28383
2 | 6:18.34 | 4:37.62 | 28384 | 49220
3 | 10:56.21 | 4:51.10 | 49221 | 71055
4 | 15:47.31 | 3:48.05 | 71056 | 88160
5 | 19:35.36 | 9:14.74 | 88161 | 129784
6 | 28:50.35 | 7:56.07 | 129785 | 165491
7 | 36:46.42 | 4:45.00 | 165492 | 186866
8 | 41:31.42 | 6:01.05 | 186867 | 213946
9 | 47:32.47 | 8:21.70 | 213947 | 251591
10 | 55:54.42 | 9:29.11 | 251592 | 294277
11 | 65:23.53 | 5:25.67 | 294278 | 318719
12 | 70:49.45 | 6:53.30 | 318720 | 349724
Range status and errors
Selected range
Filename C:\Documents and Settings\Admin\Рабочий стол\Lossless Galaxy Rip by ALLexxess\Naxos Records 25 Years\2012 Great Classical Symphonies (10CD Box Set Naxos Records)\CD03 Haydn - Symph. 95 & 103 & 104\Classical Symphonies CD3.wav
Peak level 97.6 %
Extraction speed 6.3 X
Range quality 99.9 %
Test CRC 0B63DF04
Copy CRC 0B63DF04
Copy OK
No errors occurred
AccurateRip summary
Track 1 not present in database
Track 2 not present in database
Track 3 not present in database
Track 4 not present in database
Track 5 not present in database
Track 6 not present in database
Track 7 not present in database
Track 8 not present in database
Track 9 not present in database
Track 10 not present in database
Track 11 not present in database
Track 12 not present in database
None of the tracks are present in the AccurateRip database
End of status report
==== Log checksum 1683DF3D9283F2E54542E45E357A503FE1CE7104A8049717257C6144E02F576A ====


CD4
Exact Audio Copy V1.0 beta 3 from 29. August 2011
EAC extraction logfile from 26. June 2012, 21:38
Haydn: Symphonies No. 96 / No. 98 / No. 102 / Great Classical Symphonies CD4
Used drive : HL-DT-STDVDRAM GSA-H60N Adapter: 2 ID: 0
Read mode : Secure
Utilize accurate stream : Yes
Defeat audio cache : Yes
Make use of C2 pointers : No
Read offset correction : 667
Overread into Lead-In and Lead-Out : No
Fill up missing offset samples with silence : Yes
Delete leading and trailing silent blocks : No
Null samples used in CRC calculations : Yes
Used interface : Native Win32 interface for Win NT & 2000
Used output format : Internal WAV Routines
Sample format : 44.100 Hz; 16 Bit; Stereo
TOC of the extracted CD
Track | Start | Length | Start sector | End sector
––––––––––––––––––––––––––––-
1 | 0:00.00 | 6:33.55 | 0 | 29529
2 | 6:33.55 | 5:06.00 | 29530 | 52479
3 | 11:39.55 | 5:01.00 | 52480 | 75054
4 | 16:40.55 | 3:40.00 | 75055 | 91554
5 | 20:20.55 | 8:22.08 | 91555 | 129212
6 | 28:42.63 | 6:53.37 | 129213 | 160224
7 | 35:36.25 | 6:07.73 | 160225 | 187822
8 | 41:44.23 | 9:16.62 | 187823 | 229584
9 | 51:01.10 | 8:54.08 | 229585 | 269642
10 | 59:55.18 | 5:41.01 | 269643 | 295218
11 | 65:36.19 | 6:35.74 | 295219 | 324917
12 | 72:12.18 | 5:05.57 | 324918 | 347849
Range status and errors
Selected range
Filename C:\Documents and Settings\Admin\Рабочий стол\Lossless Galaxy Rip by ALLexxess\Naxos Records 25 Years\2012 Great Classical Symphonies (10CD Box Set Naxos Records)\CD04 Haydn - Symph. 96 & 98 & 102\Classical Symphonies CD4.wav
Peak level 97.7 %
Extraction speed 6.3 X
Range quality 99.9 %
Test CRC E54FA6A2
Copy CRC E54FA6A2
Copy OK
No errors occurred
AccurateRip summary
Track 1 not present in database
Track 2 not present in database
Track 3 not present in database
Track 4 not present in database
Track 5 not present in database
Track 6 not present in database
Track 7 not present in database
Track 8 not present in database
Track 9 not present in database
Track 10 not present in database
Track 11 not present in database
Track 12 not present in database
None of the tracks are present in the AccurateRip database
End of status report
==== Log checksum CE74E31B6AD12B5E71BA1010A216D5816019020B908D90692698F375DD7F23B6 ====


CD5
Exact Audio Copy V1.0 beta 3 from 29. August 2011
EAC extraction logfile from 27. June 2012, 16:46
Mozart: Symphony No. 25 / No. 35 / No. 41 / Great Classical Symphonies CD5
Used drive : HL-DT-STDVDRAM GSA-H60N Adapter: 2 ID: 0
Read mode : Secure
Utilize accurate stream : Yes
Defeat audio cache : Yes
Make use of C2 pointers : No
Read offset correction : 667
Overread into Lead-In and Lead-Out : No
Fill up missing offset samples with silence : Yes
Delete leading and trailing silent blocks : No
Null samples used in CRC calculations : Yes
Used interface : Native Win32 interface for Win NT & 2000
Used output format : Internal WAV Routines
Sample format : 44.100 Hz; 16 Bit; Stereo
TOC of the extracted CD
Track | Start | Length | Start sector | End sector
––––––––––––––––––––––––––––-
1 | 0:00.00 | 7:42.16 | 0 | 34665
2 | 7:42.16 | 3:49.00 | 34666 | 51840
3 | 11:31.16 | 3:27.38 | 51841 | 67403
4 | 14:58.54 | 5:12.63 | 67404 | 90866
5 | 20:11.42 | 5:33.71 | 90867 | 115912
6 | 25:45.38 | 4:29.03 | 115913 | 136090
7 | 30:14.41 | 2:59.73 | 136091 | 149588
8 | 33:14.39 | 3:56.61 | 149589 | 167349
9 | 37:11.25 | 11:22.00 | 167350 | 218499
10 | 48:33.25 | 11:23.74 | 218500 | 269798
11 | 59:57.24 | 4:45.36 | 269799 | 291209
12 | 64:42.60 | 9:29.15 | 291210 | 333899
Range status and errors
Selected range
Filename C:\Documents and Settings\Admin\Рабочий стол\Lossless Galaxy Rip by ALLexxess\Naxos Records 25 Years\2012 Great Classical Symphonies (10CD Box Set Naxos Records)\CD05 Mozart - Symph. 25 & 35 & 41\Classical Symphonies CD5.wav
Peak level 99.9 %
Extraction speed 5.7 X
Range quality 100.0 %
Test CRC 143F09A3
Copy CRC 143F09A3
Copy OK
No errors occurred
AccurateRip summary
Track 1 not present in database
Track 2 not present in database
Track 3 not present in database
Track 4 not present in database
Track 5 not present in database
Track 6 not present in database
Track 7 not present in database
Track 8 not present in database
Track 9 not present in database
Track 10 not present in database
Track 11 not present in database
Track 12 not present in database
None of the tracks are present in the AccurateRip database
End of status report
==== Log checksum 962C94687624E3975186486D5E8EF26529A2526AA2A04D33AC4E414775203D3E ====


CD6
Exact Audio Copy V1.0 beta 3 from 29. August 2011
EAC extraction logfile from 27. June 2012, 20:21
Mozart: Symphony No. 38 / No. 39 / No. 40 / Great Classical Symphonies CD6
Used drive : HL-DT-STDVDRAM GSA-H60N Adapter: 2 ID: 0
Read mode : Secure
Utilize accurate stream : Yes
Defeat audio cache : Yes
Make use of C2 pointers : No
Read offset correction : 667
Overread into Lead-In and Lead-Out : No
Fill up missing offset samples with silence : Yes
Delete leading and trailing silent blocks : No
Null samples used in CRC calculations : Yes
Used interface : Native Win32 interface for Win NT & 2000
Used output format : Internal WAV Routines
Sample format : 44.100 Hz; 16 Bit; Stereo
TOC of the extracted CD
Track | Start | Length | Start sector | End sector
––––––––––––––––––––––––––––-
1 | 0:00.00 | 13:22.70 | 0 | 60219
2 | 13:22.70 | 8:39.40 | 60220 | 99184
3 | 22:02.35 | 6:18.31 | 99185 | 127565
4 | 28:20.66 | 10:55.70 | 127566 | 176760
5 | 39:16.61 | 7:12.02 | 176761 | 209162
6 | 46:28.63 | 3:58.37 | 209163 | 227049
7 | 50:27.25 | 4:14.00 | 227050 | 246099
8 | 54:41.25 | 7:30.74 | 246100 | 279923
9 | 62:12.24 | 7:45.36 | 279924 | 314834
10 | 69:57.60 | 4:38.01 | 314835 | 335685
11 | 74:35.61 | 5:06.14 | 335686 | 358649
Range status and errors
Selected range
Filename C:\Documents and Settings\Admin\Рабочий стол\Lossless Galaxy Rip by ALLexxess\Naxos Records 25 Years\2012 Great Classical Symphonies (10CD Box Set Naxos Records)\CD06 Mozart - Symph. 38 & 39 & 40\Classical Symphonies CD6.wav
Peak level 99.9 %
Extraction speed 4.9 X
Range quality 100.0 %
Test CRC 7E8C38C9
Copy CRC 7E8C38C9
Copy OK
No errors occurred
AccurateRip summary
Track 1 not present in database
Track 2 not present in database
Track 3 not present in database
Track 4 not present in database
Track 5 not present in database
Track 6 not present in database
Track 7 not present in database
Track 8 not present in database
Track 9 not present in database
Track 10 not present in database
Track 11 not present in database
None of the tracks are present in the AccurateRip database
End of status report
==== Log checksum 84CB71FB6F6E2380C9E42EFA8BA07EF97515FCB06AA75351E78376351CC68064 ====


CD7
Exact Audio Copy V1.0 beta 3 from 29. August 2011
EAC extraction logfile from 27. June 2012, 23:02
Mozart: Symphony No. 29 / No. 34 / No. 36 / Great Classical Symphonies CD7
Used drive : HL-DT-STDVDRAM GSA-H60N Adapter: 2 ID: 0
Read mode : Secure
Utilize accurate stream : Yes
Defeat audio cache : Yes
Make use of C2 pointers : No
Read offset correction : 667
Overread into Lead-In and Lead-Out : No
Fill up missing offset samples with silence : Yes
Delete leading and trailing silent blocks : No
Null samples used in CRC calculations : Yes
Used interface : Native Win32 interface for Win NT & 2000
Used output format : Internal WAV Routines
Sample format : 44.100 Hz; 16 Bit; Stereo
TOC of the extracted CD
Track | Start | Length | Start sector | End sector
––––––––––––––––––––––––––––-
1 | 0:00.00 | 7:30.46 | 0 | 33795
2 | 7:30.46 | 8:57.73 | 33796 | 74143
3 | 16:28.44 | 3:01.72 | 74144 | 87790
4 | 19:30.41 | 4:53.15 | 87791 | 109780
5 | 24:23.56 | 7:50.00 | 109781 | 145030
6 | 32:13.56 | 6:58.72 | 145031 | 176452
7 | 39:12.53 | 4:14.34 | 176453 | 195536
8 | 43:27.12 | 10:43.73 | 195537 | 243834
9 | 54:11.10 | 6:58.00 | 243835 | 275184
10 | 61:09.10 | 3:35.00 | 275185 | 291309
11 | 64:44.10 | 8:10.65 | 291310 | 328124
Range status and errors
Selected range
Filename C:\Documents and Settings\Admin\Рабочий стол\Lossless Galaxy Rip by ALLexxess\Naxos Records 25 Years\2012 Great Classical Symphonies (10CD Box Set Naxos Records)\CD07 Mozart - Symph. 29 & 34 & 36\Classical Symphonies CD7.wav
Peak level 95.6 %
Extraction speed 6.1 X
Range quality 99.9 %
Test CRC 8F2A44A2
Copy CRC 8F2A44A2
Copy OK
No errors occurred
AccurateRip summary
Track 1 not present in database
Track 2 not present in database
Track 3 not present in database
Track 4 not present in database
Track 5 not present in database
Track 6 not present in database
Track 7 not present in database
Track 8 not present in database
Track 9 not present in database
Track 10 not present in database
Track 11 not present in database
None of the tracks are present in the AccurateRip database
End of status report
==== Log checksum 03171A592B40DD8205AFE80668EFE491107C928C88C07A77790F4C8956CDB97F ====


CD8
Exact Audio Copy V1.0 beta 3 from 29. August 2011
EAC extraction logfile from 28. June 2012, 17:07
Beethoven: Symphony No. 3 / No. 8 / Great Classical Symphonies CD8
Used drive : HL-DT-STDVDRAM GSA-H60N Adapter: 2 ID: 0
Read mode : Secure
Utilize accurate stream : Yes
Defeat audio cache : Yes
Make use of C2 pointers : No
Read offset correction : 667
Overread into Lead-In and Lead-Out : No
Fill up missing offset samples with silence : Yes
Delete leading and trailing silent blocks : No
Null samples used in CRC calculations : Yes
Used interface : Native Win32 interface for Win NT & 2000
Used output format : Internal WAV Routines
Sample format : 44.100 Hz; 16 Bit; Stereo
TOC of the extracted CD
Track | Start | Length | Start sector | End sector
––––––––––––––––––––––––––––-
1 | 0:00.00 | 16:58.52 | 0 | 76401
2 | 16:58.52 | 12:51.43 | 76402 | 134269
3 | 29:50.20 | 5:53.10 | 134270 | 160754
4 | 35:43.30 | 11:34.55 | 160755 | 212859
5 | 47:18.10 | 9:17.24 | 212860 | 254658
6 | 56:35.34 | 3:49.51 | 254659 | 271884
7 | 60:25.10 | 5:51.07 | 271885 | 298216
8 | 66:16.17 | 7:44.33 | 298217 | 333049
Range status and errors
Selected range
Filename C:\Documents and Settings\Admin\Рабочий стол\Lossless Galaxy Rip by ALLexxess\Naxos Records 25 Years\2012 Great Classical Symphonies (10CD Box Set Naxos Records)\CD08 Beethoven - Symph. 3 & 8\Classical Symphonies CD8.wav
Peak level 100.0 %
Extraction speed 6.4 X
Range quality 100.0 %
Test CRC 1291AA3B
Copy CRC 1291AA3B
Copy OK
No errors occurred
AccurateRip summary
Track 1 cannot be verified as accurate (confidence 2) [31FAFE01], AccurateRip returned [87A4585A] (AR v2)
Track 2 cannot be verified as accurate (confidence 2) [4B352658], AccurateRip returned [8C3E94B8] (AR v2)
Track 3 cannot be verified as accurate (confidence 2) [571A6397], AccurateRip returned [7153F41E] (AR v2)
Track 4 cannot be verified as accurate (confidence 2) [B721C502], AccurateRip returned [BFE48A38] (AR v2)
Track 5 cannot be verified as accurate (confidence 2) [7A356487], AccurateRip returned [91654072] (AR v2)
Track 6 cannot be verified as accurate (confidence 2) [B873AFF8], AccurateRip returned [8DD71159] (AR v2)
Track 7 cannot be verified as accurate (confidence 2) [0D22C212], AccurateRip returned [CA840A33] (AR v2)
Track 8 cannot be verified as accurate (confidence 2) [ED8DB916], AccurateRip returned [1D559120] (AR v2)
No tracks could be verified as accurate
You may have a different pressing from the one(s) in the database
End of status report
==== Log checksum D2FF9AAAB66878B0D901C5D23ADF34590FCB0B18CBC4FAFB12B402EAE0156E72 ====


CD9
Exact Audio Copy V1.0 beta 3 from 29. August 2011
EAC extraction logfile from 28. June 2012, 18:13
Beethoven: Symphony No. 5 / No. 6 / Great Classical Symphonies CD9
Used drive : HL-DT-STDVDRAM GSA-H60N Adapter: 2 ID: 0
Read mode : Secure
Utilize accurate stream : Yes
Defeat audio cache : Yes
Make use of C2 pointers : No
Read offset correction : 667
Overread into Lead-In and Lead-Out : No
Fill up missing offset samples with silence : Yes
Delete leading and trailing silent blocks : No
Null samples used in CRC calculations : Yes
Used interface : Native Win32 interface for Win NT & 2000
Used output format : Internal WAV Routines
Sample format : 44.100 Hz; 16 Bit; Stereo
TOC of the extracted CD
Track | Start | Length | Start sector | End sector
––––––––––––––––––––––––––––-
1 | 0:00.00 | 7:15.50 | 0 | 32674
2 | 7:15.50 | 9:21.15 | 32675 | 74764
3 | 16:36.65 | 8:32.60 | 74765 | 113224
4 | 25:09.50 | 10:40.59 | 113225 | 161283
5 | 35:50.34 | 11:06.00 | 161284 | 211233
6 | 46:56.34 | 12:04.61 | 211234 | 265594
7 | 59:01.20 | 4:59.20 | 265595 | 288039
8 | 64:00.40 | 3:53.60 | 288040 | 305574
9 | 67:54.25 | 9:52.55 | 305575 | 350029
Range status and errors
Selected range
Filename C:\Documents and Settings\Admin\Рабочий стол\Lossless Galaxy Rip by ALLexxess\Naxos Records 25 Years\2012 Great Classical Symphonies (10CD Box Set Naxos Records)\CD09 Beethoven - Symph. 5 & 6\Classical Symphonies CD9.wav
Peak level 99.8 %
Extraction speed 6.4 X
Range quality 100.0 %
Test CRC E4CA72E4
Copy CRC E4CA72E4
Copy OK
No errors occurred
AccurateRip summary
Track 1 cannot be verified as accurate (confidence 4) [FA7DBCF8], AccurateRip returned [84A4EF7A] (AR v2)
Track 2 cannot be verified as accurate (confidence 3) [D978E903], AccurateRip returned [421F0F62] (AR v2)
Track 3 cannot be verified as accurate (confidence 3) [5B0D2850], AccurateRip returned [A1266C83] (AR v2)
Track 4 cannot be verified as accurate (confidence 3) [6905E1DC], AccurateRip returned [15C1AEB4] (AR v2)
Track 5 cannot be verified as accurate (confidence 3) [58BF36AB], AccurateRip returned [8FD06286] (AR v2)
Track 6 cannot be verified as accurate (confidence 3) [376A6E9B], AccurateRip returned [F3014171] (AR v2)
Track 7 cannot be verified as accurate (confidence 3) [2FA909D9], AccurateRip returned [C0DD9DE9] (AR v2)
Track 8 cannot be verified as accurate (confidence 3) [FB79975B], AccurateRip returned [E7FCD4FE] (AR v2)
Track 9 cannot be verified as accurate (confidence 3) [C02D7D1A], AccurateRip returned [E58ECE96] (AR v2)
No tracks could be verified as accurate
You may have a different pressing from the one(s) in the database
End of status report
==== Log checksum 712498990C1ED9653E0FC8BBBF50C9A7215A737C64472D22CC07AEDCFE9A615C ====


CD10
Exact Audio Copy V1.0 beta 3 from 29. August 2011
EAC extraction logfile from 28. June 2012, 20:07
Beethoven: Symphony No. 9 / Great Classical Symphonies CD10
Used drive : HL-DT-STDVDRAM GSA-H60N Adapter: 2 ID: 0
Read mode : Secure
Utilize accurate stream : Yes
Defeat audio cache : Yes
Make use of C2 pointers : No
Read offset correction : 667
Overread into Lead-In and Lead-Out : No
Fill up missing offset samples with silence : Yes
Delete leading and trailing silent blocks : No
Null samples used in CRC calculations : Yes
Used interface : Native Win32 interface for Win NT & 2000
Used output format : Internal WAV Routines
Sample format : 44.100 Hz; 16 Bit; Stereo
TOC of the extracted CD
Track | Start | Length | Start sector | End sector
––––––––––––––––––––––––––––-
1 | 0:00.00 | 14:45.72 | 0 | 66446
2 | 14:45.72 | 13:45.18 | 66447 | 128339
3 | 28:31.15 | 13:04.65 | 128340 | 187204
4 | 41:36.05 | 23:16.15 | 187205 | 291919
Range status and errors
Selected range
Filename C:\Documents and Settings\Admin\Рабочий стол\Lossless Galaxy Rip by ALLexxess\Naxos Records 25 Years\2012 Great Classical Symphonies (10CD Box Set Naxos Records)\CD10 Beethoven - Symphony 9\Classical Symphonies CD10.wav
Peak level 99.9 %
Extraction speed 6.2 X
Range quality 100.0 %
Test CRC 3C86ABA6
Copy CRC 3C86ABA6
Copy OK
No errors occurred
AccurateRip summary
Track 1 cannot be verified as accurate (confidence 8) [0897587E], AccurateRip returned [AC37E869] (AR v2)
Track 2 cannot be verified as accurate (confidence 8) [1B407551], AccurateRip returned [C262CDE5] (AR v2)
Track 3 cannot be verified as accurate (confidence 8) [C8DB280C], AccurateRip returned [2FCE7B47] (AR v2)
Track 4 cannot be verified as accurate (confidence 7) [51D93B79], AccurateRip returned [A04636BE] (AR v2)
No tracks could be verified as accurate
You may have a different pressing from the one(s) in the database
End of status report
==== Log checksum 790A89FBFDDB9A50BEB37F8BBA0186A756508C36CE434B32C2A312D957DE44BD ====


VA - Naxos 25th Anniversary: Great Classical Symphonies (2012) (10 CD Box Set)


Thanks to original ripper.