Subcategories
Tags
Language
Tags

VA - Naxos 25th Anniversary: Great Baroque Masterpieces (2012) (10 CD Box Set)

Posted By: murena
VA - Naxos 25th Anniversary: Great Baroque Masterpieces (2012) (10 CD Box Set)

VA - Naxos 25th Anniversary: Great Baroque Masterpieces (2012) (10 CD Box Set)
EAC Rip | FLAC (Image+.cue, log) | 3,43 Gb | Scans -> 147 mb
MP3 320 kbps | 10 CDs, 11:08:30 min | 1,83 Gb
Genre: Classical / Label: Naxos

The Great Classics series from Naxos is the perfect introduction to myriad genres of classical music. Comprising both complete and compiled selections from the greatest words in the repertoire, the boxes are bursting with wonderful pieces of music, both recognizable and unfamiliar. The boxes take the listener on a thrilling tour of some of the world's most dramatic musical media, encompassing music from six centuries and featuring sensational performers. All boxes come with a fascinating booklet with detailed information on the genre itself, chronological placement of each work, and a comprehensive study of the music. A fitting celebration of 25 years of superb music from Naxos, the world's favourite classical label.

Baroque music describes the period in Western classical music dating from approximately 1600 to 1750. The Baroque period saw the development of functional tonality, as well as new instrumental playing techniques and musical notation. It was during this time that opera was established as a musical genre, and the period also saw the expansion of the range and complexity of instrumental performance.

This collection concentrates on the instrumental music of the period. No survey of the Baroque would be complete without the music of JS Bach, whose Brandenburg concertos are commonly regarded as the apex of Baroque music. The radiant concertos of Vivaldi demonstrate the exhilarating range of instrumental colour that flourished at this time and contrast with the orchestral zest of Handel’s robust Water Music. From classical favourites such Pachelbel’s Canon and Albinoni’s Adagio, to Concerti Grossi from composers as diverse as Corelli, Handel, Locatelli and Geminiani, this set is the perfect compilation of works from this most fascinating of eras.

VA - Naxos 25th Anniversary: Great Baroque Masterpieces (2012) (10 CD Box Set)


GREAT BAROQUE MASTERPIECES includes the following masterpieces:
CD 1 Baroque Favourites (includes works by Handel, Marcello, J.S. Bach, Corelli, Pachelbel, Torelli, Albinoni, Sammartini, Locatelli, Geminiani, Albinoni)
CD 2 J.S. Bach Brandenburg Concertos Nos. 1, 2, 3 & 6
CD 3 J.S. Bach Brandenburg Concertos Nos. 4 & 5 / Concertos in A Minor and F Major
CD 4 J.S. Bach Orchestral Suites Nos. 1 - 4
CD 5 Handel Water Music / Fireworks Music
CD 6 Handel Concerti Grossi Op. 3 No. 2, Op. 6 Nos. 7 & 12 / Organ Concerto ‘The Cuckoo & The Nightingale’,
Organ Concerto Op. 4 No. 4
CD 7 Vivaldi The Four Seasons, Violin Concerti RV 253, RV 180, RV 362
CD 8 Vivaldi Violin Concerto RV 356 / Guitar Concerto in D Major / Flute Concerto RV 428 / Flautino Concerto in C Major / Oboe Concerto, RV 454 / Cello Concerto, RV 406 / Bassoon Concerto, RV 502
CD 9 Telemann Viola Concerto in G Major / Recorder Suite in A Minor/ Musique de table: Concerto in F Major for three violins / Concerto for two horns and strings
CD 10 Italian Concerti Grossi (includes works by Sammartini, Albinoni, Vivaldi, Locatelli, Manfredini, Corelli, Geminiani, A. Scarlatti)


Disc 1
1. Solomon, HWV 67, Act III: Sinfonia, "Arrival of the Queen of Sheba" 00:03:25
2. Oboe Concerto in D minor: II. Adagio 00:04:10
3. Concerto for Violin and Oboe in C minor, BWV 1060: I. Allegro 00:05:02
4. Concerto grosso in G minor, Op. 6, No. 8, "Christmas Concerto": II. Pastorale 00:03:53
5. Canon and Gigue in D major 00:04:24
6. Harpsichord Concerto in F minor, BWV 1056: II. Largo 00:02:52
7. Trumpet Concerto in D major, G. 28: I. Allegro 00:02:07
8. Oboe Concerto in D minor, Op. 9, No. 2: II. Adagio 00:04:24
9. Recorder Concerto in F major: II. Siciliano 00:04:29
10. Kommt, eilet und laufet, BWV 249, "Easter Oratorio": Adagio 00:05:12
11. Concerto grosso in F minor, Op. 1, No. 8: V. Pastorale 00:04:05
12. Serse (Xerxes), HWV 40, Act I: Ombra mai fu, "Largo" 00:02:36
13. Concerto for 2 Violins in D minor, BWV 1043: II. Largo ma non tanto 00:06:43
14. Concerto Grosso in E minor, Op. 3, No. 3: IV. Allegro 00:03:25
15. Adagio in G minor (attrib. to Albinoni) 00:08:22

Disc 2
1. I. Allegro 00:03:51
2. II. Adagio 00:03:32
3. III. Allegro 00:04:01
4. IV. Menuetto - Trio I - Polacca - Trio II 00:06:33
5. I. Allegro 00:04:30
6. II. Andante 00:03:13
7. III. Allegro assai 00:02:44
8. I. Allegro 00:05:01
9. II. Cadenza 00:00:56
10. III. Allegro 00:04:50
11. I. Allegro 00:05:59
12. II. Adagio ma non tanto 00:04:44
13. III. Allegro 00:05:21

Disc 3
1. I. Allegro 00:06:22
2. II. Andante 00:03:18
3. III. Presto 00:04:37
4. I. Allegro 00:09:04
5. II. Affettuoso 00:05:41
6. III. Allegro 00:05:04
7. I. Allegro 00:07:51
8. II. Adagio ma non tanto e dolce 00:05:15
9. III. Alla breve 00:06:17
10. I. Allegro 00:06:37
11. II. Andante 00:03:30
12. III. Allegro assai 00:04:56

Disc 4
1. I. Ouverture 00:05:51
2. II. Courante 00:02:33
3. III. Gavotte I and II 00:02:48
4. IV. Forlane 00:01:20
5. V. Menuet I and II 00:03:27
6. VI. Bourree I and II 00:02:11
7. VII. Passepied I and II 00:03:10
8. I. Ouverture 00:06:23
9. II. Rondeau 00:01:41
10. III. Sarabande 00:02:52
11. IV. Bourree I and II 00:01:48
12. V. Polonaise, Double 00:02:57
13. VI. Menuet 00:01:20
14. VII. Badinerie 00:01:31
15. I. Ouverture 00:06:18
16. II. Air 00:04:57
17. III. Gavotte I and II 00:04:10
18. IV. Bourree 00:01:15
19. V. Gigue 00:02:57
20. I. Ouverture 00:07:22
21. II. Bourree I and II 00:02:45
22. III. Gavotte 00:02:03
23. IV. Menuet I and II 00:03:57
24. V. Rejouissance 00:02:36


Disc 5
1. I. Overture: Largo - Allegro - II. Adagio e staccato 00:05:07
2. III. Allegro - IV. Andante - Allegro 00:06:53
3. V. Passepied 00:03:42
4. VI. Air 00:02:29
5. VII. Menuet 00:02:11
6. VIII. Bourree 00:02:11
7. IX. Hornpipe 00:02:41
8. X. Allegro 00:04:09
9. I. Overture 00:02:07
10. II. Alla Hornpipe 00:02:59
11. III. Sarabande 00:01:52
12. IV. Rigaudon 00:02:05
13. V. Lentement 00:01:25
14. I. Sarabande 00:02:59
15. II. Rigaudon I and II 00:02:38
16. III. Menuet I and II 00:03:34
17. IV. Gigue I and II 00:01:41
18. I. Overture 00:07:17
19. II. Bourree 00:03:05
20. III. La paix 00:03:23
21. IV. La rejouissance 00:03:05
22. V. Menuet I - Menuet II 00:03:17

Disc 6
1. I. Vivace 00:01:48
2. II. Largo 00:02:43
3. III. Allegro 00:01:55
4. IV. Moderato 00:01:57
5. V. Allegro 00:03:23
6. I. Largo 00:01:10
7. II. Allegro 00:02:42
8. III. Largo, e piano 00:03:11
9. IV. Andante 00:04:22
10. V. Hornpipe 00:03:29
11. I. Largo 00:02:22
12. II. Allegro 00:03:02
13. III. Larghetto, e piano - Variatio 00:03:42
14. IV. Largo 00:00:52
15. V. Allegro 00:02:17
16. I. Larghetto 00:2:10
17. II. Allegro 00:3:16
18. IV. Larghetto 00:02:52
19. V. Allegro 00:03:00
20. I. Allegro 00:03:47
21. II. Andante 00:05:43
22. III. Adagio 00:01:07
23. IV. Allegro 00:03:20


Disc 7
1. I. Allegro 00:03:29
2. II. Largo e pianissimo sempre 00:02:36
3. III. Danza Pastorale (Allegro) 00:04:15
4. I. Allegro non molto 00:05:20
5. II. Adagio - Presto 00:02:33
6. III. Presto 00:03:01
7. I. Allegro 00:04:44
8. II. Adagio molto 00:02:45
9. III. Allegro 00:03:13
10. I. Allegro non molto 00:03:25
11. II. Largo 00:02:20
12. III. Allegro 00:03:06
13. I. Allegro e presto 00:02:51
14. II. Largo 00:02:27
15. III. Presto 00:03:39
16. I. Allegro 00:03:00
17. II. Largo e cantabile 00:03:11
18. III. Allegro 00:02:57
19. I. Allegro 00:03:36
20. II. Adagio (Grave) 00:02:16
21. III. Allegro 00:02:31

Disc 8
1. I. Allegro 00:03:23
2. II. Largo 00:02:32
3. III. Presto 00:02:34
4. Chamber Concerto in D major, RV 93 (arr. for guitar and orchestra) 00:09:35
5. I. Allegro 00:03:46
6. II. Cantabile 00:03:04
7. III. Allegro 00:03:01
8. I. Allegro 00:03:33
9. II. Largo 00:04:05
10. III. Allegro molto 00:02:51
11. I. Allegro 00:02:52
12. II. Largo 00:02:10
13. III. Allegro 00:02:34
14. I. Allegro non molto 00:03:13
15. II. Andante 00:01:59
16. III. Minuetto 00:04:14
17. I. Allegro 00:03:22
18. II. Largo 00:04:09
19. III. Allegro 00:03:08

Disc 9
1. I. Largo 00:03:44
2. II. Allegro 00:02:53
3. III. Andante 00:04:36
4. IV. Presto 00:02:53
5. I. Ouverture 00:06:26
6. II. Les plaisirs 00:02:41
7. III. Air a l'Italienne 00:05:19
8. IV. Menuet I 00:02:41
9. IV. Menuet II 00:02:13
10. V. Rejouissance 00:01:35
11. VI. Passepied I & II 00:02:33
12. VII. Polonaise 00:01:09
13. I. Allegro 00:05:36
14. II. Largo 00:05:36
15. III. Vivace 00:03:13
16. I. Maestoso 00:03:47
17. II. Allegro 00:03:32
18. III. Grave 00:02:49
19. IV. Vivace 00:03:34

Disc 10
1. I. Presto 00:02:28
2. II. Andante 00:02:27
3. III. Presto assai 00:03:32
4. I. Adagio 00:01:15
5. II. Allegro 00:02:21
6. III. Grave 00:01:09
7. IV. Allegro 00:01:55
8. I. Allegro 00:03:18
9. II. Larghetto e spiritoso 00:03:53
10. III. Allegro 00:03:03
11. I. Largo 00:01:36
12. II. Allemanda: Allegro 00:01:44
13. III. Sarabanda: Vivace 00:01:50
14. IV. Presto 00:01:26
15. V. Gavotta: Allegro 00:02:29
16. I. Adagio e spicco 00:01:44
17. II. Andante 00:02:08
18. III. Non tanto largo 00:02:19
19. IV. Presto 00:01:40
20. I. Adagio - Allegro 00:03:03
21. II. Adagio 00:02:25
22. III. Vivace 00:00:45
23. IV. Allegro 00:03:01
24. I. Adagio 00:01:33
25. II. Allegro 00:01:47
26. III. Adagio 00:01:21
27. IV. Allegro 00:03:11
28. I. Allegro 00:00:41
29. II. Largo 00:00:56
30. III. Allegro 00:01:39
31. IV. Largo 00:01:21
32. V. Allegro 00:02:12



CD1
Exact Audio Copy V1.0 beta 3 from 29. August 2011
EAC extraction logfile from 13. June 2012, 17:11
Baroque Favourites / Great Baroque Masterpieces CD1
Used drive : HL-DT-STDVDRAM GSA-H60N Adapter: 2 ID: 0
Read mode : Secure
Utilize accurate stream : Yes
Defeat audio cache : Yes
Make use of C2 pointers : No
Read offset correction : 667
Overread into Lead-In and Lead-Out : No
Fill up missing offset samples with silence : Yes
Delete leading and trailing silent blocks : No
Null samples used in CRC calculations : Yes
Used interface : Native Win32 interface for Win NT & 2000
Used output format : Internal WAV Routines
Sample format : 44.100 Hz; 16 Bit; Stereo
TOC of the extracted CD
Track | Start | Length | Start sector | End sector
––––––––––––––––––––––––––––-
1 | 0:00.00 | 3:32.04 | 0 | 15903
2 | 3:32.04 | 4:14.19 | 15904 | 34972
3 | 7:46.23 | 5:04.27 | 34973 | 57799
4 | 12:50.50 | 3:54.26 | 57800 | 75375
5 | 16:45.01 | 4:23.44 | 75376 | 95144
6 | 21:08.45 | 2:56.13 | 95145 | 108357
7 | 24:04.58 | 2:11.29 | 108358 | 118211
8 | 26:16.12 | 4:31.22 | 118212 | 138558
9 | 30:47.34 | 4:31.45 | 138559 | 158928
10 | 35:19.04 | 5:11.15 | 158929 | 182268
11 | 40:30.19 | 4:06.36 | 182269 | 200754
12 | 44:36.55 | 2:39.42 | 200755 | 212721
13 | 47:16.22 | 6:50.50 | 212722 | 243521
14 | 54:06.72 | 3:25.33 | 243522 | 258929
15 | 57:32.30 | 8:21.73 | 258930 | 296577
Range status and errors
Selected range
Filename C:\Documents and Settings\Admin\Рабочий стол\Lossless Galaxy Rip by ALLexxess\Naxos Records 25 Years\2012 Great Baroque Masterpieces (10CD Box Set Naxos Records)\CD01 Baroque Favourites\Baroque Masterpieces CD1.wav
Peak level 98.8 %
Extraction speed 6.3 X
Range quality 100.0 %
Test CRC 2ED1CB03
Copy CRC 2ED1CB03
Copy OK
No errors occurred
AccurateRip summary
Track 1 not present in database
Track 2 not present in database
Track 3 not present in database
Track 4 not present in database
Track 5 not present in database
Track 6 not present in database
Track 7 not present in database
Track 8 not present in database
Track 9 not present in database
Track 10 not present in database
Track 11 not present in database
Track 12 not present in database
Track 13 not present in database
Track 14 not present in database
Track 15 not present in database
None of the tracks are present in the AccurateRip database
End of status report
==== Log checksum 07881F711CEBA256BE7A0EA21B943808587FB4FA0ED252430C5F6A803318DF7D ====


CD2
Exact Audio Copy V1.0 beta 3 from 29. August 2011
EAC extraction logfile from 13. June 2012, 20:11
Bach: Brandenburg Concertos 1, 2, 3 & 6 / Great Baroque Masterpieces CD2
Used drive : HL-DT-STDVDRAM GSA-H60N Adapter: 2 ID: 0
Read mode : Secure
Utilize accurate stream : Yes
Defeat audio cache : Yes
Make use of C2 pointers : No
Read offset correction : 667
Overread into Lead-In and Lead-Out : No
Fill up missing offset samples with silence : Yes
Delete leading and trailing silent blocks : No
Null samples used in CRC calculations : Yes
Used interface : Native Win32 interface for Win NT & 2000
Used output format : Internal WAV Routines
Sample format : 44.100 Hz; 16 Bit; Stereo
TOC of the extracted CD
Track | Start | Length | Start sector | End sector
––––––––––––––––––––––––––––-
1 | 0:00.00 | 3:51.07 | 0 | 17331
2 | 3:51.07 | 3:32.43 | 17332 | 33274
3 | 7:23.50 | 4:00.47 | 33275 | 51321
4 | 11:24.22 | 6:33.48 | 51322 | 80844
5 | 17:57.70 | 4:29.27 | 80845 | 101046
6 | 22:27.22 | 3:12.65 | 101047 | 115511
7 | 25:40.12 | 2:44.08 | 115512 | 127819
8 | 28:24.20 | 5:01.37 | 127820 | 150431
9 | 33:25.57 | 0:55.35 | 150432 | 154591
10 | 34:21.17 | 4:50.05 | 154592 | 176346
11 | 39:11.22 | 5:59.50 | 176347 | 203321
12 | 45:10.72 | 4:43.53 | 203322 | 224599
13 | 49:54.50 | 5:20.25 | 224600 | 248624
Range status and errors
Selected range
Filename C:\Documents and Settings\Admin\Рабочий стол\Lossless Galaxy Rip by ALLexxess\Naxos Records 25 Years\2012 Great Baroque Masterpieces (10CD Box Set Naxos Records)\CD02 Bach - Brandenburg Concertos 1, 2, 3 & 6\Baroque Masterpieces CD2.wav
Peak level 99.3 %
Extraction speed 6.0 X
Range quality 99.9 %
Test CRC 9991E2FB
Copy CRC 9991E2FB
Copy OK
No errors occurred
AccurateRip summary
Track 1 cannot be verified as accurate (confidence 13) [AD519FDD], AccurateRip returned [5185ADE2] (AR v2)
Track 2 cannot be verified as accurate (confidence 12) [7ADE1536], AccurateRip returned [39155AE7] (AR v2)
Track 3 cannot be verified as accurate (confidence 11) [B04EF0E1], AccurateRip returned [DD45B902] (AR v2)
Track 4 cannot be verified as accurate (confidence 13) [1F9304B1], AccurateRip returned [14B4B0E5] (AR v2)
Track 5 cannot be verified as accurate (confidence 13) [7CEEC200], AccurateRip returned [98FC3CF3] (AR v2)
Track 6 cannot be verified as accurate (confidence 13) [FC1FBE2F], AccurateRip returned [3371B9F7] (AR v2)
Track 7 cannot be verified as accurate (confidence 13) [28E6721E], AccurateRip returned [B571AA63] (AR v2)
Track 8 cannot be verified as accurate (confidence 13) [4DE6FE8E], AccurateRip returned [8BDB5356] (AR v2)
Track 9 cannot be verified as accurate (confidence 13) [65357CB7], AccurateRip returned [7CF16E12] (AR v2)
Track 10 cannot be verified as accurate (confidence 13) [67266748], AccurateRip returned [CAD9323D] (AR v2)
Track 11 cannot be verified as accurate (confidence 12) [C1335122], AccurateRip returned [510EDD2C] (AR v2)
Track 12 cannot be verified as accurate (confidence 13) [90508924], AccurateRip returned [5B63EE7C] (AR v2)
Track 13 cannot be verified as accurate (confidence 13) [CCFDBCCB], AccurateRip returned [FCD1459B] (AR v2)
No tracks could be verified as accurate
You may have a different pressing from the one(s) in the database
End of status report
==== Log checksum 279AC66E116977B70544108827C73395B765BDEEFF42C5BC026E4CA252F0FA1D ====


CD3
Exact Audio Copy V1.0 beta 3 from 29. August 2011
EAC extraction logfile from 13. June 2012, 21:25
Bach: Brandenburg Concertos 4, 5 & etc / Great Baroque Masterpieces CD3
Used drive : HL-DT-STDVDRAM GSA-H60N Adapter: 2 ID: 0
Read mode : Secure
Utilize accurate stream : Yes
Defeat audio cache : Yes
Make use of C2 pointers : No
Read offset correction : 667
Overread into Lead-In and Lead-Out : No
Fill up missing offset samples with silence : Yes
Delete leading and trailing silent blocks : No
Null samples used in CRC calculations : Yes
Used interface : Native Win32 interface for Win NT & 2000
Used output format : Internal WAV Routines
Sample format : 44.100 Hz; 16 Bit; Stereo
TOC of the extracted CD
Track | Start | Length | Start sector | End sector
––––––––––––––––––––––––––––-
1 | 0:00.00 | 6:22.67 | 0 | 28716
2 | 6:22.67 | 3:18.03 | 28717 | 43569
3 | 9:40.70 | 4:37.02 | 43570 | 64346
4 | 14:17.72 | 9:03.23 | 64347 | 105094
5 | 23:21.20 | 5:41.25 | 105095 | 130694
6 | 29:02.45 | 5:04.07 | 130695 | 153501
7 | 34:06.52 | 7:50.53 | 153502 | 188804
8 | 41:57.30 | 5:15.25 | 188805 | 212454
9 | 47:12.55 | 6:17.17 | 212455 | 240746
10 | 53:29.72 | 6:36.38 | 240747 | 270484
11 | 60:06.35 | 3:29.55 | 270485 | 286214
12 | 63:36.15 | 4:55.60 | 286215 | 308399
Range status and errors
Selected range
Filename C:\Documents and Settings\Admin\Рабочий стол\Lossless Galaxy Rip by ALLexxess\Naxos Records 25 Years\2012 Great Baroque Masterpieces (10CD Box Set Naxos Records)\CD03 Bach - Brandenburg Concertos 4, 5 & etc\Baroque Masterpieces CD3.wav
Peak level 96.0 %
Extraction speed 5.8 X
Range quality 99.9 %
Test CRC E53EC1ED
Copy CRC E53EC1ED
Copy OK
No errors occurred
AccurateRip summary
Track 1 cannot be verified as accurate (confidence 9) [EB50080F], AccurateRip returned [7CDD93C6] (AR v2)
Track 2 cannot be verified as accurate (confidence 9) [92063B40], AccurateRip returned [CFAA8EE6] (AR v2)
Track 3 cannot be verified as accurate (confidence 9) [C5E512F6], AccurateRip returned [5D7D5892] (AR v2)
Track 4 cannot be verified as accurate (confidence 9) [057579AA], AccurateRip returned [F2B20DE0] (AR v2)
Track 5 cannot be verified as accurate (confidence 9) [1B45E7A1], AccurateRip returned [6DC2DA5C] (AR v2)
Track 6 cannot be verified as accurate (confidence 9) [DB1AE0C0], AccurateRip returned [82F811E0] (AR v2)
Track 7 cannot be verified as accurate (confidence 9) [EF5AAF92], AccurateRip returned [19D1A174] (AR v2)
Track 8 cannot be verified as accurate (confidence 9) [D6AB08D1], AccurateRip returned [F7B8D6E4] (AR v2)
Track 9 cannot be verified as accurate (confidence 9) [3EB5B31D], AccurateRip returned [4F01717D] (AR v2)
Track 10 cannot be verified as accurate (confidence 9) [7FBE827A], AccurateRip returned [EA292FAE] (AR v2)
Track 11 cannot be verified as accurate (confidence 9) [240F034F], AccurateRip returned [81260C9D] (AR v2)
Track 12 cannot be verified as accurate (confidence 9) [5FFE5030], AccurateRip returned [384DA818] (AR v2)
No tracks could be verified as accurate
You may have a different pressing from the one(s) in the database
End of status report
==== Log checksum DDA2FD2F537021AE37329F9967CBE5357CF643F42376404B334CD208CE7A7418 ====


CD4
Exact Audio Copy V1.0 beta 3 from 29. August 2011
EAC extraction logfile from 13. June 2012, 23:52
Bach: Orchestral Suites No.1-No.4 / Great Baroque Masterpieces CD4
Used drive : HL-DT-STDVDRAM GSA-H60N Adapter: 2 ID: 0
Read mode : Secure
Utilize accurate stream : Yes
Defeat audio cache : Yes
Make use of C2 pointers : No
Read offset correction : 667
Overread into Lead-In and Lead-Out : No
Fill up missing offset samples with silence : Yes
Delete leading and trailing silent blocks : No
Null samples used in CRC calculations : Yes
Used interface : Native Win32 interface for Win NT & 2000
Used output format : Internal WAV Routines
Sample format : 44.100 Hz; 16 Bit; Stereo
TOC of the extracted CD
Track | Start | Length | Start sector | End sector
––––––––––––––––––––––––––––-
1 | 0:00.00 | 5:51.40 | 0 | 26364
2 | 5:51.40 | 2:33.32 | 26365 | 37871
3 | 8:24.72 | 2:47.55 | 37872 | 50451
4 | 11:12.52 | 1:20.10 | 50452 | 56461
5 | 12:32.62 | 3:26.70 | 56462 | 71981
6 | 15:59.57 | 2:10.65 | 71982 | 81796
7 | 18:10.47 | 3:10.15 | 81797 | 96061
8 | 21:20.62 | 6:23.00 | 96062 | 124786
9 | 27:43.62 | 1:40.65 | 124787 | 132351
10 | 29:24.52 | 2:51.60 | 132352 | 145236
11 | 32:16.37 | 1:47.63 | 145237 | 153324
12 | 34:04.25 | 2:57.42 | 153325 | 166641
13 | 37:01.67 | 1:20.00 | 166642 | 172641
14 | 38:21.67 | 1:30.08 | 172642 | 179399
15 | 39:52.00 | 6:18.47 | 179400 | 207796
16 | 46:10.47 | 4:57.18 | 207797 | 230089
17 | 51:07.65 | 4:09.15 | 230090 | 248779
18 | 55:17.05 | 1:15.55 | 248780 | 254459
19 | 56:32.60 | 2:57.02 | 254460 | 267736
20 | 59:29.62 | 7:21.25 | 267737 | 300836
21 | 66:51.12 | 2:45.08 | 300837 | 313219
22 | 69:36.20 | 2:02.57 | 313220 | 322426
23 | 71:39.02 | 3:57.00 | 322427 | 340201
24 | 75:36.02 | 2:35.73 | 340202 | 351899
Range status and errors
Selected range
Filename C:\Documents and Settings\Admin\Рабочий стол\Lossless Galaxy Rip by ALLexxess\Naxos Records 25 Years\2012 Great Baroque Masterpieces (10CD Box Set Naxos Records)\CD04 Bach - Orchestral Suites 1-4\Baroque Masterpieces CD4.wav
Peak level 100.0 %
Extraction speed 3.7 X
Range quality 100.0 %
Test CRC 1D88CD56
Copy CRC 1D88CD56
Copy OK
No errors occurred
AccurateRip summary
Track 1 cannot be verified as accurate (confidence 15) [7FDF168A], AccurateRip returned [9C591F1D] (AR v2)
Track 2 cannot be verified as accurate (confidence 16) [9008E193], AccurateRip returned [72C3EBF3] (AR v2)
Track 3 cannot be verified as accurate (confidence 15) [01297012], AccurateRip returned [84D65DE2] (AR v2)
Track 4 cannot be verified as accurate (confidence 16) [18266794], AccurateRip returned [5D532E63] (AR v2)
Track 5 cannot be verified as accurate (confidence 15) [A12C824D], AccurateRip returned [CF3F7DAB] (AR v2)
Track 6 cannot be verified as accurate (confidence 16) [EC74AC53], AccurateRip returned [FE62C4CC] (AR v2)
Track 7 cannot be verified as accurate (confidence 16) [2B297650], AccurateRip returned [3B87B914] (AR v2)
Track 8 cannot be verified as accurate (confidence 16) [8C51AB3E], AccurateRip returned [43F2EB8D] (AR v2)
Track 9 cannot be verified as accurate (confidence 17) [C4D4272A], AccurateRip returned [BE358CFB] (AR v2)
Track 10 cannot be verified as accurate (confidence 17) [22014B98], AccurateRip returned [80E3BD41] (AR v2)
Track 11 cannot be verified as accurate (confidence 17) [09195C0D], AccurateRip returned [229FA35B] (AR v2)
Track 12 cannot be verified as accurate (confidence 17) [78867103], AccurateRip returned [BF7AA1BF] (AR v2)
Track 13 cannot be verified as accurate (confidence 17) [5E020157], AccurateRip returned [F36FF268] (AR v2)
Track 14 cannot be verified as accurate (confidence 17) [79B5B734], AccurateRip returned [7337AA15] (AR v2)
Track 15 cannot be verified as accurate (confidence 16) [8F86ED33], AccurateRip returned [1C9A785F] (AR v2)
Track 16 cannot be verified as accurate (confidence 16) [C7D3E396], AccurateRip returned [152B09F8] (AR v2)
Track 17 cannot be verified as accurate (confidence 16) [2AD18589], AccurateRip returned [37E0E874] (AR v2)
Track 18 cannot be verified as accurate (confidence 17) [2CB86978], AccurateRip returned [C44FD1C7] (AR v2)
Track 19 cannot be verified as accurate (confidence 16) [476E5142], AccurateRip returned [3828AD97] (AR v2)
Track 20 cannot be verified as accurate (confidence 15) [3BE35624], AccurateRip returned [2318EF48] (AR v2)
Track 21 cannot be verified as accurate (confidence 16) [DB7F7753], AccurateRip returned [ED42A8F8] (AR v2)
Track 22 cannot be verified as accurate (confidence 16) [A3A760F8], AccurateRip returned [E4CA9222] (AR v2)
Track 23 cannot be verified as accurate (confidence 16) [C02C17E2], AccurateRip returned [B875E84F] (AR v2)
Track 24 cannot be verified as accurate (confidence 15) [845A37B2], AccurateRip returned [3AB0FF38] (AR v2)
No tracks could be verified as accurate
You may have a different pressing from the one(s) in the database
End of status report
==== Log checksum 0387C3502E5CF9B7A511B88CDEB5BDCF25284775BDC5C8D8B311B465385F8A28 ====


CD5
Exact Audio Copy V1.0 beta 3 from 29. August 2011
EAC extraction logfile from 14. June 2012, 16:55
Handel: Water Music: Suite No. 1 - No. 3 / Music for the Royal Fireworks / Great Baroque Masterpieces CD5
Used drive : HL-DT-STDVDRAM GSA-H60N Adapter: 2 ID: 0
Read mode : Secure
Utilize accurate stream : Yes
Defeat audio cache : Yes
Make use of C2 pointers : No
Read offset correction : 667
Overread into Lead-In and Lead-Out : No
Fill up missing offset samples with silence : Yes
Delete leading and trailing silent blocks : No
Null samples used in CRC calculations : Yes
Used interface : Native Win32 interface for Win NT & 2000
Used output format : Internal WAV Routines
Sample format : 44.100 Hz; 16 Bit; Stereo
TOC of the extracted CD
Track | Start | Length | Start sector | End sector
––––––––––––––––––––––––––––-
1 | 0:00.00 | 5:04.74 | 0 | 22873
2 | 5:04.74 | 6:54.48 | 22874 | 53971
3 | 11:59.47 | 3:40.59 | 53972 | 70530
4 | 15:40.31 | 2:29.65 | 70531 | 81770
5 | 18:10.21 | 2:10.14 | 81771 | 91534
6 | 20:20.35 | 2:11.62 | 91535 | 101421
7 | 22:32.22 | 2:42.40 | 101422 | 113611
8 | 25:14.62 | 4:06.67 | 113612 | 132128
9 | 29:21.54 | 2:07.17 | 132129 | 141670
10 | 31:28.71 | 3:00.41 | 141671 | 155211
11 | 34:29.37 | 1:51.49 | 155212 | 163585
12 | 36:21.11 | 2:05.00 | 163586 | 172960
13 | 38:26.11 | 1:27.06 | 172961 | 179491
14 | 39:53.17 | 2:58.13 | 179492 | 192854
15 | 42:51.30 | 2:37.09 | 192855 | 204638
16 | 45:28.39 | 3:33.71 | 204639 | 220684
17 | 49:02.35 | 1:48.50 | 220685 | 228834
18 | 50:51.10 | 7:10.38 | 228835 | 261122
19 | 58:01.48 | 3:04.69 | 261123 | 274991
20 | 61:06.42 | 3:22.57 | 274992 | 290198
21 | 64:29.24 | 3:05.01 | 290199 | 304074
22 | 67:34.25 | 3:15.50 | 304075 | 318749
Range status and errors
Selected range
Filename C:\Documents and Settings\Admin\Рабочий стол\Lossless Galaxy Rip by ALLexxess\Naxos Records 25 Years\2012 Great Baroque Masterpieces (10CD Box Set Naxos Records)\CD05 Handel - Water & Fireworks Music\Baroque Masterpieces CD5.wav
Peak level 95.4 %
Extraction speed 5.9 X
Range quality 100.0 %
Test CRC 53F104FE
Copy CRC 53F104FE
Copy OK
No errors occurred
AccurateRip summary
Track 1 cannot be verified as accurate (confidence 15) [30EB82B7], AccurateRip returned [D062D444] (AR v2)
Track 2 cannot be verified as accurate (confidence 15) [50A44150], AccurateRip returned [30BA78F3] (AR v2)
Track 3 cannot be verified as accurate (confidence 15) [38F059E6], AccurateRip returned [32B1D6ED] (AR v2)
Track 4 cannot be verified as accurate (confidence 15) [E783548A], AccurateRip returned [8B4C655D] (AR v2)
Track 5 cannot be verified as accurate (confidence 15) [83CE766C], AccurateRip returned [69B4BD50] (AR v2)
Track 6 cannot be verified as accurate (confidence 15) [3A13FB12], AccurateRip returned [168FDCC6] (AR v2)
Track 7 cannot be verified as accurate (confidence 15) [32DCDE2B], AccurateRip returned [DB04EE9F] (AR v2)
Track 8 cannot be verified as accurate (confidence 15) [E53BC6E3], AccurateRip returned [C07323BB] (AR v2)
Track 9 cannot be verified as accurate (confidence 15) [CEC9A241], AccurateRip returned [FCD1E561] (AR v2)
Track 10 cannot be verified as accurate (confidence 15) [96716986], AccurateRip returned [4815366E] (AR v2)
Track 11 cannot be verified as accurate (confidence 15) [EB6D3C1A], AccurateRip returned [21314FB8] (AR v2)
Track 12 cannot be verified as accurate (confidence 15) [1E1C2FD6], AccurateRip returned [3A71B979] (AR v2)
Track 13 cannot be verified as accurate (confidence 15) [B3F4FCC0], AccurateRip returned [100F2003] (AR v2)
Track 14 cannot be verified as accurate (confidence 15) [757FE687], AccurateRip returned [1381D995] (AR v2)
Track 15 cannot be verified as accurate (confidence 15) [00F2E181], AccurateRip returned [A5D6F2AE] (AR v2)
Track 16 cannot be verified as accurate (confidence 14) [2E2E106C], AccurateRip returned [590E8558] (AR v2)
Track 17 cannot be verified as accurate (confidence 15) [9C762FC5], AccurateRip returned [F6A55620] (AR v2)
Track 18 cannot be verified as accurate (confidence 15) [7DDE8718], AccurateRip returned [1B17E26A] (AR v2)
Track 19 cannot be verified as accurate (confidence 15) [6760B896], AccurateRip returned [61BF8662] (AR v2)
Track 20 cannot be verified as accurate (confidence 15) [CCEB5EC3], AccurateRip returned [ADB3876E] (AR v2)
Track 21 cannot be verified as accurate (confidence 15) [29650FC7], AccurateRip returned [57A9FFBC] (AR v2)
Track 22 cannot be verified as accurate (confidence 15) [30B0B3B0], AccurateRip returned [0BAF89E6] (AR v2)
No tracks could be verified as accurate
You may have a different pressing from the one(s) in the database
End of status report
==== Log checksum 9339367F362894362902D9C233A03622EC44C0FCDE99FC0E75789D1D627410DE ====


CD6
Exact Audio Copy V1.0 beta 3 from 29. August 2011
EAC extraction logfile from 14. June 2012, 20:13
Handel: Concerto Grosso No. 2, No. 7, No. 12 / Organ Concerto No. 13, No. 4 / Great Baroque Masterpieces CD6
Used drive : HL-DT-STDVDRAM GSA-H60N Adapter: 2 ID: 0
Read mode : Secure
Utilize accurate stream : Yes
Defeat audio cache : Yes
Make use of C2 pointers : No
Read offset correction : 667
Overread into Lead-In and Lead-Out : No
Fill up missing offset samples with silence : Yes
Delete leading and trailing silent blocks : No
Null samples used in CRC calculations : Yes
Used interface : Native Win32 interface for Win NT & 2000
Used output format : Internal WAV Routines
Sample format : 44.100 Hz; 16 Bit; Stereo
TOC of the extracted CD
Track | Start | Length | Start sector | End sector
––––––––––––––––––––––––––––-
1 | 0:00.00 | 1:47.63 | 0 | 8087
2 | 1:47.63 | 2:42.46 | 8088 | 20283
3 | 4:30.34 | 1:55.32 | 20284 | 28940
4 | 6:25.66 | 2:00.43 | 28941 | 37983
5 | 8:26.34 | 3:26.48 | 37984 | 53481
6 | 11:53.07 | 1:12.08 | 53482 | 58889
7 | 13:05.15 | 2:43.05 | 58890 | 71119
8 | 15:48.20 | 3:10.71 | 71120 | 85440
9 | 18:59.16 | 4:22.10 | 85441 | 105100
10 | 23:21.26 | 3:30.74 | 105101 | 120924
11 | 26:52.25 | 2:21.71 | 120925 | 131570
12 | 29:14.21 | 3:02.28 | 131571 | 145248
13 | 32:16.49 | 3:41.71 | 145249 | 161894
14 | 35:58.45 | 0:51.36 | 161895 | 165755
15 | 36:50.06 | 2:16.72 | 165756 | 176027
16 | 39:07.03 | 2:10.33 | 176028 | 185810
17 | 41:17.36 | 3:18.42 | 185811 | 200702
18 | 44:36.03 | 2:51.65 | 200703 | 213592
19 | 47:27.68 | 3:08.66 | 213593 | 227758
20 | 50:36.59 | 3:47.54 | 227759 | 244837
21 | 54:24.38 | 5:42.58 | 244838 | 270545
22 | 60:07.21 | 1:07.17 | 270546 | 275587
23 | 61:14.38 | 3:22.37 | 275588 | 290774
Range status and errors
Selected range
Filename C:\Documents and Settings\Admin\Рабочий стол\Lossless Galaxy Rip by ALLexxess\Naxos Records 25 Years\2012 Great Baroque Masterpieces (10CD Box Set Naxos Records)\CD06 Handel - Concerti Grossi & Organ Concertos\Baroque Masterpieces CD6.wav
Peak level 87.5 %
Extraction speed 6.2 X
Range quality 100.0 %
Test CRC C182F7AC
Copy CRC C182F7AC
Copy OK
No errors occurred
AccurateRip summary
Track 1 not present in database
Track 2 not present in database
Track 3 not present in database
Track 4 not present in database
Track 5 not present in database
Track 6 not present in database
Track 7 not present in database
Track 8 not present in database
Track 9 not present in database
Track 10 not present in database
Track 11 not present in database
Track 12 not present in database
Track 13 not present in database
Track 14 not present in database
Track 15 not present in database
Track 16 not present in database
Track 17 not present in database
Track 18 not present in database
Track 19 not present in database
Track 20 not present in database
Track 21 not present in database
Track 22 not present in database
Track 23 not present in database
None of the tracks are present in the AccurateRip database
End of status report
==== Log checksum C6750D6150BA247E8209D40B35180FBEBF16FE550B228E02F1BFC99ED4E43501 ====


CD7
Exact Audio Copy V1.0 beta 3 from 29. August 2011
EAC extraction logfile from 15. June 2012, 13:58
Vivaldi: The Four Seasons / 3 Violin Concertos / Great Baroque Masterpieces CD7
Used drive : HL-DT-STDVDRAM GSA-H60N Adapter: 2 ID: 0
Read mode : Secure
Utilize accurate stream : Yes
Defeat audio cache : Yes
Make use of C2 pointers : No
Read offset correction : 667
Overread into Lead-In and Lead-Out : No
Fill up missing offset samples with silence : Yes
Delete leading and trailing silent blocks : No
Null samples used in CRC calculations : Yes
Used interface : Native Win32 interface for Win NT & 2000
Used output format : Internal WAV Routines
Sample format : 44.100 Hz; 16 Bit; Stereo
TOC of the extracted CD
Track | Start | Length | Start sector | End sector
––––––––––––––––––––––––––––-
1 | 0:00.00 | 3:33.27 | 0 | 16001
2 | 3:33.27 | 2:39.00 | 16002 | 27926
3 | 6:12.27 | 4:21.71 | 27927 | 47572
4 | 10:34.23 | 5:24.00 | 47573 | 71872
5 | 15:58.23 | 2:33.04 | 71873 | 83351
6 | 18:31.27 | 3:07.74 | 83352 | 97450
7 | 21:39.26 | 4:48.01 | 97451 | 119051
8 | 26:27.27 | 2:45.00 | 119052 | 131426
9 | 29:12.27 | 3:20.54 | 131427 | 146480
10 | 32:33.06 | 3:30.17 | 146481 | 162247
11 | 36:03.23 | 2:20.01 | 162248 | 172748
12 | 38:23.24 | 3:16.51 | 172749 | 187499
13 | 41:40.00 | 2:50.62 | 187500 | 200311
14 | 44:30.62 | 2:27.37 | 200312 | 211373
15 | 46:58.24 | 3:38.48 | 211374 | 227771
16 | 50:36.72 | 3:00.41 | 227772 | 241312
17 | 53:37.38 | 3:10.31 | 241313 | 255593
18 | 56:47.69 | 2:53.54 | 255594 | 268622
19 | 59:41.48 | 3:36.25 | 268623 | 284847
20 | 63:17.73 | 2:15.54 | 284848 | 295026
21 | 65:33.52 | 2:34.23 | 295027 | 306599
Range status and errors
Selected range
Filename C:\Documents and Settings\Admin\Рабочий стол\Lossless Galaxy Rip by ALLexxess\Naxos Records 25 Years\2012 Great Baroque Masterpieces (10CD Box Set Naxos Records)\CD07 Vivaldi - 4 Seasons & 3 Violin Concertos\Baroque Masterpieces CD7.wav
Peak level 85.2 %
Extraction speed 6.2 X
Range quality 100.0 %
Test CRC C33A6885
Copy CRC C33A6885
Copy OK
No errors occurred
AccurateRip summary
Track 1 not present in database
Track 2 not present in database
Track 3 not present in database
Track 4 not present in database
Track 5 not present in database
Track 6 not present in database
Track 7 not present in database
Track 8 not present in database
Track 9 not present in database
Track 10 not present in database
Track 11 not present in database
Track 12 not present in database
Track 13 not present in database
Track 14 not present in database
Track 15 not present in database
Track 16 not present in database
Track 17 not present in database
Track 18 not present in database
Track 19 not present in database
Track 20 not present in database
Track 21 not present in database
None of the tracks are present in the AccurateRip database
End of status report
==== Log checksum AA795F79522E4C4CD1EA8C4F4B090EB8FBA5B9B100EF4DE6485843710EBFA392 ====


CD8
Exact Audio Copy V1.0 beta 3 from 29. August 2011
EAC extraction logfile from 15. June 2012, 14:54
Vivaldi: Favourite Concerti / Great Baroque Masterpieces CD8
Used drive : HL-DT-STDVDRAM GSA-H60N Adapter: 2 ID: 0
Read mode : Secure
Utilize accurate stream : Yes
Defeat audio cache : Yes
Make use of C2 pointers : No
Read offset correction : 667
Overread into Lead-In and Lead-Out : No
Fill up missing offset samples with silence : Yes
Delete leading and trailing silent blocks : No
Null samples used in CRC calculations : Yes
Used interface : Native Win32 interface for Win NT & 2000
Used output format : Internal WAV Routines
Sample format : 44.100 Hz; 16 Bit; Stereo
TOC of the extracted CD
Track | Start | Length | Start sector | End sector
––––––––––––––––––––––––––––-
1 | 0:00.00 | 3:24.73 | 0 | 15372
2 | 3:24.73 | 2:31.46 | 15373 | 26743
3 | 5:56.44 | 2:32.56 | 26744 | 38199
4 | 8:29.25 | 9:34.56 | 38200 | 81305
5 | 18:04.06 | 3:46.39 | 81306 | 98294
6 | 21:50.45 | 3:04.00 | 98295 | 112094
7 | 24:54.45 | 2:55.45 | 112095 | 125264
8 | 27:50.15 | 3:33.42 | 125265 | 141281
9 | 31:23.57 | 4:05.00 | 141282 | 159656
10 | 35:28.57 | 2:46.42 | 159657 | 172148
11 | 38:15.24 | 2:53.67 | 172149 | 185190
12 | 41:09.16 | 2:09.23 | 185191 | 194888
13 | 43:18.39 | 2:30.48 | 194889 | 206186
14 | 45:49.12 | 3:13.73 | 206187 | 220734
15 | 49:03.10 | 1:57.55 | 220735 | 229564
16 | 51:00.65 | 4:09.68 | 229565 | 248307
17 | 55:10.58 | 3:18.05 | 248308 | 263162
18 | 58:28.63 | 4:09.28 | 263163 | 281865
19 | 62:38.16 | 3:09.59 | 281866 | 296099
Range status and errors
Selected range
Filename C:\Documents and Settings\Admin\Рабочий стол\Lossless Galaxy Rip by ALLexxess\Naxos Records 25 Years\2012 Great Baroque Masterpieces (10CD Box Set Naxos Records)\CD08 Vivaldi - Favourite Concerti\Baroque Masterpieces CD8.wav
Peak level 95.7 %
Extraction speed 6.3 X
Range quality 100.0 %
Test CRC 935D86BF
Copy CRC 935D86BF
Copy OK
No errors occurred
AccurateRip summary
Track 1 not present in database
Track 2 not present in database
Track 3 not present in database
Track 4 not present in database
Track 5 not present in database
Track 6 not present in database
Track 7 not present in database
Track 8 not present in database
Track 9 not present in database
Track 10 not present in database
Track 11 not present in database
Track 12 not present in database
Track 13 not present in database
Track 14 not present in database
Track 15 not present in database
Track 16 not present in database
Track 17 not present in database
Track 18 not present in database
Track 19 not present in database
None of the tracks are present in the AccurateRip database
End of status report
==== Log checksum A0AAFB8E794AB9E557102B2025EE061B39EF2F2A78321F8C05FDF4630F4645B4 ====


CD9
Exact Audio Copy V1.0 beta 3 from 29. August 2011
EAC extraction logfile from 15. June 2012, 20:22
Telemann: Concertos / Great Baroque Masterpieces CD9
Used drive : HL-DT-STDVDRAM GSA-H60N Adapter: 2 ID: 0
Read mode : Secure
Utilize accurate stream : Yes
Defeat audio cache : Yes
Make use of C2 pointers : No
Read offset correction : 667
Overread into Lead-In and Lead-Out : No
Fill up missing offset samples with silence : Yes
Delete leading and trailing silent blocks : No
Null samples used in CRC calculations : Yes
Used interface : Native Win32 interface for Win NT & 2000
Used output format : Internal WAV Routines
Sample format : 44.100 Hz; 16 Bit; Stereo
TOC of the extracted CD
Track | Start | Length | Start sector | End sector
––––––––––––––––––––––––––––-
1 | 0:00.00 | 3:44.00 | 0 | 16799
2 | 3:44.00 | 2:53.00 | 16800 | 29774
3 | 6:37.00 | 4:36.00 | 29775 | 50474
4 | 11:13.00 | 2:53.00 | 50475 | 63449
5 | 14:06.00 | 6:26.28 | 63450 | 92427
6 | 20:32.28 | 2:40.67 | 92428 | 104494
7 | 23:13.20 | 5:19.05 | 104495 | 128424
8 | 28:32.25 | 2:40.73 | 128425 | 140497
9 | 31:13.23 | 2:13.25 | 140498 | 150497
10 | 33:26.48 | 1:35.05 | 150498 | 157627
11 | 35:01.53 | 2:32.67 | 157628 | 169094
12 | 37:34.45 | 1:08.30 | 169095 | 174224
13 | 38:43.00 | 5:36.00 | 174225 | 199424
14 | 44:19.00 | 5:35.65 | 199425 | 224614
15 | 49:54.65 | 3:13.10 | 224615 | 239099
16 | 53:08.00 | 3:47.00 | 239100 | 256124
17 | 56:55.00 | 3:32.00 | 256125 | 272024
18 | 60:27.00 | 2:49.50 | 272025 | 284749
19 | 63:16.50 | 3:33.63 | 284750 | 300787
Range status and errors
Selected range
Filename C:\Documents and Settings\Admin\Рабочий стол\Lossless Galaxy Rip by ALLexxess\Naxos Records 25 Years\2012 Great Baroque Masterpieces (10CD Box Set Naxos Records)\CD09 Telemann - Concertos\Baroque Masterpieces CD9.wav
Peak level 100.0 %
Extraction speed 6.3 X
Range quality 100.0 %
Test CRC 8CDF2612
Copy CRC 8CDF2612
Copy OK
No errors occurred
AccurateRip summary
Track 1 cannot be verified as accurate (confidence 6) [41690B74], AccurateRip returned [218B555F] (AR v2)
Track 2 cannot be verified as accurate (confidence 6) [66DF93C6], AccurateRip returned [3E6BADFE] (AR v2)
Track 3 cannot be verified as accurate (confidence 6) [67CE6240], AccurateRip returned [3D0EAC67] (AR v2)
Track 4 cannot be verified as accurate (confidence 6) [3EAAD68D], AccurateRip returned [4CABDC93] (AR v2)
Track 5 cannot be verified as accurate (confidence 6) [834E4234], AccurateRip returned [0E01051F] (AR v2)
Track 6 cannot be verified as accurate (confidence 6) [25895C19], AccurateRip returned [41D59E1A] (AR v2)
Track 7 cannot be verified as accurate (confidence 6) [9C30DBDD], AccurateRip returned [D4916CDE] (AR v2)
Track 8 cannot be verified as accurate (confidence 6) [59A16DB3], AccurateRip returned [25BCB87B] (AR v2)
Track 9 cannot be verified as accurate (confidence 6) [56967C33], AccurateRip returned [D6E3461D] (AR v2)
Track 10 cannot be verified as accurate (confidence 6) [E918BD11], AccurateRip returned [81BE72A1] (AR v2)
Track 11 cannot be verified as accurate (confidence 6) [97C097D7], AccurateRip returned [372BE3C2] (AR v2)
Track 12 cannot be verified as accurate (confidence 6) [BBE25E06], AccurateRip returned [DD6A98A2] (AR v2)
Track 13 cannot be verified as accurate (confidence 6) [82E2CEF3], AccurateRip returned [BFB1579E] (AR v2)
Track 14 cannot be verified as accurate (confidence 6) [BB167DBE], AccurateRip returned [7BE5A184] (AR v2)
Track 15 cannot be verified as accurate (confidence 6) [CAFEB2FA], AccurateRip returned [93BD3F62] (AR v2)
Track 16 cannot be verified as accurate (confidence 6) [63E762C7], AccurateRip returned [CB74F920] (AR v2)
Track 17 cannot be verified as accurate (confidence 6) [18CF8A6F], AccurateRip returned [D68FE0B9] (AR v2)
Track 18 cannot be verified as accurate (confidence 6) [23C40067], AccurateRip returned [908228CB] (AR v2)
Track 19 cannot be verified as accurate (confidence 6) [22623589], AccurateRip returned [1C3FD366] (AR v2)
No tracks could be verified as accurate
You may have a different pressing from the one(s) in the database
End of status report
==== Log checksum 0DF2C207D87A59DA15B0D32341E1F32610D3254008696FABC5A6C072864D3985 ====


CD10
Exact Audio Copy V1.0 beta 3 from 29. August 2011
EAC extraction logfile from 15. June 2012, 21:19
Italian Concerti Grossi / Great Baroque Masterpieces CD10
Used drive : HL-DT-STDVDRAM GSA-H60N Adapter: 2 ID: 0
Read mode : Secure
Utilize accurate stream : Yes
Defeat audio cache : Yes
Make use of C2 pointers : No
Read offset correction : 667
Overread into Lead-In and Lead-Out : No
Fill up missing offset samples with silence : Yes
Delete leading and trailing silent blocks : No
Null samples used in CRC calculations : Yes
Used interface : Native Win32 interface for Win NT & 2000
Used output format : Internal WAV Routines
Sample format : 44.100 Hz; 16 Bit; Stereo
TOC of the extracted CD
Track | Start | Length | Start sector | End sector
––––––––––––––––––––––––––––-
1 | 0:00.00 | 2:28.25 | 0 | 11124
2 | 2:28.25 | 2:27.00 | 11125 | 22149
3 | 4:55.25 | 3:32.00 | 22150 | 38049
4 | 8:27.25 | 1:15.00 | 38050 | 43674
5 | 9:42.25 | 2:21.00 | 43675 | 54249
6 | 12:03.25 | 1:09.00 | 54250 | 59424
7 | 13:12.25 | 1:55.00 | 59425 | 68049
8 | 15:07.25 | 3:18.00 | 68050 | 82899
9 | 18:25.25 | 3:53.00 | 82900 | 100374
10 | 22:18.25 | 3:03.00 | 100375 | 114099
11 | 25:21.25 | 1:36.00 | 114100 | 121299
12 | 26:57.25 | 1:44.00 | 121300 | 129099
13 | 28:41.25 | 1:50.00 | 129100 | 137349
14 | 30:31.25 | 1:26.00 | 137350 | 143799
15 | 31:57.25 | 2:29.40 | 143800 | 155014
16 | 34:26.65 | 1:43.35 | 155015 | 162774
17 | 36:10.25 | 2:08.00 | 162775 | 172374
18 | 38:18.25 | 2:19.02 | 172375 | 182801
19 | 40:37.27 | 1:39.73 | 182802 | 190299
20 | 42:17.25 | 3:03.00 | 190300 | 204024
21 | 45:20.25 | 2:25.00 | 204025 | 214899
22 | 47:45.25 | 0:45.00 | 214900 | 218274
23 | 48:30.25 | 3:01.00 | 218275 | 231849
24 | 51:31.25 | 1:33.00 | 231850 | 238824
25 | 53:04.25 | 1:47.00 | 238825 | 246849
26 | 54:51.25 | 1:21.00 | 246850 | 252924
27 | 56:12.25 | 3:11.00 | 252925 | 267249
28 | 59:23.25 | 0:41.02 | 267250 | 270326
29 | 60:04.27 | 0:55.73 | 270327 | 274524
30 | 61:00.25 | 1:39.00 | 274525 | 281949
31 | 62:39.25 | 1:21.00 | 281950 | 288024
32 | 64:00.25 | 2:12.30 | 288025 | 297954
Range status and errors
Selected range
Filename C:\Documents and Settings\Admin\Рабочий стол\Lossless Galaxy Rip by ALLexxess\Naxos Records 25 Years\2012 Great Baroque Masterpieces (10CD Box Set Naxos Records)\CD10 Italian Concerti Grossi\Baroque Masterpieces CD10.wav
Peak level 82.4 %
Extraction speed 6.2 X
Range quality 99.9 %
Test CRC 462C09AB
Copy CRC 462C09AB
Copy OK
No errors occurred
AccurateRip summary
Track 1 cannot be verified as accurate (confidence 5) [F83C8C48], AccurateRip returned [F52E541F] (AR v2)
Track 2 cannot be verified as accurate (confidence 5) [41A31116], AccurateRip returned [FC2C2029] (AR v2)
Track 3 cannot be verified as accurate (confidence 5) [2C9075D0], AccurateRip returned [6CD754C4] (AR v2)
Track 4 cannot be verified as accurate (confidence 5) [FB616AA5], AccurateRip returned [7FF90FAC] (AR v2)
Track 5 cannot be verified as accurate (confidence 5) [C8C34B08], AccurateRip returned [1BF33F62] (AR v2)
Track 6 cannot be verified as accurate (confidence 5) [310E8194], AccurateRip returned [79A0E165] (AR v2)
Track 7 cannot be verified as accurate (confidence 5) [C8DFA52C], AccurateRip returned [5B002624] (AR v2)
Track 8 cannot be verified as accurate (confidence 5) [7DAB6DD4], AccurateRip returned [87F17199] (AR v2)
Track 9 cannot be verified as accurate (confidence 5) [B323587B], AccurateRip returned [063824E0] (AR v2)
Track 10 cannot be verified as accurate (confidence 5) [DE83A40D], AccurateRip returned [C508D795] (AR v2)
Track 11 cannot be verified as accurate (confidence 5) [E7BF4044], AccurateRip returned [C61B2C33] (AR v2)
Track 12 cannot be verified as accurate (confidence 5) [7E69109F], AccurateRip returned [0C9E02E1] (AR v2)
Track 13 cannot be verified as accurate (confidence 5) [F394D53A], AccurateRip returned [E25D7B9A] (AR v2)
Track 14 cannot be verified as accurate (confidence 5) [F8569800], AccurateRip returned [2F882098] (AR v2)
Track 15 cannot be verified as accurate (confidence 5) [5141A482], AccurateRip returned [DA8945E7] (AR v2)
Track 16 cannot be verified as accurate (confidence 5) [BF273B96], AccurateRip returned [BD293346] (AR v2)
Track 17 cannot be verified as accurate (confidence 5) [7CDE0F38], AccurateRip returned [212EC836] (AR v2)
Track 18 cannot be verified as accurate (confidence 5) [D31308B5], AccurateRip returned [EC16D092] (AR v2)
Track 19 cannot be verified as accurate (confidence 5) [74AE9B99], AccurateRip returned [A8668046] (AR v2)
Track 20 cannot be verified as accurate (confidence 5) [E791BE98], AccurateRip returned [1DAE4DE0] (AR v2)
Track 21 cannot be verified as accurate (confidence 5) [6E951851], AccurateRip returned [39C7AE19] (AR v2)
Track 22 cannot be verified as accurate (confidence 5) [AA7119AF], AccurateRip returned [CA62055D] (AR v2)
Track 23 cannot be verified as accurate (confidence 5) [C677C737], AccurateRip returned [925A26DC] (AR v2)
Track 24 cannot be verified as accurate (confidence 5) [60F11288], AccurateRip returned [5E4336D6] (AR v2)
Track 25 cannot be verified as accurate (confidence 5) [4E8D8FFC], AccurateRip returned [47940FAE] (AR v2)
Track 26 cannot be verified as accurate (confidence 5) [1AE831EA], AccurateRip returned [B075DDD8] (AR v2)
Track 27 cannot be verified as accurate (confidence 5) [C204A785], AccurateRip returned [796B811B] (AR v2)
Track 28 cannot be verified as accurate (confidence 5) [930AABD9], AccurateRip returned [D2F8B25E] (AR v2)
Track 29 cannot be verified as accurate (confidence 5) [03520625], AccurateRip returned [E9C035C0] (AR v2)
Track 30 cannot be verified as accurate (confidence 5) [B35412FD], AccurateRip returned [A01AAD47] (AR v2)
Track 31 cannot be verified as accurate (confidence 5) [33A7950F], AccurateRip returned [DC56190F] (AR v2)
Track 32 cannot be verified as accurate (confidence 4) [BE2AAC44], AccurateRip returned [7398D5D2] (AR v2)
No tracks could be verified as accurate
You may have a different pressing from the one(s) in the database
End of status report
==== Log checksum 402245202AB1B675E8BC52F38444FF913FA4478028663BF894315B4A2FB8FD76 ====


VA - Naxos 25th Anniversary: Great Baroque Masterpieces (2012) (10 CD Box Set)


Thanks to original ripper.