Tags
Language
Tags
February 2024
Su Mo Tu We Th Fr Sa
28 29 30 31 1 2 3
4 5 6 7 8 9 10
11 12 13 14 15 16 17
18 19 20 21 22 23 24
25 26 27 28 29 1 2
Attention❗ To save your time, in order to download anything on this site, you must be registered 👉 HERE. If you do not have a registration yet, it is better to do it right away. ✌

( • )( • ) ( ͡⚆ ͜ʖ ͡⚆ ) (‿ˠ‿)
SpicyMags.xyz

Tranquility - Silver (1972) [2018, Epic SICP 5764, Japan]

Posted By: v3122
Tranquility - Silver (1972) [2018, Epic SICP 5764, Japan]

Tranquility - Silver (1972)
EAC | Flac(Image) + Cue + Log & MP3 CBR 320Kbps
Epic SICP 5764 | ~ 269 or 102 Mb | Scans(jpg) -> 33 Mb
Folk Rock, Psychedelic Rock, Soft Rock

The British band Tranquility only had two records released and both hit our shores in 1972. Psychedelic folk/rock music was all the rage and this record is a fine example of the genre - very well made music -thoroughly enjoyable record.
Tranquility - Silver (1972):

Tranquility - Silver (1972) [2018, Epic SICP 5764, Japan]

Tracklist:

01. Eagle Eye 3:57
02. Can I See You 5:46
03. Linda 4:06
04. Whip Wheel 5:19
05. The Driver's Engine 3:42
06. Couldn't Possibly Be 4:21
07. Nice And Easy 3:17
08. Dear Oh Dear 3:24
09. Silver 7:24
10. The Tree 1:07

Musicians:

Bass Guitar, Flute – Bernard Hagley
Drums, Percussion – Paul Francis
Electric and Acoustic Pianos, Clavinet, Vibes, Organ, Mellotron, Vocals – Tony Lukyn
Lead Guitar, Acoustic Guitar, Lead Vocals – Terry Shaddick
Lead Guitar, Vocals – Berkeley Wright
Rhythm Guitar, Vocals – Kevin McCarthy
Produced and Directed By – Ashley Kozak


Exact Audio Copy V1.3 from 2. September 2016

Отчёт EAC об извлечении, выполненном 11. мая 2018, 13:03

Tranquility / Silver

Дисковод: ASUS DRW-24B3ST Adapter: 1 ID: 0

Режим чтения : Достоверность
Использование точного потока : Да
Отключение кэша аудио : Да
Использование указателей C2 : Нет

Коррекция смещения при чтении : 6
Способность читать области Lead-in и Lead-out : Нет
Заполнение пропущенных сэмплов тишиной : Да
Удаление блоков с тишиной в начале и конце : Нет
При вычислениях CRC использовались нулевые сэмплы : Да
Интерфейс : Встроенный Win32-интерфейс для Win NT/2000

Выходной формат : Пользовательский кодировщик
Выбранный битрейт : 1024 kBit/s
Качество : Высокий
Добавление ID3-тега : Нет
Утилита сжатия : C:\Program Files (x86)\Exact Audio Copy\Flac\flac.exe
Дополнительные параметры : -V -8 -T "Date=%year%" -T "Genre=%genre%" %source%


TOC извлечённого CD

Трек | Старт | Длительность | Начальный сектор | Конечный сектор
––––––––––––––––––––––––––––––––––-
1 | 0:00.00 | 3:56.71 | 0 | 17770
2 | 3:56.71 | 5:45.59 | 17771 | 43704
3 | 9:42.55 | 4:06.36 | 43705 | 62190
4 | 13:49.16 | 5:18.47 | 62191 | 86087
5 | 19:07.63 | 3:42.33 | 86088 | 102770
6 | 22:50.21 | 4:20.68 | 102771 | 122338
7 | 27:11.14 | 3:17.06 | 122339 | 137119
8 | 30:28.20 | 3:23.67 | 137120 | 152411
9 | 33:52.12 | 7:23.44 | 152412 | 185680
10 | 41:15.56 | 1:07.02 | 185681 | 190707


Характеристики диапазона извлечения и сообщения об ошибках

Выбранный диапазон

Имя файла E:\Torrents-seed\Tranquility - 1972 - Silver\Tranquility - Silver.wav

Пиковый уровень 100.0 %
Скорость извлечения 7.8 X
Качество диапазона 99.9 %
CRC теста A89A6675
CRC копии A89A6675
Копирование… OK

Ошибок не произошло


AccurateRip: сводка

Трек 1 отсутствует в базе данных
Трек 2 отсутствует в базе данных
Трек 3 отсутствует в базе данных
Трек 4 отсутствует в базе данных
Трек 5 отсутствует в базе данных
Трек 6 отсутствует в базе данных
Трек 7 отсутствует в базе данных
Трек 8 отсутствует в базе данных
Трек 9 отсутствует в базе данных
Трек 10 отсутствует в базе данных

Ни одного трека нет в базе AccurateRip

Конец отчёта

==== Контрольная сумма отчёта 87C36EFD7E656CF736315A517443C95F766E73B3B0F60D8C7178BAFA90CE99BF ====


[CUETools log; Date: 11.05.2018 16:31:38; Version: 2.1.5]
[AccurateRip ID: 0010cbf2-008564ef-7e09ee0a] disk not present in database.

Track Peak [ CRC32 ] [W/O NULL] [ LOG ]
– 100,0 [A89A6675] [7A633A75] CRC32
01 100,0 [E31724D4] [ECE2B7F1]
02 100,0 [051A8C89] [0B65CDA1]
03 100,0 [8C375148] [CFEC0D8D]
04 100,0 [530351A0] [80D4B442]
05 100,0 [87F6A47A] [6D131ED4]
06 100,0 [5065E1DA] [0AA057DA]
07 100,0 [CA14CDFF] [0F987754]
08 100,0 [DC90C2BB] [21497F1D]
09 100,0 [B264EB37] [5C40F1CF]
10 99,9 [7B052F57] [79153271]


Tranquility - Silver (1972) [2018, Epic SICP 5764, Japan]

All thanks go to Копысов

Download Tranquility - Silver (1972):