Tags
Language
Tags
February 2024
Su Mo Tu We Th Fr Sa
28 29 30 31 1 2 3
4 5 6 7 8 9 10
11 12 13 14 15 16 17
18 19 20 21 22 23 24
25 26 27 28 29 1 2
Attention❗ To save your time, in order to download anything on this site, you must be registered 👉 HERE. If you do not have a registration yet, it is better to do it right away. ✌

( • )( • ) ( ͡⚆ ͜ʖ ͡⚆ ) (‿ˠ‿)
SpicyMags.xyz

Torsten Goods - 1980 (2008)

Posted By: gribovar
Torsten Goods - 1980 (2008)

Torsten Goods - 1980 (2008)
EAC Rip | FLAC (tracks+.cue+log) - 335 MB | MP3 CBR 320 kbps (LAME 3.93) - 126 MB | Covers - 3 MB
Genre: Contemporary Jazz, Vocal Jazz | RAR 3% Rec. | Label: ACT Music (9719-2)

His debut album for ACT, Irish Heart, saw his breakthrough as a guitarist and singer. Torsten Goods' multi-faceted, expressive voice is as much at home in blues as in swing and pop and in 1980 this is evident. "99" is a beautiful cover version close to Toto singer Steve Lukather's original recording, whereas "Don't Let It Get To You" reminds us of Al Jarreau and "So Are You" brings out the crooner in him. "I Need You So Bad" is an impressive duet with ACT colleague Rigmor Gustafsson. As they got on so well together during Goods’ appearances at her concerts in Sweden, Rigmor's guest performance was a "must".
Guitar fans, too, are going to be pleased with the instrumentals on this album. "Too Much Guitar" exemplifies his talent. This guitar duet was recorded with Andreas Oberg, who like Goods in Germany, is a shooting star on the fret board in his home country Sweden. Several more guest performers accompany the basic line-up consisting of Christian von Kaphengst on bass and the talented young pianist Jan Miserre, who contributes to the authentic 80’s sound with his funky style on Fender Rhodes and Wurlitzer. Others include the 80's veteran Peter Lübke, who used to play with Jaco Pastorius, sax player Lutz Häfner, singer Jeff Cascaro on "99", Berthold Matschat on harmonica and rhythm guitarist Bruno Müller. It is indeed amazing what can emerge from a half-serious idea.
Tracklist:
01. Crazy Little Thing Called Love
02. Don't Let It Get To You
03. 99
04. So Are You
05. It's Still Rock N' Roll To Me
06. (I Need You) So Bad
07. 1980
08. Winters Night
09. I Can Hardly See You
10. Love Dance
11. Too Much Guitar
12. Shout It Out

Total time: 53:40

Exact Audio Copy V0.99 prebeta 5 from 4. May 2009

EAC extraction logfile from 14. November 2010, 12:29

Torsten Goods / 1980

Used drive : PLEXTOR DVDR PX-860A Adapter: 0 ID: 0

Read mode : Secure
Utilize accurate stream : Yes
Defeat audio cache : Yes
Make use of C2 pointers : No

Read offset correction : 96
Overread into Lead-In and Lead-Out : No
Fill up missing offset samples with silence : Yes
Delete leading and trailing silent blocks : No
Null samples used in CRC calculations : Yes
Used interface : Native Win32 interface for Win NT & 2000
Gap handling : Appended to previous track

Used output format : User Defined Encoder
Selected bitrate : 768 kBit/s
Quality : High
Add ID3 tag : No
Command line compressor : C:\Program Files\FLAC\flac.exe
Additional command line options : -8 -V -T "ARTIST=%a" -T "TITLE=%t" -T "ALBUM=%g" -T "DATE=%y" -T "TRACKNUMBER=%n" -T "TOTALTRACKS=%x" -T "GENRE=%m" -T "ALBUM ARTIST=%v" -T "ALBUMARTIST=%v" -T "COMMENT=EAC V0.99 prebeta 5, Secure Mode, Test & Copy, Accurat


TOC of the extracted CD

Track | Start | Length | Start sector | End sector
––––––––––––––––––––––––––––-
1 | 0:00.00 | 4:17.02 | 0 | 19276
2 | 4:17.02 | 5:34.68 | 19277 | 44394
3 | 9:51.70 | 4:37.17 | 44395 | 65186
4 | 14:29.12 | 3:35.24 | 65187 | 81335
5 | 18:04.36 | 3:17.26 | 81336 | 96136
6 | 21:21.62 | 5:09.36 | 96137 | 119347
7 | 26:31.23 | 5:36.18 | 119348 | 144565
8 | 32:07.41 | 4:06.60 | 144566 | 163075
9 | 36:14.26 | 3:45.72 | 163076 | 180022
10 | 40:00.23 | 6:09.00 | 180023 | 207697
11 | 46:09.23 | 3:05.41 | 207698 | 221613
12 | 49:14.64 | 4:25.55 | 221614 | 241543


Track 1

Filename S:\DL\Torsten Goods - 1980 (2008) [FLAC]\01 - Crazy Little Thing Called Love.wav

Pre-gap length 0:00:02.00

Peak level 99.7 %
Track quality 99.9 %
Test CRC DA338C99
Copy CRC DA338C99
Accurately ripped (confidence 6) [DC4287C4]
Copy OK

Track 2

Filename S:\DL\Torsten Goods - 1980 (2008) [FLAC]\02 - Don't Let It Get To You.wav

Pre-gap length 0:00:02.16

Peak level 100.0 %
Track quality 100.0 %
Test CRC 4A97D04F
Copy CRC 4A97D04F
Accurately ripped (confidence 6) [1C0D650F]
Copy OK

Track 3

Filename S:\DL\Torsten Goods - 1980 (2008) [FLAC]\03 - 99.wav

Pre-gap length 0:00:03.74

Peak level 100.0 %
Track quality 100.0 %
Test CRC 49854D0D
Copy CRC 49854D0D
Accurately ripped (confidence 6) [6C702C50]
Copy OK

Track 4

Filename S:\DL\Torsten Goods - 1980 (2008) [FLAC]\04 - So Are You.wav

Pre-gap length 0:00:03.26

Peak level 79.6 %
Track quality 100.0 %
Test CRC C4CB440B
Copy CRC C4CB440B
Accurately ripped (confidence 6) [EF159CB0]
Copy OK

Track 5

Filename S:\DL\Torsten Goods - 1980 (2008) [FLAC]\05 - It's Still Rock N' Roll To Me.wav

Pre-gap length 0:00:01.60

Peak level 100.0 %
Track quality 100.0 %
Test CRC 22ADDDC9
Copy CRC 22ADDDC9
Accurately ripped (confidence 6) [9C2C7026]
Copy OK

Track 6

Filename S:\DL\Torsten Goods - 1980 (2008) [FLAC]\06 - (I Need You) So Bad.wav

Pre-gap length 0:00:01.68

Peak level 99.8 %
Track quality 99.9 %
Test CRC CB5A989A
Copy CRC CB5A989A
Accurately ripped (confidence 6) [44216321]
Copy OK

Track 7

Filename S:\DL\Torsten Goods - 1980 (2008) [FLAC]\07 - 1980.wav

Pre-gap length 0:00:00.76

Peak level 99.6 %
Track quality 100.0 %
Test CRC A8542045
Copy CRC A8542045
Accurately ripped (confidence 6) [CABA7D38]
Copy OK

Track 8

Filename S:\DL\Torsten Goods - 1980 (2008) [FLAC]\08 - Winters Night.wav

Pre-gap length 0:00:03.22

Peak level 94.8 %
Track quality 100.0 %
Test CRC A270A437
Copy CRC A270A437
Accurately ripped (confidence 6) [037D4E78]
Copy OK

Track 9

Filename S:\DL\Torsten Goods - 1980 (2008) [FLAC]\09 - I Can Hardly See You.wav

Pre-gap length 0:00:01.98

Peak level 99.8 %
Track quality 100.0 %
Test CRC E1EECD96
Copy CRC E1EECD96
Accurately ripped (confidence 6) [83C89853]
Copy OK

Track 10

Filename S:\DL\Torsten Goods - 1980 (2008) [FLAC]\10 - Love Dance.wav

Pre-gap length 0:00:01.64

Peak level 99.9 %
Track quality 100.0 %
Test CRC 98E29008
Copy CRC 98E29008
Accurately ripped (confidence 6) [73F888CA]
Copy OK

Track 11

Filename S:\DL\Torsten Goods - 1980 (2008) [FLAC]\11 - Too Much Guitar.wav

Pre-gap length 0:00:01.65

Peak level 99.6 %
Track quality 100.0 %
Test CRC AEA1A2AE
Copy CRC AEA1A2AE
Accurately ripped (confidence 6) [E1086FD2]
Copy OK

Track 12

Filename S:\DL\Torsten Goods - 1980 (2008) [FLAC]\12 - Shout It Out.wav

Pre-gap length 0:00:01.94

Peak level 99.6 %
Track quality 100.0 %
Test CRC C5EF207A
Copy CRC C5EF207A
Accurately ripped (confidence 5) [17ACEEDC]
Copy OK


All tracks accurately ripped

No errors occurred

End of status report

[CUETools log; Date: 09.09.2021 17:59:10; Version: 2.1.4]
[CTDB TOCID: dkTKWDJ1JRfXQJqh5MFEm1AzD3Q-] found.
Track | CTDB Status
1 | (36/37) Accurately ripped
2 | (36/37) Accurately ripped
3 | (35/37) Accurately ripped
4 | (36/37) Accurately ripped
5 | (36/37) Accurately ripped
6 | (36/37) Accurately ripped
7 | (35/37) Accurately ripped
8 | (35/37) Accurately ripped
9 | (36/37) Accurately ripped
10 | (35/37) Accurately ripped
11 | (35/37) Accurately ripped
12 | (34/37) Accurately ripped
[AccurateRip ID: 00182c49-00e13832-b60c940c] found.
Track [ CRC | V2 ] Status
01 [dc4287c4|1881c4ad] (09+19/28) Accurately ripped
02 [1c0d650f|26c530e3] (09+19/28) Accurately ripped
03 [6c702c50|7e52b737] (10+19/29) Accurately ripped
04 [ef159cb0|22af0763] (09+19/28) Accurately ripped
05 [9c2c7026|14e5395e] (09+19/28) Accurately ripped
06 [44216321|c5165ce5] (09+19/28) Accurately ripped
07 [caba7d38|103e5ba9] (09+19/28) Accurately ripped
08 [037d4e78|fafcd2f6] (09+19/28) Accurately ripped
09 [83c89853|75dd15f9] (09+18/27) Accurately ripped
10 [73f888ca|b6184a58] (09+19/28) Accurately ripped
11 [e1086fd2|e348b3b8] (10+19/29) Accurately ripped
12 [17aceedc|4034b809] (09+18/27) Accurately ripped
Offsetted by -667:
01 [9ab19a5f] (00/28) No match (V2 was not tested)
02 [fb186b2c] (00/28) No match (V2 was not tested)
03 [7399eb0a] (00/29) No match (V2 was not tested)
04 [d41e98b7] (00/28) No match (V2 was not tested)
05 [f90e5cf5] (00/28) No match (V2 was not tested)
06 [14a4ddc7] (00/28) No match (V2 was not tested)
07 [d62888f9] (00/28) No match (V2 was not tested)
08 [6c126232] (00/28) No match (V2 was not tested)
09 [e465e40c] (00/27) No match (V2 was not tested)
10 [3780b759] (00/28) No match (V2 was not tested)
11 [8bb7276c] (00/29) No match (V2 was not tested)
12 [ce3b62ae] (00/27) No match (V2 was not tested)

Track Peak [ CRC32 ] [W/O NULL] [ LOG ]
– 100,0 [B4EC4083] [D46EE9B0]
01 99,7 [DA338C99] [95C2B8E2] CRC32
02 100,0 [4A97D04F] [B094013B] CRC32
03 100,0 [49854D0D] [5A497E12] CRC32
04 79,6 [C4CB440B] [E3390984] CRC32
05 100,0 [22ADDDC9] [A6359DC3] CRC32
06 99,8 [CB5A989A] [DD87A171] CRC32
07 99,6 [A8542045] [7DE4144B] CRC32
08 94,8 [A270A437] [0DEDD0A0] CRC32
09 99,8 [E1EECD96] [80C6AFAF] CRC32
10 99,9 [98E29008] [628F9803] CRC32
11 99,6 [AEA1A2AE] [61805207] CRC32
12 99,6 [C5EF207A] [9FE8ACF3] CRC32

Thanks to the original releaser

See also:
Torsten Goods - Irish Heart (2006)