Subcategories
Please register here if you want to download anything!

If domain in your address bar is different from the list below
PLEASE LEAVE THAT SITE IMMEDIATELY
❗IT'S A DANGEROUS FAKE❗



Spicy Magazines for Men! ;-)

Tom Petty & The Heartbreakers - Playback (1995) [6CD Box-Set]

Posted By: v3122
Tom Petty & The Heartbreakers - Playback (1995) [6CD Box-Set]

Tom Petty & The Heartbreakers - Playback (1995)
EAC | Flac(Image) + Cue + Log & MP3 CBR 320Kbps
6CD | MCA MCAD6-11375 | ~ 22723 or 746 Mb | Scans(jpg, 600dpi) -> 744 Mb
Classic Rock / Southern Rock / Rock & Roll

Coming along in 1976, Tom Petty & the Heartbreakers were part of a movement back to basic, pop-oriented rock & roll that has proven to be the most lasting legacy of a decade otherwise given over to such stylistic flameouts as disco and punk. Never getting too mellow to be mistaken for a sensitive singer/songwriter or rocking too hard to be thought of as a heavy metallurgist, Petty spun out a series of mid-tempo hits patterned on Bob Dylan's classic Blonde on Blonde sound, in which the guitars play off the keyboards while the singer sings lyrics steeped in attitude in a high nasal whine. No wonder the Heartbreakers spent part of the '80s backing Dylan. Petty's only musical development occurred upon his encountering former Electric Light Orchestra leader Jeff Lynne, who helped write and produce his later records, updating them to the Sgt. Pepper's pop sound of 1967. Of course, the consequence of Petty & the Heartbreakers' affection for the music of the mid-'60s was that, in essence, they were a singles band, a fact driven home on the first three CDs or cassettes of this six-CD or cassette box set. Even when abbreviating each of their first nine studio albums to four-to-six cuts (and throwing in a few stray tunes from the live album, the hits album, and a Christmas compilation), the songs break down into the hits and the also-rans. To be fair, there are quite a few of the former, 23 singles-chart entries (22 of them here), in fact, and some of the latter are could-have-beens. And since Petty is more a song maker (or, more precisely, a track cutter) than an album artist, his work is more amenable to compilation. Still, three discs are more than enough, and then come three more discs of rarities and outtakes. The first of these contains non-LP B-sides, most of which are pleasant throwaways (the drummer singing "Psychotic Reaction," etc.), though one, "Trailer," suggests that Petty's failed concept album, Southern Accents, could have been a more of a success if it had been included. The last two discs present early and alternate histories of Petty, as his pre-Heartbreakers group, Mudcrutch, searches for a sound and, later, as he tries out different approaches that never made it onto his regular albums. Some of this material will be of interest to hardcore Petty fans. To justify the length and price of the box, however, there would have to be real lost treasures here, and Tom Petty simply is no Bob Dylan. Not surprisingly, then, Playback is a box set that would have been twice as good at half the size, though it can be thought of as economical in the sense that it can be purchased in lieu of buying Petty's entire 1976-1993 MCA catalog.

by William Ruhlmann, AMG
Tom Petty & The Heartbreakers - Playback (1995):

Tom Petty & The Heartbreakers - Playback (1995) [6CD Box-Set]

Tracklist CD1 - The Big Jangle:

01. Breakdown [0:02:42.62]
02. American Girl [0:03:33.70]
03. Hometown Blues [0:02:12.55]
04. Anything That's Rock 'N' Roll [0:02:24.10]
05. I Need To Know [0:02:24.25]
06. Listen To Her Heart [0:03:03.53]
07. When The Time Comes [0:02:45.57]
08. Too Much Ain't Enough [0:02:57.10]
09. No Second Thoughts [0:02:39.48]
10. Baby's A Rock 'N' Roller [0:02:52.40]
11. Refugee [0:03:23.07]
12. Here Comes My Girl [0:04:25.68]
13. Even The Losers [0:03:59.25]
14. Shadow Of A Doubt (A Complex Kid) [0:04:25.62]
15. Don't Do Me Like That [0:02:42.53]
16. The Waiting [0:03:59.65]
17. A Woman In Love (It's Not Me) [0:04:24.12]
18. Something Big [0:04:44.48]
19. A Thing About You [0:03:32.42]
20. Insider [0:04:23.20]
21. You Can Still Change Your Mind [0:04:16.18]

Exact Audio Copy V1.0 beta 3 from 29. August 2011

EAC extraction logfile from 26. August 2014, 21:34

Tom Petty & The Heartbreakers / Playback (Disc 1 - The Big Jangle)

Used drive : PLEXTOR DVDR PX-L890SA Adapter: 1 ID: 0

Read mode : Secure
Utilize accurate stream : Yes
Defeat audio cache : Yes
Make use of C2 pointers : No

Read offset correction : 6
Overread into Lead-In and Lead-Out : No
Fill up missing offset samples with silence : Yes
Delete leading and trailing silent blocks : No
Null samples used in CRC calculations : Yes
Used interface : Native Win32 interface for Win NT & 2000

Used output format : User Defined Encoder
Selected bitrate : 768 kBit/s
Quality : High
Add ID3 tag : No
Command line compressor : G:\Program Files\Exact Audio Copy\FLAC\FLAC.EXE
Additional command line options : -V -8 -T "Date=%year%" -T "Genre=%genre%" %source%


TOC of the extracted CD

Track | Start | Length | Start sector | End sector
––––––––––––––––––––––––––––-
1 | 0:00.00 | 2:42.62 | 0 | 12211
2 | 2:42.62 | 3:33.70 | 12212 | 28256
3 | 6:16.57 | 2:12.55 | 28257 | 38211
4 | 8:29.37 | 2:24.10 | 38212 | 49021
5 | 10:53.47 | 2:24.25 | 49022 | 59846
6 | 13:17.72 | 3:03.53 | 59847 | 73624
7 | 16:21.50 | 2:45.57 | 73625 | 86056
8 | 19:07.32 | 2:57.10 | 86057 | 99341
9 | 22:04.42 | 2:39.48 | 99342 | 111314
10 | 24:44.15 | 2:52.40 | 111315 | 124254
11 | 27:36.55 | 3:23.07 | 124255 | 139486
12 | 30:59.62 | 4:25.68 | 139487 | 159429
13 | 35:25.55 | 3:59.25 | 159430 | 177379
14 | 39:25.05 | 4:25.62 | 177380 | 197316
15 | 43:50.67 | 2:42.53 | 197317 | 209519
16 | 46:33.45 | 3:59.65 | 209520 | 227509
17 | 50:33.35 | 4:24.12 | 227510 | 247321
18 | 54:57.47 | 4:44.48 | 247322 | 268669
19 | 59:42.20 | 3:32.42 | 268670 | 284611
20 | 63:14.62 | 4:23.20 | 284612 | 304356
21 | 67:38.07 | 4:16.18 | 304357 | 323574


Range status and errors

Selected range

Filename H:\TORRENTS\Tom Petty\1995. Tom Petty - Playback (MCA MCAD6-11375, USA, HDCD)\Disc 1\Playback (Disc 1 - The Big Jangle).wav

Peak level 100.0 %
Extraction speed 6.5 X
Range quality 99.9 %
Test CRC BED98CA5
Copy CRC BED98CA5
Copy OK

No errors occurred


AccurateRip summary

Track 1 accurately ripped (confidence 14) [9CF6BC79] (AR v2)
Track 2 accurately ripped (confidence 14) [98C5FDEE] (AR v2)
Track 3 accurately ripped (confidence 13) [445D6484] (AR v2)
Track 4 accurately ripped (confidence 13) [49BEF678] (AR v2)
Track 5 accurately ripped (confidence 13) [0FD7C346] (AR v2)
Track 6 accurately ripped (confidence 13) [4B142E9D] (AR v2)
Track 7 accurately ripped (confidence 13) [4519A8CF] (AR v2)
Track 8 accurately ripped (confidence 13) [5400C40E] (AR v2)
Track 9 accurately ripped (confidence 13) [9F4FE80D] (AR v2)
Track 10 accurately ripped (confidence 13) [154366B5] (AR v2)
Track 11 accurately ripped (confidence 13) [593C2D81] (AR v2)
Track 12 accurately ripped (confidence 14) [607CBC3C] (AR v2)
Track 13 accurately ripped (confidence 14) [F6DED258] (AR v2)
Track 14 accurately ripped (confidence 13) [86AEEBB0] (AR v2)
Track 15 accurately ripped (confidence 14) [FCFB795C] (AR v2)
Track 16 accurately ripped (confidence 14) [E7C66682] (AR v2)
Track 17 accurately ripped (confidence 13) [D9E2DF41] (AR v2)
Track 18 accurately ripped (confidence 13) [A741138B] (AR v2)
Track 19 accurately ripped (confidence 13) [5BD7FACA] (AR v2)
Track 20 accurately ripped (confidence 13) [0FA35320] (AR v2)
Track 21 accurately ripped (confidence 12) [7B218B9A] (AR v2)

All tracks accurately ripped

End of status report

Tom Petty & The Heartbreakers - Playback (1995) [6CD Box-Set]

Tracklist CD2 - Spoiled & Mistreated:

01. You Got Lucky [0:03:36.57]
02. Change Of Heart [0:03:19.10]
03. Straight Into Darkness [0:03:47.70]
04. The Same Old You [0:03:30.63]
05. Rebels [0:05:19.35]
06. Don't Come Around Here No More [0:05:05.32]
07. Southern Accents [0:04:44.58]
08. Make It Better (Forget About Me) [0:04:23.42]
09. The Best Of Everything [0:04:03.15]
10. So You Wan't To Be A Rock 'n' Roll Star [0:03:30.55]
11. Don't Bring Me Down [0:03:52.33]
12. Jammin' Me [0:04:08.40]
13. It'll All Work Out [0:03:11.30]
14. Mike's Life / Mike's World [0:00:40.30]
15. Think About Me [0:03:45.57]
16. A Self-Made Man [0:03:00.70]

Exact Audio Copy V1.0 beta 3 from 29. August 2011

EAC extraction logfile from 26. August 2014, 17:08

Tom Petty and the Heartbreakers / Playback - Spoiled & Mistreated

Used drive : PLEXTOR DVDR PX-L890SA Adapter: 1 ID: 0

Read mode : Secure
Utilize accurate stream : Yes
Defeat audio cache : Yes
Make use of C2 pointers : No

Read offset correction : 6
Overread into Lead-In and Lead-Out : No
Fill up missing offset samples with silence : Yes
Delete leading and trailing silent blocks : No
Null samples used in CRC calculations : Yes
Used interface : Native Win32 interface for Win NT & 2000

Used output format : User Defined Encoder
Selected bitrate : 768 kBit/s
Quality : High
Add ID3 tag : No
Command line compressor : G:\Program Files\Exact Audio Copy\FLAC\FLAC.EXE
Additional command line options : -V -8 -T "Date=%year%" -T "Genre=%genre%" %source%


TOC of the extracted CD

Track | Start | Length | Start sector | End sector
––––––––––––––––––––––––––––-
1 | 0:00.00 | 3:36.57 | 0 | 16256
2 | 3:36.57 | 3:19.10 | 16257 | 31191
3 | 6:55.67 | 3:47.70 | 31192 | 48286
4 | 10:43.62 | 3:30.63 | 48287 | 64099
5 | 14:14.50 | 5:19.35 | 64100 | 88059
6 | 19:34.10 | 5:05.32 | 88060 | 110966
7 | 24:39.42 | 4:44.58 | 110967 | 132324
8 | 29:24.25 | 4:23.42 | 132325 | 152091
9 | 33:47.67 | 4:03.15 | 152092 | 170331
10 | 37:51.07 | 3:30.55 | 170332 | 186136
11 | 41:21.62 | 3:52.33 | 186137 | 203569
12 | 45:14.20 | 4:08.40 | 203570 | 222209
13 | 49:22.60 | 3:11.30 | 222210 | 236564
14 | 52:34.15 | 0:40.30 | 236565 | 239594
15 | 53:14.45 | 3:45.57 | 239595 | 256526
16 | 57:00.27 | 3:00.70 | 256527 | 270096


Range status and errors

Selected range

Filename H:\TORRENTS\Tom Petty\1995. Tom Petty - Playback (MCA MCAD6-11375, USA, HDCD)\Disc 2\Playback - Spoiled & Mistreated.wav

Peak level 99.8 %
Extraction speed 6.0 X
Range quality 100.0 %
Test CRC 5F059010
Copy CRC 5F059010
Copy OK

No errors occurred


AccurateRip summary

Track 1 accurately ripped (confidence 2) [4DE7428D] (AR v2)
Track 2 accurately ripped (confidence 2) [7D0BD5BE] (AR v2)
Track 3 accurately ripped (confidence 2) [0FF1CF4F] (AR v2)
Track 4 accurately ripped (confidence 2) [26E1F65E] (AR v2)
Track 5 accurately ripped (confidence 2) [C5FAA100] (AR v2)
Track 6 accurately ripped (confidence 2) [A59AB7B6] (AR v2)
Track 7 accurately ripped (confidence 2) [86CEC4A7] (AR v2)
Track 8 accurately ripped (confidence 2) [83726F6E] (AR v2)
Track 9 accurately ripped (confidence 2) [3660DE18] (AR v2)
Track 10 accurately ripped (confidence 2) [5B2570E1] (AR v2)
Track 11 accurately ripped (confidence 2) [74C8DE13] (AR v2)
Track 12 accurately ripped (confidence 2) [EB72DC67] (AR v2)
Track 13 accurately ripped (confidence 2) [171193CD] (AR v2)
Track 14 accurately ripped (confidence 2) [AB5D4D33] (AR v2)
Track 15 accurately ripped (confidence 2) [62989B91] (AR v2)
Track 16 accurately ripped (confidence 2) [BDA8B23B] (AR v2)

All tracks accurately ripped

End of status report

Tom Petty & The Heartbreakers - Playback (1995) [6CD Box-Set]

Tracklist CD3 - Good Booty:

01. Free Fallin' [0:04:16.22]
02. I Won't Back Down [0:02:57.03]
03. Love Is A Long Road [0:04:08.00]
04. Runnin' Down A Dream [0:04:23.42]
05. Yer So Bad [0:03:06.33]
06. Alright For Now [0:02:02.50]
07. Learning To Fly [0:04:03.07]
08. Into The Great Wide Open [0:03:43.63]
09. All Or Nothin' [0:04:07.40]
10. Out In The Cold [0:03:40.72]
11. Built To Last [0:03:58.30]
12. Mary Jane's Last Dance [0:04:33.45]
13. Christmas All Over Again [0:04:15.15]

Exact Audio Copy V1.0 beta 3 from 29. August 2011

EAC extraction logfile from 26. August 2014, 16:47

Tom Petty & The Heartbreakers / Playback, Disc 3 (Good Booty)

Used drive : PLEXTOR DVDR PX-L890SA Adapter: 1 ID: 0

Read mode : Secure
Utilize accurate stream : Yes
Defeat audio cache : Yes
Make use of C2 pointers : No

Read offset correction : 6
Overread into Lead-In and Lead-Out : No
Fill up missing offset samples with silence : Yes
Delete leading and trailing silent blocks : No
Null samples used in CRC calculations : Yes
Used interface : Native Win32 interface for Win NT & 2000

Used output format : User Defined Encoder
Selected bitrate : 768 kBit/s
Quality : High
Add ID3 tag : No
Command line compressor : G:\Program Files\Exact Audio Copy\FLAC\FLAC.EXE
Additional command line options : -V -8 -T "Date=%year%" -T "Genre=%genre%" %source%


TOC of the extracted CD

Track | Start | Length | Start sector | End sector
––––––––––––––––––––––––––––-
1 | 0:00.00 | 4:16.22 | 0 | 19221
2 | 4:16.22 | 2:57.03 | 19222 | 32499
3 | 7:13.25 | 4:08.00 | 32500 | 51099
4 | 11:21.25 | 4:23.42 | 51100 | 70866
5 | 15:44.67 | 3:06.33 | 70867 | 84849
6 | 18:51.25 | 2:02.50 | 84850 | 94049
7 | 20:54.00 | 4:03.07 | 94050 | 112281
8 | 24:57.07 | 3:43.63 | 112282 | 129069
9 | 28:40.70 | 4:07.40 | 129070 | 147634
10 | 32:48.35 | 3:40.72 | 147635 | 164206
11 | 36:29.32 | 3:58.30 | 164207 | 182086
12 | 40:27.62 | 4:33.45 | 182087 | 202606
13 | 45:01.32 | 4:15.15 | 202607 | 221746


Range status and errors

Selected range

Filename H:\TORRENTS\Tom Petty\1995. Tom Petty - Playback (MCA MCAD6-11375, USA, HDCD)\Disc 4\Playback, Disc 3 (Good Booty).wav

Peak level 99.7 %
Extraction speed 5.7 X
Range quality 100.0 %
Test CRC CC1C4F6D
Copy CRC CC1C4F6D
Copy OK

No errors occurred


AccurateRip summary

Track 1 accurately ripped (confidence 2) [743B435F] (AR v2)
Track 2 accurately ripped (confidence 2) [35736D6A] (AR v2)
Track 3 accurately ripped (confidence 2) [FECF97EB] (AR v2)
Track 4 accurately ripped (confidence 2) [C4548D1C] (AR v2)
Track 5 accurately ripped (confidence 2) [5DBD0D9B] (AR v2)
Track 6 accurately ripped (confidence 2) [E9F93CEC] (AR v2)
Track 7 accurately ripped (confidence 2) [1C44AB70] (AR v2)
Track 8 accurately ripped (confidence 2) [4056C07D] (AR v2)
Track 9 accurately ripped (confidence 2) [81494812] (AR v2)
Track 10 accurately ripped (confidence 2) [112A1539] (AR v2)
Track 11 accurately ripped (confidence 2) [26BB3A8B] (AR v2)
Track 12 accurately ripped (confidence 2) [412EA833] (AR v2)
Track 13 accurately ripped (confidence 2) [C85B406C] (AR v2)

All tracks accurately ripped

End of status report

Tom Petty & The Heartbreakers - Playback (1995) [6CD Box-Set]

Tracklist CD4 - The Other Sides:

01. Casa Dega [0:03:37.10]
02. Heartbreaker's Beach Party [0:01:57.45]
03. Trailer [0:03:15.62]
04. Cracking Up [0:03:34.30]
05. Psychotic Reaction (Live) [0:04:49.58]
06. I'm Tired Joey Boy (Live) [0:03:42.62]
07. Lonely Weekends (Live) [0:02:47.53]
08. Gator On The Lawn [0:01:35.60]
09. Make That Connection [0:05:04.42]
10. Down The Line [0:02:53.65]
11. Peace In L.A. (Peace Mix) [0:04:43.03]
12. It's Rainin' Again [0:01:32.10]
13. Somethin' Else (Live) [0:02:05.52]
14. I Don't Know What To Say To You [0:02:28.38]
15. Kings Highway (Live) [0:03:30.17]

Exact Audio Copy V1.0 beta 3 from 29. August 2011

EAC extraction logfile from 26. August 2014, 21:55

Tom Petty / Playback

Used drive : PLEXTOR DVDR PX-L890SA Adapter: 1 ID: 0

Read mode : Secure
Utilize accurate stream : Yes
Defeat audio cache : Yes
Make use of C2 pointers : No

Read offset correction : 6
Overread into Lead-In and Lead-Out : No
Fill up missing offset samples with silence : Yes
Delete leading and trailing silent blocks : No
Null samples used in CRC calculations : Yes
Used interface : Native Win32 interface for Win NT & 2000

Used output format : User Defined Encoder
Selected bitrate : 768 kBit/s
Quality : High
Add ID3 tag : No
Command line compressor : G:\Program Files\Exact Audio Copy\FLAC\FLAC.EXE
Additional command line options : -V -8 -T "Date=%year%" -T "Genre=%genre%" %source%


TOC of the extracted CD

Track | Start | Length | Start sector | End sector
––––––––––––––––––––––––––––-
1 | 0:00.00 | 3:37.10 | 0 | 16284
2 | 3:37.10 | 1:57.45 | 16285 | 25104
3 | 5:34.55 | 3:15.62 | 25105 | 39791
4 | 8:50.42 | 3:34.30 | 39792 | 55871
5 | 12:24.72 | 4:49.58 | 55872 | 77604
6 | 17:14.55 | 3:42.62 | 77605 | 94316
7 | 20:57.42 | 2:47.53 | 94317 | 106894
8 | 23:45.20 | 1:35.60 | 106895 | 114079
9 | 25:21.05 | 5:04.42 | 114080 | 136921
10 | 30:25.47 | 2:53.65 | 136922 | 149961
11 | 33:19.37 | 4:43.03 | 149962 | 171189
12 | 38:02.40 | 1:32.10 | 171190 | 178099
13 | 39:34.50 | 2:05.52 | 178100 | 187526
14 | 41:40.27 | 2:28.38 | 187527 | 198664
15 | 44:08.65 | 3:30.17 | 198665 | 214431


Range status and errors

Selected range

Filename H:\TORRENTS\Tom Petty\1995. Tom Petty - Playback (MCA MCAD6-11375, USA, HDCD)\Disc 4\Playback, Disc 4 (The Other Side).wav

Peak level 100.0 %
Extraction speed 5.6 X
Range quality 100.0 %
Test CRC 3655DC1E
Copy CRC 3655DC1E
Copy OK

No errors occurred


AccurateRip summary

Track 1 accurately ripped (confidence 2) [211BEB64] (AR v2)
Track 2 accurately ripped (confidence 2) [38E5DC68] (AR v2)
Track 3 accurately ripped (confidence 2) [88019445] (AR v2)
Track 4 accurately ripped (confidence 2) [D62AA46F] (AR v2)
Track 5 accurately ripped (confidence 2) [3DD16F06] (AR v2)
Track 6 accurately ripped (confidence 2) [B98C07AA] (AR v2)
Track 7 accurately ripped (confidence 2) [EA27AB82] (AR v2)
Track 8 accurately ripped (confidence 2) [9F869D64] (AR v2)
Track 9 accurately ripped (confidence 2) [23F46546] (AR v2)
Track 10 accurately ripped (confidence 2) [709897CE] (AR v2)
Track 11 accurately ripped (confidence 2) [1F56F119] (AR v2)
Track 12 accurately ripped (confidence 2) [3C0312CE] (AR v2)
Track 13 accurately ripped (confidence 2) [767B406E] (AR v2)
Track 14 accurately ripped (confidence 2) [4EEA50AA] (AR v2)
Track 15 accurately ripped (confidence 2) [C56966C2] (AR v2)

All tracks accurately ripped

End of status report

Tom Petty & The Heartbreakers - Playback (1995) [6CD Box-Set]

Tracklist CD5 - Through The Crack:

01. On The Street [0:02:10.02]
02. Depot Street [0:03:26.03]
03. Cry To Me [0:03:06.45]
04. Don't Do Me Like That [0:02:47.35]
05. I Can't Fight It [0:03:00.12]
06. Since You Said You Loved Me [0:04:40.03]
07. Louisiana Rain [0:04:22.37]
08. Keeping Me Alive [0:02:59.28]
09. Turning Point [0:02:52.37]
10. Stop Draggin' My Heart Around (Demo Version) [0:04:11.63]
11. The Apartment Song (Demo Version) [0:02:37.15]
12. Big Boss Man [0:02:41.47]
13. The Image Of Me [0:02:33.05]
14. Moon Pie [0:01:05.28]
15. The Damage You've Done (Country Version) [0:03:16.07]

Exact Audio Copy V1.0 beta 3 from 29. August 2011

EAC extraction logfile from 26. August 2014, 15:48

Tom Petty & The Heartbreakers / Playback, Disc 5 (Through The Cracks)

Used drive : PLEXTOR DVDR PX-L890SA Adapter: 1 ID: 0

Read mode : Secure
Utilize accurate stream : Yes
Defeat audio cache : Yes
Make use of C2 pointers : No

Read offset correction : 6
Overread into Lead-In and Lead-Out : No
Fill up missing offset samples with silence : Yes
Delete leading and trailing silent blocks : No
Null samples used in CRC calculations : Yes
Used interface : Native Win32 interface for Win NT & 2000

Used output format : User Defined Encoder
Selected bitrate : 768 kBit/s
Quality : High
Add ID3 tag : No
Command line compressor : G:\Program Files\Exact Audio Copy\FLAC\FLAC.EXE
Additional command line options : -V -8 -T "Date=%year%" -T "Genre=%genre%" %source%


TOC of the extracted CD

Track | Start | Length | Start sector | End sector
––––––––––––––––––––––––––––-
1 | 0:00.00 | 2:10.02 | 0 | 9751
2 | 2:10.02 | 3:26.03 | 9752 | 25204
3 | 5:36.05 | 3:06.45 | 25205 | 39199
4 | 8:42.50 | 2:47.35 | 39200 | 51759
5 | 11:30.10 | 3:00.12 | 51760 | 65271
6 | 14:30.22 | 4:40.03 | 65272 | 86274
7 | 19:10.25 | 4:22.37 | 86275 | 105961
8 | 23:32.62 | 2:59.28 | 105962 | 119414
9 | 26:32.15 | 2:52.37 | 119415 | 132351
10 | 29:24.52 | 4:11.63 | 132352 | 151239
11 | 33:36.40 | 2:37.15 | 151240 | 163029
12 | 36:13.55 | 2:41.47 | 163030 | 175151
13 | 38:55.27 | 2:33.05 | 175152 | 186631
14 | 41:28.32 | 1:05.28 | 186632 | 191534
15 | 42:33.60 | 3:16.07 | 191535 | 206241


Range status and errors

Selected range

Filename H:\TORRENTS\Tom Petty\1995. Tom Petty - Playback (MCA MCAD6-11375, USA, HDCD)\Disc 5\Playback, Disc 5 (Through The Cracks).wav

Peak level 99.6 %
Extraction speed 5.6 X
Range quality 100.0 %
Test CRC B61ECBFA
Copy CRC B61ECBFA
Copy OK

No errors occurred


AccurateRip summary

Track 1 accurately ripped (confidence 2) [761A6BB4] (AR v2)
Track 2 accurately ripped (confidence 2) [B63B6C67] (AR v2)
Track 3 accurately ripped (confidence 2) [F2DC977F] (AR v2)
Track 4 accurately ripped (confidence 2) [C4EACEDC] (AR v2)
Track 5 accurately ripped (confidence 2) [2EA5771D] (AR v2)
Track 6 accurately ripped (confidence 2) [CF02EDFC] (AR v2)
Track 7 accurately ripped (confidence 2) [16B2A7DA] (AR v2)
Track 8 accurately ripped (confidence 2) [071817E7] (AR v2)
Track 9 accurately ripped (confidence 2) [F6C08B54] (AR v2)
Track 10 accurately ripped (confidence 2) [0655E154] (AR v2)
Track 11 accurately ripped (confidence 2) [1452C3B9] (AR v2)
Track 12 accurately ripped (confidence 2) [002241D7] (AR v2)
Track 13 accurately ripped (confidence 2) [0BF491AC] (AR v2)
Track 14 accurately ripped (confidence 2) [A7A17536] (AR v2)
Track 15 accurately ripped (confidence 2) [FFAF9FA2] (AR v2)

All tracks accurately ripped

End of status report

Tom Petty & The Heartbreakers - Playback (1995) [6CD Box-Set]

Tracklist CD6 - Nobody’s Children:

01. Got My Mind Made Up (Original Version) [0:02:51.40]
02. Ways To Be Wicked [0:03:27.05]
03. Can't Get Her Out [0:03:11.20]
04. Waiting For Tonight [0:03:30.17]
05. Travelin' [0:03:15.55]
06. Baby, Let's Play House [0:02:33.13]
07. Wooden Heart [0:02:09.62]
08. God's Gift To Man [0:04:18.48]
09. You Get Me High [0:02:48.30]
10. Come On Down To My House [0:03:05.52]
11. You Come Through [0:05:15.70]
12. Up In Mississippi Tonight [0:03:28.05]

Exact Audio Copy V1.0 beta 3 from 29. August 2011

EAC extraction logfile from 28. August 2014, 19:23

Tom Petty & The Heartbreakers / Playback, Disc 6 (Nobody's Children)

Used drive : PLEXTOR DVDR PX-L890SA Adapter: 1 ID: 0

Read mode : Secure
Utilize accurate stream : Yes
Defeat audio cache : Yes
Make use of C2 pointers : No

Read offset correction : 6
Overread into Lead-In and Lead-Out : No
Fill up missing offset samples with silence : Yes
Delete leading and trailing silent blocks : No
Null samples used in CRC calculations : Yes
Used interface : Native Win32 interface for Win NT & 2000

Used output format : User Defined Encoder
Selected bitrate : 768 kBit/s
Quality : High
Add ID3 tag : No
Command line compressor : G:\Program Files\Exact Audio Copy\FLAC\FLAC.EXE
Additional command line options : -V -8 -T "Date=%year%" -T "Genre=%genre%" %source%


TOC of the extracted CD

Track | Start | Length | Start sector | End sector
––––––––––––––––––––––––––––-
1 | 0:00.00 | 2:51.40 | 0 | 12864
2 | 2:51.40 | 3:27.05 | 12865 | 28394
3 | 6:18.45 | 3:11.20 | 28395 | 42739
4 | 9:29.65 | 3:30.17 | 42740 | 58506
5 | 13:00.07 | 3:15.55 | 58507 | 73186
6 | 16:15.62 | 2:33.13 | 73187 | 84674
7 | 18:49.00 | 2:09.62 | 84675 | 94411
8 | 20:58.62 | 4:18.48 | 94412 | 113809
9 | 25:17.35 | 2:48.30 | 113810 | 126439
10 | 28:05.65 | 3:05.52 | 126440 | 140366
11 | 31:11.42 | 5:15.70 | 140367 | 164061
12 | 36:27.37 | 3:28.05 | 164062 | 179666


Range status and errors

Selected range

Filename H:\TORRENTS\Tom Petty\Tom Petty\1995. Tom Petty - Playback (MCA MCAD6-11375, USA, HDCD)\Disc 6\Playback, Disc 6 (Nobody's Children).wav

Peak level 100.0 %
Extraction speed 5.4 X
Range quality 100.0 %
Test CRC D0D0500D
Copy CRC D0D0500D
Copy OK

No errors occurred


AccurateRip summary

Track 1 accurately ripped (confidence 2) [F7C36393] (AR v2)
Track 2 accurately ripped (confidence 2) [EEF15338] (AR v2)
Track 3 accurately ripped (confidence 2) [2F68CC24] (AR v2)
Track 4 accurately ripped (confidence 2) [52A72211] (AR v2)
Track 5 accurately ripped (confidence 2) [86A7D181] (AR v2)
Track 6 accurately ripped (confidence 2) [9E2AA8E2] (AR v2)
Track 7 accurately ripped (confidence 2) [807B6AB3] (AR v2)
Track 8 accurately ripped (confidence 2) [2514A44B] (AR v2)
Track 9 accurately ripped (confidence 2) [F0450811] (AR v2)
Track 10 accurately ripped (confidence 2) [1768C6D0] (AR v2)
Track 11 accurately ripped (confidence 2) [82AD418A] (AR v2)
Track 12 accurately ripped (confidence 2) [6C72B468] (AR v2)

All tracks accurately ripped

End of status report

Tom Petty & The Heartbreakers - Playback (1995) [6CD Box-Set]

All thanks go to snakesharmer