Subcategories
Tags
Language
Tags

Tiamat - The Ark Of The Covenant (2008) [12CD+DVD Box Set]

Posted By: v3122
Tiamat - The Ark Of The Covenant (2008) [12CD+DVD Box Set]

Tiamat - The Ark Of The Covenant (2008)
EAC | Flac(Image) + Cue + Log & MP3 CBR 320Kbps
Century, 9977610 | ~ 2780 or 975 Mb | Scans(jpg) -> 284 Mb
DVD9: NTSC 16:9 (720x480) VBR | AC3 2 & 6 ch / DTS, 6 ch -> 7.58 Gb
Doom Metal, Death Metal, Goth Rock

Limited edition 2008 13 disc (12 CDs + PAL/Region 0 DVD) box set featuring all the albums from the Swedish Metal band released on the Century Media label in one noble solid box with gold foil print plus a DVD: The Church Of Tiamat.. Contains a total of 131 audio tracks, which translates to over 10 hours of head banging playing time! Includes a 64-page booklet with all lyrics.
Tiamat - The Ark Of The Covenant (2008):

Tiamat - The Ark Of The Covenant (2008) [12CD+DVD Box Set]

Tracklist CD01 - The Astral Sleep (1991):

01. Neo Aeon (Intro) [2:12]
02. Lady Temptress [3:47]
03. Mountain Of Doom [4:39]
04. Dead Boys’ Choir [1:55]
05. Sumerian Cry (Part III) [5:18]
06. On Golden Wings [5:01]
07. Ancient Entity [6:19]
08. The Southernmost Voyage [3:14]
09. Angels Far Beyond [4:45]
10. I Am The King (…Of Dreams) [4:36]
11. A Winter Shadows [5:26]
12. The Seal (Outro) [1:53]

Exact Audio Copy V1.0 beta 3 from 29. August 2011

EAC extraction logfile from 27. February 2014, 17:36

Tiamat / The Ark Of The Covenant CD1 - The Astral Sleep [Century Media 9977610/1]

Used drive : TSSTcorpCDDVDW SH-222BB Adapter: 1 ID: 0

Read mode : Secure
Utilize accurate stream : Yes
Defeat audio cache : Yes
Make use of C2 pointers : No

Read offset correction : 6
Overread into Lead-In and Lead-Out : No
Fill up missing offset samples with silence : Yes
Delete leading and trailing silent blocks : No
Null samples used in CRC calculations : Yes
Used interface : Native Win32 interface for Win NT & 2000

Used output format : User Defined Encoder
Selected bitrate : 1024 kBit/s
Quality : High
Add ID3 tag : No
Command line compressor : C:\Program Files\Exact Audio Copy\FLAC\FLAC.EXE
Additional command line options : -V -8 -T "Date=%year%" -T "Genre=%genre%" %source%


TOC of the extracted CD

Track | Start | Length | Start sector | End sector
––––––––––––––––––––––––––––-
1 | 0:00.00 | 2:11.44 | 0 | 9868
2 | 2:11.44 | 3:46.58 | 9869 | 26876
3 | 5:58.27 | 4:38.48 | 26877 | 47774
4 | 10:37.00 | 1:55.26 | 47775 | 56425
5 | 12:32.26 | 5:18.15 | 56426 | 80290
6 | 17:50.41 | 5:00.62 | 80291 | 102852
7 | 22:51.28 | 6:18.38 | 102853 | 131240
8 | 29:09.66 | 3:14.22 | 131241 | 145812
9 | 32:24.13 | 4:44.42 | 145813 | 167154
10 | 37:08.55 | 4:36.32 | 167155 | 187886
11 | 41:45.12 | 5:26.00 | 187887 | 212336
12 | 47:11.12 | 1:53.14 | 212337 | 220825


Range status and errors

Selected range

Filename C:\Users\inotuh\Desktop\Tiamat - The Ark Of The Covenant CD1 - The Astral Sleep [Century Media 9977610,1].wav

Peak level 98.7 %
Extraction speed 7.1 X
Range quality 100.0 %
Test CRC 940818AF
Copy CRC 940818AF
Copy OK

No errors occurred


AccurateRip summary

Track 1 accurately ripped (confidence 9) [7D623AE8] (AR v1)
Track 2 accurately ripped (confidence 9) [FEE52F81] (AR v1)
Track 3 accurately ripped (confidence 9) [A8D3E192] (AR v1)
Track 4 accurately ripped (confidence 9) [D888B571] (AR v1)
Track 5 accurately ripped (confidence 9) [ECA47AE0] (AR v1)
Track 6 accurately ripped (confidence 9) [AC665EDB] (AR v1)
Track 7 accurately ripped (confidence 9) [228CD954] (AR v1)
Track 8 accurately ripped (confidence 9) [7EE37273] (AR v1)
Track 9 accurately ripped (confidence 9) [B762A15A] (AR v1)
Track 10 accurately ripped (confidence 9) [800D44D6] (AR v1)
Track 11 accurately ripped (confidence 9) [3D3152AD] (AR v1)
Track 12 accurately ripped (confidence 9) [CEB1204F] (AR v1)

All tracks accurately ripped

End of status report

–– CUETools DB Plugin V2.1.5

[CTDB TOCID: MBClBSp2x.X6MAafMt5dKAYGmIU-] found
Submit result: MBClBSp2x.X6MAafMt5dKAYGmIU- has been confirmed
Track | CTDB Status
1 | (3/3) Accurately ripped
2 | (3/3) Accurately ripped
3 | (3/3) Accurately ripped
4 | (3/3) Accurately ripped
5 | (3/3) Accurately ripped
6 | (3/3) Accurately ripped
7 | (3/3) Accurately ripped
8 | (3/3) Accurately ripped
9 | (3/3) Accurately ripped
10 | (3/3) Accurately ripped
11 | (3/3) Accurately ripped
12 | (3/3) Accurately ripped


==== Log checksum 8EEEED16C506A79A2D5FA7C26028FCC4B94FD85456C3133BC8998253764DBA7E ====


[CUETools log; Date: 06.08.2018 21:41:15; Version: 2.1.5]
[CTDB TOCID: MBClBSp2x.X6MAafMt5dKAYGmIU-] found.
Track | CTDB Status
1 | (14/14) Accurately ripped
2 | (14/14) Accurately ripped
3 | (14/14) Accurately ripped
4 | (14/14) Accurately ripped
5 | (14/14) Accurately ripped
6 | (14/14) Accurately ripped
7 | (14/14) Accurately ripped
8 | (14/14) Accurately ripped
9 | (14/14) Accurately ripped
10 | (14/14) Accurately ripped
11 | (14/14) Accurately ripped
12 | (14/14) Accurately ripped
[AccurateRip ID: 00153326-00cadc3b-930b800c] found.
Track [ CRC | V2 ] Status
01 [7d623ae8|eae98685] (09+06/15) Accurately ripped
02 [fee52f81|cf86c2a8] (09+06/15) Accurately ripped
03 [a8d3e192|294a33a8] (09+06/15) Accurately ripped
04 [d888b571|8ea8d60e] (09+06/15) Accurately ripped
05 [eca47ae0|74495aea] (09+06/15) Accurately ripped
06 [ac665edb|7769cb77] (09+06/15) Accurately ripped
07 [228cd954|2b12660c] (09+06/15) Accurately ripped
08 [7ee37273|9ded6abf] (09+06/15) Accurately ripped
09 [b762a15a|b6d56b89] (09+06/15) Accurately ripped
10 [800d44d6|b98145e0] (09+06/15) Accurately ripped
11 [3d3152ad|fd9897e0] (09+06/15) Accurately ripped
12 [ceb1204f|380749ad] (09+06/15) Accurately ripped

Track Peak [ CRC32 ] [W/O NULL] [ LOG ]
– 98,7 [940818AF] [CF917E93] CRC32
01 92,4 [A2B4705D] [DB305307]
02 98,7 [CB10CB08] [13255F8D]
03 98,7 [C064715B] [9BE927F4]
04 98,7 [46F22495] [E5DE7232]
05 98,7 [138C8C5D] [AA28DCB3]
06 98,7 [8F5042F0] [A3E18F93]
07 98,7 [EEE1376E] [E8E5A32C]
08 98,7 [9D192707] [D186A290]
09 98,7 [C4A45497] [E68D5FD5]
10 98,7 [E22CDE3D] [62B0A9CF]
11 98,7 [6BFD6C65] [C3CF7CFD]
12 98,7 [720C596B] [7A6B4E5C]


Tiamat - The Ark Of The Covenant (2008) [12CD+DVD Box Set]

Tracklist CD02 - Clouds (1992):

01. In A Dream [5:13]
02. Clouds [3:40]
03. Smell Of Incense [4:29]
04. A Caress Of Stars [5:27]
05. The Sleeping Beauty [4:11]
06. Forever Burning Flames [4:23]
07. The Scapegoat [4:57]
08. Undressed [7:08]

Exact Audio Copy V1.0 beta 3 from 29. August 2011

EAC extraction logfile from 27. February 2014, 16:17

Tiamat / The Ark Of The Covenant CD2 - Clouds [Century Media 9977610/2]

Used drive : TSSTcorpCDDVDW SH-222BB Adapter: 1 ID: 0

Read mode : Secure
Utilize accurate stream : Yes
Defeat audio cache : Yes
Make use of C2 pointers : No

Read offset correction : 6
Overread into Lead-In and Lead-Out : No
Fill up missing offset samples with silence : Yes
Delete leading and trailing silent blocks : No
Null samples used in CRC calculations : Yes
Used interface : Native Win32 interface for Win NT & 2000

Used output format : User Defined Encoder
Selected bitrate : 1024 kBit/s
Quality : High
Add ID3 tag : No
Command line compressor : C:\Program Files\Exact Audio Copy\FLAC\FLAC.EXE
Additional command line options : -V -8 -T "Date=%year%" -T "Genre=%genre%" %source%


TOC of the extracted CD

Track | Start | Length | Start sector | End sector
––––––––––––––––––––––––––––-
1 | 0:00.00 | 5:12.47 | 0 | 23446
2 | 5:12.47 | 3:40.25 | 23447 | 39971
3 | 8:52.72 | 4:29.23 | 39972 | 60169
4 | 13:22.20 | 5:26.65 | 60170 | 84684
5 | 18:49.10 | 4:10.40 | 84685 | 103474
6 | 22:59.50 | 4:22.60 | 103475 | 123184
7 | 27:22.35 | 4:56.60 | 123185 | 145444
8 | 32:19.20 | 7:08.07 | 145445 | 177551


Range status and errors

Selected range

Filename C:\Users\inotuh\Desktop\Tiamat - The Ark Of The Covenant CD2 - Clouds [Century Media 9977610,2].wav

Peak level 98.8 %
Extraction speed 6.7 X
Range quality 100.0 %
Test CRC D6196745
Copy CRC D6196745
Copy OK

No errors occurred


AccurateRip summary

Track 1 accurately ripped (confidence 5) [5C9CFA25] (AR v2)
Track 2 accurately ripped (confidence 5) [DBDB54B4] (AR v2)
Track 3 accurately ripped (confidence 5) [BF10DA3C] (AR v2)
Track 4 accurately ripped (confidence 5) [E4E9E80F] (AR v2)
Track 5 accurately ripped (confidence 5) [DA65EB22] (AR v2)
Track 6 accurately ripped (confidence 5) [0055B867] (AR v2)
Track 7 accurately ripped (confidence 5) [BD042899] (AR v2)
Track 8 accurately ripped (confidence 5) [4D061CC3] (AR v2)

All tracks accurately ripped

End of status report

–– CUETools DB Plugin V2.1.5

[CTDB TOCID: KkxnIFBl6uae1KF8SfKbqmLwL4Y-] found
Submit result: KkxnIFBl6uae1KF8SfKbqmLwL4Y- has been confirmed
Track | CTDB Status
1 | (46/49) Accurately ripped
2 | (47/49) Accurately ripped
3 | (49/49) Accurately ripped
4 | (49/49) Accurately ripped
5 | (48/49) Accurately ripped
6 | (46/49) Accurately ripped
7 | (46/49) Accurately ripped
8 | (47/49) Accurately ripped


==== Log checksum 950B8F88FA1DFF43DCA7439ECECD1C0784A694BA725A9E5173D71D807665D7AB ====


[CUETools log; Date: 06.08.2018 21:41:47; Version: 2.1.5]
[CTDB TOCID: KkxnIFBl6uae1KF8SfKbqmLwL4Y-] found.
Track | CTDB Status
1 | (342/350) Accurately ripped
2 | (341/350) Accurately ripped
3 | (343/350) Accurately ripped
4 | (343/350) Accurately ripped
5 | (346/350) Accurately ripped
6 | (344/350) Accurately ripped
7 | (339/350) Accurately ripped
8 | (343/350) Accurately ripped
[AccurateRip ID: 000b90ab-004d7285-53093f08] found.
Track [ CRC | V2 ] Status
01 [458fc62a|5c9cfa25] (028+020/162) Accurately ripped
02 [8dc0977f|dbdb54b4] (028+020/163) Accurately ripped
03 [2f02acd4|bf10da3c] (028+020/162) Accurately ripped
04 [87db2c94|e4e9e80f] (028+020/164) Accurately ripped
05 [0e6ebcfd|da65eb22] (028+020/165) Accurately ripped
06 [40dc73ae|0055b867] (028+020/163) Accurately ripped
07 [18355daf|bd042899] (028+020/161) Accurately ripped
08 [66f53802|4d061cc3] (027+018/159) Accurately ripped
Offsetted by -1305:
01 [5fe21492] (003/162) Accurately ripped
02 [64a6e2f6] (003/163) Accurately ripped
03 [4c42f558] (003/162) Accurately ripped
04 [e8e52f51] (003/164) Accurately ripped
05 [a6bac20b] (003/165) Accurately ripped
06 [f5c09303] (003/163) Accurately ripped
07 [287df2eb] (003/161) Accurately ripped
08 [382dc0ca] (003/159) Accurately ripped
Offsetted by -902:
01 [8db37a1a] (002/162) Accurately ripped
02 [718a5659] (002/163) Accurately ripped
03 [b72a01ac] (002/162) Accurately ripped
04 [c8c541b2] (002/164) Accurately ripped
05 [28723d71] (002/165) Accurately ripped
06 [545a26dc] (002/163) Accurately ripped
07 [b1e1bf57] (002/161) Accurately ripped
08 [634dc0c8] (002/159) Accurately ripped
Offsetted by -869:
01 [ad673e72] (003/162) Accurately ripped
02 [ba609d6a] (003/163) Accurately ripped
03 [76dda408] (003/162) Accurately ripped
04 [b08abdcd] (003/164) Accurately ripped
05 [d652e473] (003/165) Accurately ripped
06 [6c9d5b9f] (003/163) Accurately ripped
07 [4e99e13b] (003/161) Accurately ripped
08 [125bfa99] (003/159) Accurately ripped
Offsetted by 10:
01 [f9d5c39a] (004/162) Accurately ripped
02 [08ac30e9] (004/163) Accurately ripped
03 [3a8e716c] (004/162) Accurately ripped
04 [42741be2] (004/164) Accurately ripped
05 [90b2d091] (004/165) Accurately ripped
06 [95ca078c] (004/163) Accurately ripped
07 [cb93f397] (004/161) Accurately ripped
08 [d24edd00] (004/159) Accurately ripped
Offsetted by 669:
01 [c8408122] (041/162) Accurately ripped
02 [c6b8954c] (040/163) Accurately ripped
03 [003c59c0] (038/162) Accurately ripped
04 [cb38e943] (040/164) Accurately ripped
05 [19390df7] (040/165) Accurately ripped
06 [728bfe65] (039/163) Accurately ripped
07 [de6d2403] (038/161) Accurately ripped
08 [652ca40a] (039/159) Accurately ripped
Offsetted by -2528:
01 [73a5812a] (000/162) No match (V2 was not tested)
02 [f84c4b9f] (000/163) No match (V2 was not tested)
03 [2e96f054] (000/162) No match (V2 was not tested)
04 [440875f4] (000/164) No match (V2 was not tested)
05 [6b35013d] (000/165) No match (V2 was not tested)
06 [630da20e] (000/163) No match (V2 was not tested)
07 [2ace222f] (000/161) No match (V2 was not tested)
08 [aea01271] (000/159) No match (V2 was not tested)
Offsetted by -1838:
01 [0a82d05a] (000/162) No match
02 [19cca531] (003/163) Accurately ripped
03 [4b42ed4c] (000/162) No match
04 [8f40f5fa] (000/164) No match
05 [878e4821] (000/165) No match
06 [47167ce4] (000/163) No match
07 [834c89b7] (000/161) No match
08 [96da641e] (000/159) No match
Offsetted by -1801:
01 [d8b8fa12] (000/162) No match
02 [2d679006] (000/163) No match
03 [dc61ab18] (000/162) No match
04 [c1aa0501] (000/164) No match
05 [698a2a2b] (000/165) No match
06 [81525333] (000/163) No match
07 [ce2a812b] (003/161) Accurately ripped
08 [d71aac1f] (000/159) No match
Offsetted by -1790:
01 [389f90da] (003/162) Accurately ripped
02 [9b045261] (000/163) No match
03 [1c48368c] (000/162) No match
04 [0eebd90a] (000/164) No match
05 [f8d50c81] (000/165) No match
06 [debe0f74] (000/163) No match
07 [ad128c77] (000/161) No match
08 [66bf148e] (000/159) No match
Offsetted by -1690:
01 [435b773a] (000/162) No match
02 [68385085] (000/163) No match
03 [8fbde47c] (000/162) No match
04 [58e53216] (000/164) No match
05 [0f7dd049] (000/165) No match
06 [3005d620] (003/163) Accurately ripped
07 [aec46787] (000/161) No match
08 [97db8422] (000/159) No match
Offsetted by -1576:
01 [b0dfc06a] (000/162) No match
02 [7b1c8bd7] (000/163) No match
03 [e02a7274] (000/162) No match
04 [a81b0d5c] (000/164) No match
05 [dc85e2ad] (000/165) No match
06 [f833d236] (000/163) No match
07 [11faae0f] (000/161) No match
08 [ca56a150] (003/159) Accurately ripped
Offsetted by -1558:
01 [c22a889a] (000/162) No match
02 [8b916cc9] (000/163) No match
03 [8e8c6dec] (000/162) No match
04 [f7fb2282] (003/164) Accurately ripped
05 [c7006c51] (000/165) No match
06 [9112a92c] (000/163) No match
07 [21a4ef17] (000/161) No match
08 [583a638c] (000/159) No match
Offsetted by -1556:
01 [196bbb4a] (000/162) No match
02 [70f3beab] (000/163) No match
03 [f741fba4] (003/162) Accurately ripped
04 [1d4cebf8] (000/164) No match
05 [e10e09d5] (000/165) No match
06 [a20ef9f2] (000/163) No match
07 [78b7d9df] (000/161) No match
08 [a0e1eae8] (000/159) No match
Offsetted by -1326:
01 [4bb5805a] (000/162) No match
02 [7c1e8731] (000/163) No match
03 [00d0a54c] (000/162) No match
04 [e10a6bfa] (000/164) No match
05 [952bcc21] (003/165) Accurately ripped
06 [436742e4] (000/163) No match
07 [963751b7] (000/161) No match
08 [3d39b36f] (000/159) No match
Offsetted by 11:
01 [a5765cf2] (000/162) No match (V2 was not tested)
02 [fb5d59da] (000/163) No match (V2 was not tested)
03 [6ee93848] (000/162) No match (V2 was not tested)
04 [d51d009d] (000/164) No match (V2 was not tested)
05 [9db99f53] (000/165) No match (V2 was not tested)
06 [9e482fef] (000/163) No match (V2 was not tested)
07 [f71d68fb] (000/161) No match (V2 was not tested)
08 [f6a4a0b3] (000/159) No match (V2 was not tested)

Track Peak [ CRC32 ] [W/O NULL] [ LOG ]
– 98,8 [D6196745] [955D53C0] CRC32
01 98,8 [8B59C6BF] [5B93129E]
02 98,8 [6D44BF4A] [46243987]
03 98,8 [2E78A0C3] [CCED51DF]
04 98,8 [485C7957] [8ABD23A4]
05 98,8 [7840CB8F] [1B77C818]
06 98,8 [428F6B15] [A03DD288]
07 98,8 [77025AB6] [5DCE9338]
08 98,8 [ECF373CB] [62932D60]


Tiamat - The Ark Of The Covenant (2008) [12CD+DVD Box Set]

Tracklist CD03 - The Sleeping Beauty - Live In Israel (1994):

01. In A Dream [5:01]
02. Ancient Entity [6:33]
03. The Sleeping Beauty [4:31]
04. Mountain Of Doom [5:28]
05. Angels Far Beyond [8:50]

Exact Audio Copy V1.0 beta 3 from 29. August 2011

EAC extraction logfile from 27. February 2014, 16:57

Tiamat / The Ark Of The Covenant CD3 - Live In Israel [Century Media 9977610/3]

Used drive : TSSTcorpCDDVDW SH-222BB Adapter: 1 ID: 0

Read mode : Secure
Utilize accurate stream : Yes
Defeat audio cache : Yes
Make use of C2 pointers : No

Read offset correction : 6
Overread into Lead-In and Lead-Out : No
Fill up missing offset samples with silence : Yes
Delete leading and trailing silent blocks : No
Null samples used in CRC calculations : Yes
Used interface : Native Win32 interface for Win NT & 2000

Used output format : User Defined Encoder
Selected bitrate : 1024 kBit/s
Quality : High
Add ID3 tag : No
Command line compressor : C:\Program Files\Exact Audio Copy\FLAC\FLAC.EXE
Additional command line options : -V -8 -T "Date=%year%" -T "Genre=%genre%" %source%


TOC of the extracted CD

Track | Start | Length | Start sector | End sector
––––––––––––––––––––––––––––-
1 | 0:00.00 | 5:01.15 | 0 | 22589
2 | 5:01.15 | 6:32.42 | 22590 | 52031
3 | 11:33.57 | 4:30.50 | 52032 | 72331
4 | 16:04.32 | 5:28.23 | 72332 | 96954
5 | 21:32.55 | 8:50.20 | 96955 | 136724


Range status and errors

Selected range

Filename C:\Users\inotuh\Desktop\Tiamat - The Ark Of The Covenant CD3 - Live In Israel [Century Media 9977610,3].wav

Peak level 100.0 %
Extraction speed 2.5 X
Range quality 99.9 %
Test CRC 24133BF2
Copy CRC 24133BF2
Copy OK

No errors occurred


AccurateRip summary

Track 1 accurately ripped (confidence 9) [94B652DB] (AR v1)
Track 2 accurately ripped (confidence 9) [AA8C17D7] (AR v1)
Track 3 accurately ripped (confidence 9) [5E86AEBE] (AR v1)
Track 4 accurately ripped (confidence 9) [7973C1C7] (AR v1)
Track 5 accurately ripped (confidence 9) [212090DD] (AR v1)

All tracks accurately ripped

End of status report

–– CUETools DB Plugin V2.1.5

[CTDB TOCID: OvPCOUHXbW60cSVxxMbarpDHdX0-] found
Submit result: OvPCOUHXbW60cSVxxMbarpDHdX0- has been confirmed
Track | CTDB Status
1 | (11/12) Accurately ripped
2 | (11/12) Accurately ripped
3 | (11/12) Accurately ripped
4 | (10/12) Accurately ripped
5 | (10/12) Accurately ripped


==== Log checksum CD18F7130D386999520F95EDE563CA88B5EA1A141FDF97EF97555943B09CE71A ====


[CUETools log; Date: 06.08.2018 21:42:31; Version: 2.1.5]
[CTDB TOCID: OvPCOUHXbW60cSVxxMbarpDHdX0-] found.
Track | CTDB Status
1 | (55/57) Accurately ripped
2 | (52/57) Accurately ripped
3 | (54/57) Accurately ripped, or (3/57) differs in 2638 samples @00:50:56,00:54:22,01:24:07,01:42:45,01:43:47,01:46:29,01:49:61,01:54:22-01:54:23,01:54:74,01:55:37-01:55:38,01:55:50-01:55:51,01:56:01-01:56:02,01:56:53-01:56:54,01:57:03-01:57:04,01:57:55-01:57:56,01:58:06-01:58:07,01:58:19,01:58:33,01:58:45-01:58:46,01:59:48,01:59:61,01:59:73-01:59:74,02:00:24-02:00:25,02:00:63-02:00:64,02:01:27-02:01:28,02:02:30-02:02:31,02:03:06-02:03:07,02:03:32,02:03:71-02:03:72,02:04:35-02:04:36,02:05:38-02:05:39,02:06:03,02:07:17,02:07:69,02:08:59-02:08:60,02:09:24,02:09:36,02:09:49,02:11:03-02:11:04,02:11:16-02:11:17,02:11:42,02:13:35,02:14:38,02:16:44
4 | (53/57) Accurately ripped
5 | (55/57) Accurately ripped
[AccurateRip ID: 0005ceda-001b6692-41071f05] found.
Track [ CRC | V2 ] Status
01 [94b652db|8628b311] (09+06/50) Accurately ripped
02 [aa8c17d7|e13908c8] (09+06/44) Accurately ripped
03 [5e86aebe|1c21fe6b] (09+06/48) Accurately ripped
04 [7973c1c7|6205fb8e] (09+06/47) Accurately ripped
05 [212090dd|b23028b4] (09+06/47) Accurately ripped
Offsetted by 699:
01 [361e2294] (09/50) Accurately ripped
02 [6b93e0ad] (09/44) Accurately ripped
03 [0d324a86] (09/48) Accurately ripped
04 [05903e64] (09/47) Accurately ripped
05 [8a287953] (09/47) Accurately ripped
Offsetted by 1171:
01 [f7f1e826] (11/50) Accurately ripped
02 [1f0cc1a3] (07/44) Accurately ripped
03 [a690feda] (10/48) Accurately ripped
04 [f6dc8d10] (09/47) Accurately ripped
05 [7bb122a7] (08/47) Accurately ripped
Offsetted by -2038:
01 [5ed8158c] (00/50) No match (V2 was not tested)
02 [c843e4d5] (00/44) No match (V2 was not tested)
03 [68b3b7c9] (00/48) No match (V2 was not tested)
04 [a1a4b8d0] (00/47) No match (V2 was not tested)
05 [d773de7a] (00/47) No match (V2 was not tested)
Offsetted by -179:
01 [39c59bfe] (00/50) No match (V2 was not tested)
02 [d7a305a0] (00/44) No match (V2 was not tested)
03 [9c0daf19] (00/48) No match (V2 was not tested)
04 [88eb7bd7] (00/47) No match (V2 was not tested)
05 [fefcc7dc] (00/47) No match (V2 was not tested)
Offsetted by 30:
01 [68ebe969] (00/50) No match (V2 was not tested)
02 [d4d48afa] (00/44) No match (V2 was not tested)
03 [536b1cd3] (00/48) No match (V2 was not tested)
04 [f4067b7c] (00/47) No match (V2 was not tested)
05 [93f276f6] (00/47) No match (V2 was not tested)

Track Peak [ CRC32 ] [W/O NULL] [ LOG ]
– 100,0 [24133BF2] [BA1947DE] CRC32
01 95,7 [4D066EF2] [B3F1EBF5]
02 96,9 [B773F591] [D707181C]
03 100,0 [1E39EAA9] [3D2E0106]
04 96,0 [45263C16] [08B621ED]
05 100,0 [A71C85F4] [B61B7077]


Tiamat - The Ark Of The Covenant (2008) [12CD+DVD Box Set]

Tracklist CD04 - Wildhoney (1994):

01. Wildhoney [0:56]
02. Whatever That Hurts [5:50]
03. The Ar [5:07]
04. 25Th Floor [1:52]
05. Gaia [6:29]
06. Visionaire [4:22]
07. Kaleidoscope [1:22]
08. Do You Dream Of Me? [5:09]
09. Planets [3:15]
10. A Pocket Size Sun [8:04]

Exact Audio Copy V1.0 beta 3 from 29. August 2011

EAC extraction logfile from 17. February 2014, 20:51

Tiamat / The Ark Of The Covenant CD4 - Wildhoney [Century Media 9977610/4]

Used drive : TSSTcorpCDDVDW SH-222BB Adapter: 1 ID: 0

Read mode : Secure
Utilize accurate stream : Yes
Defeat audio cache : Yes
Make use of C2 pointers : No

Read offset correction : 6
Overread into Lead-In and Lead-Out : No
Fill up missing offset samples with silence : Yes
Delete leading and trailing silent blocks : No
Null samples used in CRC calculations : Yes
Used interface : Native Win32 interface for Win NT & 2000

Used output format : User Defined Encoder
Selected bitrate : 1024 kBit/s
Quality : High
Add ID3 tag : No
Command line compressor : C:\Program Files\Exact Audio Copy\FLAC\FLAC.EXE
Additional command line options : -V -8 -T "Date=%year%" -T "Genre=%genre%" %source%


TOC of the extracted CD

Track | Start | Length | Start sector | End sector
––––––––––––––––––––––––––––-
1 | 0:00.00 | 0:55.67 | 0 | 4191
2 | 0:55.67 | 5:50.16 | 4192 | 30457
3 | 6:46.08 | 5:06.41 | 30458 | 53448
4 | 11:52.49 | 1:52.07 | 53449 | 61855
5 | 13:44.56 | 6:29.17 | 61856 | 91047
6 | 20:13.73 | 4:21.53 | 91048 | 110675
7 | 24:35.51 | 1:22.11 | 110676 | 116836
8 | 25:57.62 | 5:08.61 | 116837 | 139997
9 | 31:06.48 | 3:15.11 | 139998 | 154633
10 | 34:21.59 | 8:04.25 | 154634 | 190958


Range status and errors

Selected range

Filename C:\Users\inotuh\Desktop\Tiamat - The Ark Of The Covenant CD4 - Wildhoney [Century Media 9977610,4].wav

Peak level 98.8 %
Extraction speed 2.7 X
Range quality 99.9 %
Test CRC B82E1CC0
Copy CRC B82E1CC0
Copy OK

No errors occurred


AccurateRip summary

Track 1 accurately ripped (confidence 8) [A20B3236] (AR v1)
Track 2 accurately ripped (confidence 8) [81A97CEE] (AR v1)
Track 3 accurately ripped (confidence 8) [1F239745] (AR v1)
Track 4 accurately ripped (confidence 8) [3BEB6492] (AR v1)
Track 5 accurately ripped (confidence 8) [6554A55B] (AR v1)
Track 6 accurately ripped (confidence 8) [E8B77F1C] (AR v1)
Track 7 accurately ripped (confidence 8) [C893A7A3] (AR v1)
Track 8 accurately ripped (confidence 8) [ED087E7F] (AR v1)
Track 9 accurately ripped (confidence 8) [5A4DFEE9] (AR v1)
Track 10 accurately ripped (confidence 8) [76021972] (AR v1)

All tracks accurately ripped

End of status report

–– CUETools DB Plugin V2.1.5

[CTDB TOCID: b4JB4MjUlFh_9QKu4uE402mrct0-] found
Submit result: b4JB4MjUlFh_9QKu4uE402mrct0- has been confirmed
Track | CTDB Status
1 | (3/3) Accurately ripped
2 | (3/3) Accurately ripped
3 | (3/3) Accurately ripped
4 | (3/3) Accurately ripped
5 | (3/3) Accurately ripped
6 | (3/3) Accurately ripped
7 | (3/3) Accurately ripped
8 | (3/3) Accurately ripped
9 | (3/3) Accurately ripped
10 | (3/3) Accurately ripped


==== Log checksum 1455662DCF6046FBD677C7231B17EB73B723B7D801814B89AC5776E4ADAFEE95 ====


[CUETools log; Date: 06.08.2018 21:42:52; Version: 2.1.5]
[CTDB TOCID: b4JB4MjUlFh_9QKu4uE402mrct0-] found.
Track | CTDB Status
1 | (15/15) Accurately ripped
2 | (15/15) Accurately ripped
3 | (15/15) Accurately ripped
4 | (15/15) Accurately ripped
5 | (15/15) Accurately ripped
6 | (15/15) Accurately ripped
7 | (15/15) Accurately ripped
8 | (15/15) Accurately ripped
9 | (15/15) Accurately ripped
10 | (15/15) Accurately ripped
[AccurateRip ID: 000e8efb-0076cbce-8809f20a] found.
Track [ CRC | V2 ] Status
01 [a20b3236|dd592757] (08+08/16) Accurately ripped
02 [81a97cee|a061eb7a] (08+08/16) Accurately ripped
03 [1f239745|35548f97] (08+08/16) Accurately ripped
04 [3beb6492|905feecc] (08+08/16) Accurately ripped
05 [6554a55b|e5039920] (08+08/16) Accurately ripped
06 [e8b77f1c|436c378b] (08+08/16) Accurately ripped
07 [c893a7a3|4852da21] (08+08/16) Accurately ripped
08 [ed087e7f|640da870] (08+08/16) Accurately ripped
09 [5a4dfee9|ed048cee] (08+08/16) Accurately ripped
10 [76021972|5c6356d3] (08+08/16) Accurately ripped

Track Peak [ CRC32 ] [W/O NULL] [ LOG ]
– 98,8 [B82E1CC0] [9984257D] CRC32
01 65,2 [46777BDE] [241CAB0B]
02 98,5 [28AC4787] [092280B1]
03 98,5 [4198E13E] [55A823E0]
04 98,0 [82A7CF81] [BE63F2CE]
05 98,8 [2C27B850] [48A7175B]
06 98,4 [65AF9D02] [58946939]
07 97,5 [26C6DB25] [B0246716]
08 98,0 [A63766E1] [3CFDDB88]
09 97,9 [B482E305] [0CC8E3F7]
10 98,8 [A8EB0B59] [824A4F08]


Tiamat - The Ark Of The Covenant (2008) [12CD+DVD Box Set]

Tracklist CD05 - Gaia (1994):

01. Gaia (Video Edit) [3:47]
02. The Ar (Radio Edit) [3:27]
03. When You’Re In (Pink Floyd Cover) [5:51]
04. Whatever That Hurts (Video Edit) [4:22]
05. The Ar (Ind. Mix) [2:31]
06. Visionaire (Remixed Longform Version) [4:54]

Exact Audio Copy V1.0 beta 3 from 29. August 2011

EAC extraction logfile from 13. March 2014, 15:11

Tiamat / The Ark Of The Covenant CD5 - Gaia [Century Media 9977610/5]

Used drive : TSSTcorpCDDVDW SH-222BB Adapter: 1 ID: 0

Read mode : Secure
Utilize accurate stream : Yes
Defeat audio cache : Yes
Make use of C2 pointers : No

Read offset correction : 6
Overread into Lead-In and Lead-Out : No
Fill up missing offset samples with silence : Yes
Delete leading and trailing silent blocks : No
Null samples used in CRC calculations : Yes
Used interface : Native Win32 interface for Win NT & 2000

Used output format : User Defined Encoder
Selected bitrate : 1024 kBit/s
Quality : High
Add ID3 tag : No
Command line compressor : C:\Program Files\Exact Audio Copy\FLAC\FLAC.EXE
Additional command line options : -V -8 -T "Date=%year%" -T "Genre=%genre%" %source%


TOC of the extracted CD

Track | Start | Length | Start sector | End sector
––––––––––––––––––––––––––––-
1 | 0:00.00 | 3:46.66 | 0 | 17015
2 | 3:46.66 | 3:27.20 | 17016 | 32560
3 | 7:14.11 | 5:51.20 | 32561 | 58905
4 | 13:05.31 | 4:21.57 | 58906 | 78537
5 | 17:27.13 | 2:30.67 | 78538 | 89854
6 | 19:58.05 | 4:54.08 | 89855 | 111912


Range status and errors

Selected range

Filename C:\Users\inotuh\Desktop\Tiamat - The Ark Of The Covenant CD5 - Gaia [Century Media 9977610,5].wav

Peak level 98.8 %
Extraction speed 2.4 X
Range quality 100.0 %
Test CRC 88101063
Copy CRC 88101063
Copy OK

No errors occurred


AccurateRip summary

Track 1 accurately ripped (confidence 8) [639A4529] (AR v1)
Track 2 accurately ripped (confidence 8) [416284E7] (AR v1)
Track 3 accurately ripped (confidence 8) [3E76E959] (AR v1)
Track 4 accurately ripped (confidence 8) [91C91F6F] (AR v1)
Track 5 accurately ripped (confidence 8) [512B0D12] (AR v1)
Track 6 accurately ripped (confidence 8) [65C261EC] (AR v1)

All tracks accurately ripped

End of status report

–– CUETools DB Plugin V2.1.5

[CTDB TOCID: GAV.i2YylEFkc.Q_T_Z_VBBLNnY-] found
Submit result: GAV.i2YylEFkc.Q_T_Z_VBBLNnY- has been confirmed
Track | CTDB Status
1 | (3/3) Accurately ripped
2 | (3/3) Accurately ripped
3 | (3/3) Accurately ripped
4 | (3/3) Accurately ripped
5 | (3/3) Accurately ripped
6 | (3/3) Accurately ripped


==== Log checksum 5DC9B80EC55E47CC858D2D6FB78A7DA6DAD24901DF6D9D78C631B2078412289E ====


[CUETools log; Date: 06.08.2018 21:43:09; Version: 2.1.5]
[CTDB TOCID: GAV.i2YylEFkc.Q_T_Z_VBBLNnY-] found.
Track | CTDB Status
1 | (12/12) Accurately ripped
2 | (12/12) Accurately ripped
3 | (12/12) Accurately ripped
4 | (12/12) Accurately ripped
5 | (12/12) Accurately ripped
6 | (12/12) Accurately ripped
[AccurateRip ID: 0005eeb5-001fc6f7-4205d406] found.
Track [ CRC | V2 ] Status
01 [639a4529|0e3f84db] (08+06/14) Accurately ripped
02 [416284e7|f14fd349] (08+06/14) Accurately ripped
03 [3e76e959|a87deb1a] (08+06/14) Accurately ripped
04 [91c91f6f|2d3d73d5] (08+06/14) Accurately ripped
05 [512b0d12|db37161e] (08+06/14) Accurately ripped
06 [65c261ec|c9566787] (08+06/14) Accurately ripped

Track Peak [ CRC32 ] [W/O NULL] [ LOG ]
– 98,8 [88101063] [F55F89D6] CRC32
01 98,8 [A4A05281] [40B142B6]
02 98,8 [D91DDE36] [6D412233]
03 98,0 [4168AD1D] [661CD7B9]
04 98,6 [6201CAC5] [98F8BE7A]
05 98,8 [A58B21CE] [9CCF9A5C]
06 98,8 [909B01EA] [45B2889E]


Tiamat - The Ark Of The Covenant (2008) [12CD+DVD Box Set]

Tracklist CD06 - Wildlife (Wild-Live In Stockholm) (1995):

01. Whatever That Hurts [5:46]
02. The Ar [4:55]
03. In A Dream [4:34]
04. 25th Floor [1:02]
05. Gaia [6:23]
06. Visionaire [4:11]
07. Kaleidoscope [0:32]
08. Do You Dream Of Me? [3:29]
09. The Sleeping Beauty [4:28]
10. A Pocket Size Sun [8:41]

Exact Audio Copy V1.0 beta 3 from 29. August 2011

EAC extraction logfile from 13. March 2014, 15:55

Tiamat / The Ark Of The Covenant CD6 - Wildlife [Century Media 9977610/6]

Used drive : TSSTcorpCDDVDW SH-222BB Adapter: 1 ID: 0

Read mode : Secure
Utilize accurate stream : Yes
Defeat audio cache : Yes
Make use of C2 pointers : No

Read offset correction : 6
Overread into Lead-In and Lead-Out : No
Fill up missing offset samples with silence : Yes
Delete leading and trailing silent blocks : No
Null samples used in CRC calculations : Yes
Used interface : Native Win32 interface for Win NT & 2000

Used output format : User Defined Encoder
Selected bitrate : 1024 kBit/s
Quality : High
Add ID3 tag : No
Command line compressor : C:\Program Files\Exact Audio Copy\FLAC\FLAC.EXE
Additional command line options : -V -8 -T "Date=%year%" -T "Genre=%genre%" %source%


TOC of the extracted CD

Track | Start | Length | Start sector | End sector
––––––––––––––––––––––––––––-
1 | 0:00.00 | 5:46.09 | 0 | 25958
2 | 5:46.09 | 4:55.01 | 25959 | 48084
3 | 10:41.10 | 4:33.60 | 48085 | 68619
4 | 15:14.70 | 1:02.24 | 68620 | 73293
5 | 16:17.19 | 6:23.12 | 73294 | 102030
6 | 22:40.31 | 4:10.47 | 102031 | 120827
7 | 26:51.03 | 0:31.41 | 120828 | 123193
8 | 27:22.44 | 3:28.60 | 123194 | 138853
9 | 30:51.29 | 4:28.11 | 138854 | 158964
10 | 35:19.40 | 8:40.46 | 158965 | 198010
11 | 46:32.11 | 12:20.65 | 209411 | 264975


Range status and errors

Selected range

Filename C:\Users\inotuh\Desktop\Tiamat - The Ark Of The Covenant CD6 - Wildlife [Century Media 9977610,6].wav

Peak level 99.9 %
Extraction speed 6.9 X
Range quality 100.0 %
Test CRC 7FCDDEE0
Copy CRC 7FCDDEE0
Copy OK

No errors occurred


AccurateRip summary

Track 1 accurately ripped (confidence 5) [4440DA26] (AR v2)
Track 2 accurately ripped (confidence 5) [73C9BA62] (AR v2)
Track 3 accurately ripped (confidence 5) [0E62D900] (AR v2)
Track 4 accurately ripped (confidence 5) [D2235365] (AR v2)
Track 5 accurately ripped (confidence 5) [260DA385] (AR v2)
Track 6 accurately ripped (confidence 5) [1E529CA2] (AR v2)
Track 7 accurately ripped (confidence 5) [0CDDC993] (AR v2)
Track 8 accurately ripped (confidence 5) [6B25BFD1] (AR v2)
Track 9 accurately ripped (confidence 5) [3140FA28] (AR v2)
Track 10 accurately ripped (confidence 5) [8C5C68E2] (AR v2)

All tracks accurately ripped

End of status report

–– CUETools DB Plugin V2.1.5

[CTDB TOCID: l.4iarWG_ZhpV77rsHM5xLsAKjo-] found
Submit result: l.4iarWG_ZhpV77rsHM5xLsAKjo- has been confirmed
Track | CTDB Status
1 | (12/12) Accurately ripped
2 | (12/12) Accurately ripped
3 | (12/12) Accurately ripped
4 | (12/12) Accurately ripped
5 | (12/12) Accurately ripped
6 | (12/12) Accurately ripped
7 | (12/12) Accurately ripped
8 | (12/12) Accurately ripped
9 | (12/12) Accurately ripped
10 | (12/12) Accurately ripped


==== Log checksum 927ABD48303407B35B5B3FC5D7080FA4B16B5AA910BDEADA63906D478A25CDE4 ====


[CUETools log; Date: 06.08.2018 21:51:07; Version: 2.1.5]
CD-Extra data track length 12:20:65.
[CTDB TOCID: l.4iarWG_ZhpV77rsHM5xLsAKjo-] found.
Track | CTDB Status
1 | (41/41) Accurately ripped
2 | (41/41) Accurately ripped
3 | (41/41) Accurately ripped
4 | (41/41) Accurately ripped
5 | (41/41) Accurately ripped
6 | (41/41) Accurately ripped
7 | (41/41) Accurately ripped
8 | (41/41) Accurately ripped
9 | (41/41) Accurately ripped
10 | (41/41) Accurately ripped
[AccurateRip ID: 001129c6-0089dbea-9a0dcd0b] found.
Track [ CRC | V2 ] Status
01 [73ca910b|4440da26] (19+18/37) Accurately ripped
02 [99e542de|73c9ba62] (20+18/38) Accurately ripped
03 [e9b99c46|0e62d900] (20+18/38) Accurately ripped
04 [952e6c70|d2235365] (20+18/38) Accurately ripped
05 [301bb306|260da385] (20+18/38) Accurately ripped
06 [f519a09c|1e529ca2] (20+18/38) Accurately ripped
07 [65d1a1d5|0cddc993] (20+18/38) Accurately ripped
08 [5788fff6|6b25bfd1] (19+18/37) Accurately ripped
09 [1fb15aa5|3140fa28] (20+18/38) Accurately ripped
10 [9bb5ddad|8c5c68e2] (20+17/37) Accurately ripped
Offsetted by 6:
01 [f6e5d8a1] (00/37) No match
02 [30742eb1] (00/38) No match
03 [88220383] (00/38) No match
04 [97006684] (00/38) No match
05 [f26830e3] (00/38) No match
06 [4410d65d] (00/38) No match
07 [131d256b] (00/38) No match
08 [883f4c6a] (00/37) No match (V2 was not tested)
09 [954da799] (00/38) No match
10 [60042de7] (00/37) No match

Track Peak [ CRC32 ] [W/O NULL] [ LOG ]
– 99,9 [7FCDDEE0] [E1A461F0] CRC32
01 99,9 [3FC41590] [00B51265]
02 99,9 [9BCE6E32] [2F815285]
03 99,9 [EC817032] [FB623601]
04 99,9 [7F346828] [528283A8]
05 99,9 [DDF2EC3D] [CB09112F]
06 99,9 [4E57919B] [2704ED2C]
07 99,9 [1C6A8331] [8F05A599]
08 99,9 [212679A7] [ED5CA717]
09 99,9 [4C395127] [1B37A47D]
10 99,9 [5673F41D] [AB83C066]


Tiamat - The Ark Of The Covenant (2008) [12CD+DVD Box Set]

Tracklist CD07 - A Deeper Kind Of Slumber (1997):

01. Cold Seed [3:54]
02. Teonanacatl [4:19]
03. Trillion Zillion Centipedes [1:32]
04. The Desolate One [3:46]
05. Atlantis As A Lover [5:30]
06. Alteration X 10 [5:11]
07. Four Leary Biscuits [4:05]
08. Only In My Tears It Lasts [4:50]
09. The Whores Of Babylon [3:55]
10. Kite [2:04]
11. Phantasma De Luxe [4:59]
12. Mount Marilyn [10:36]
13. A Deeper Kind Of Slumber [5:47]

Exact Audio Copy V1.0 beta 3 from 29. August 2011

EAC extraction logfile from 13. March 2014, 16:33

Tiamat / The Ark Of The Covenant CD7 - A Deeper Kind Of Slumber [Century Media 9977610/7]

Used drive : TSSTcorpCDDVDW SH-222BB Adapter: 1 ID: 0

Read mode : Secure
Utilize accurate stream : Yes
Defeat audio cache : Yes
Make use of C2 pointers : No

Read offset correction : 6
Overread into Lead-In and Lead-Out : No
Fill up missing offset samples with silence : Yes
Delete leading and trailing silent blocks : No
Null samples used in CRC calculations : Yes
Used interface : Native Win32 interface for Win NT & 2000

Used output format : User Defined Encoder
Selected bitrate : 1024 kBit/s
Quality : High
Add ID3 tag : No
Command line compressor : C:\Program Files\Exact Audio Copy\FLAC\FLAC.EXE
Additional command line options : -V -8 -T "Date=%year%" -T "Genre=%genre%" %source%


TOC of the extracted CD

Track | Start | Length | Start sector | End sector
––––––––––––––––––––––––––––-
1 | 0:00.00 | 3:53.68 | 0 | 17542
2 | 3:53.68 | 4:19.21 | 17543 | 36988
3 | 8:13.14 | 1:31.42 | 36989 | 43855
4 | 9:44.56 | 3:45.43 | 43856 | 60773
5 | 13:30.24 | 5:30.08 | 60774 | 85531
6 | 19:00.32 | 5:10.50 | 85532 | 108831
7 | 24:11.07 | 4:05.14 | 108832 | 127220
8 | 28:16.21 | 4:49.73 | 127221 | 148968
9 | 33:06.19 | 3:55.34 | 148969 | 166627
10 | 37:01.53 | 2:03.64 | 166628 | 175916
11 | 39:05.42 | 4:59.34 | 175917 | 198375
12 | 44:05.01 | 10:35.44 | 198376 | 246044
13 | 54:40.45 | 5:46.49 | 246045 | 272043


Range status and errors

Selected range

Filename C:\Users\inotuh\Desktop\Tiamat - The Ark Of The Covenant CD7 - A Deeper Kind Of Slumber [Century Media 9977610,7].wav

Peak level 100.0 %
Extraction speed 7.8 X
Range quality 100.0 %
Test CRC 54FA4319
Copy CRC 54FA4319
Copy OK

No errors occurred


AccurateRip summary

Track 1 accurately ripped (confidence 8) [9276E934] (AR v1)
Track 2 accurately ripped (confidence 8) [94D98B38] (AR v1)
Track 3 accurately ripped (confidence 8) [53145919] (AR v1)
Track 4 accurately ripped (confidence 8) [C52ED04D] (AR v1)
Track 5 accurately ripped (confidence 8) [AC1A57E4] (AR v1)
Track 6 accurately ripped (confidence 8) [C522E89A] (AR v1)
Track 7 accurately ripped (confidence 8) [FD9A905C] (AR v1)
Track 8 accurately ripped (confidence 8) [DF99B9D4] (AR v1)
Track 9 accurately ripped (confidence 8) [B1A5A72D] (AR v1)
Track 10 accurately ripped (confidence 8) [BCB2D7E6] (AR v1)
Track 11 accurately ripped (confidence 8) [2A06EED6] (AR v1)
Track 12 accurately ripped (confidence 8) [60274700] (AR v1)
Track 13 accurately ripped (confidence 8) [A8180DEA] (AR v1)

All tracks accurately ripped

End of status report

–– CUETools DB Plugin V2.1.5

[CTDB TOCID: KSizgDDhfTwtCWBpbaOGxgUgWKY-] found
Submit result: KSizgDDhfTwtCWBpbaOGxgUgWKY- has been confirmed
Track | CTDB Status
1 | (3/3) Accurately ripped
2 | (3/3) Accurately ripped
3 | (3/3) Accurately ripped
4 | (3/3) Accurately ripped
5 | (3/3) Accurately ripped
6 | (3/3) Accurately ripped
7 | (3/3) Accurately ripped
8 | (3/3) Accurately ripped
9 | (3/3) Accurately ripped
10 | (3/3) Accurately ripped
11 | (3/3) Accurately ripped
12 | (3/3) Accurately ripped
13 | (3/3) Accurately ripped


==== Log checksum 5EFF6C401B30CC1516C6BC20BBA6935A1D761A7A17E8B97B42910AC7FFE117C6 ====


[CUETools log; Date: 06.08.2018 21:51:36; Version: 2.1.5]
[CTDB TOCID: KSizgDDhfTwtCWBpbaOGxgUgWKY-] found.
Track | CTDB Status
1 | (12/12) Accurately ripped
2 | (12/12) Accurately ripped
3 | (12/12) Accurately ripped
4 | (12/12) Accurately ripped
5 | (12/12) Accurately ripped
6 | (12/12) Accurately ripped
7 | (12/12) Accurately ripped
8 | (12/12) Accurately ripped
9 | (12/12) Accurately ripped
10 | (12/12) Accurately ripped
11 | (12/12) Accurately ripped
12 | (12/12) Accurately ripped
13 | (12/12) Accurately ripped
[AccurateRip ID: 0019c496-01072ebd-be0e2b0d] found.
Track [ CRC | V2 ] Status
01 [9276e934|81c31363] (08+06/14) Accurately ripped
02 [94d98b38|86d71f7f] (08+06/14) Accurately ripped
03 [53145919|30717941] (08+06/14) Accurately ripped
04 [c52ed04d|737bfde1] (08+06/14) Accurately ripped
05 [ac1a57e4|6425a967] (08+06/14) Accurately ripped
06 [c522e89a|a7718da9] (08+06/14) Accurately ripped
07 [fd9a905c|380dd199] (08+06/14) Accurately ripped
08 [df99b9d4|40b33509] (08+06/14) Accurately ripped
09 [b1a5a72d|1046b8bd] (08+06/14) Accurately ripped
10 [bcb2d7e6|9f3ad3f5] (08+06/14) Accurately ripped
11 [2a06eed6|75a71289] (08+06/14) Accurately ripped
12 [60274700|979e4ad1] (08+06/14) Accurately ripped
13 [a8180dea|b6260814] (08+06/14) Accurately ripped

Track Peak [ CRC32 ] [W/O NULL] [ LOG ]
– 100,0 [54FA4319] [A045D93B] CRC32
01 98,0 [F886BA4D] [26F686B2]
02 99,2 [F9034BF7] [7B27265D]
03 99,2 [D7D22416] [E31042BC]
04 98,0 [7C652FF4] [735F36D7]
05 98,1 [8D90D3D3] [9B84C473]
06 99,2 [2177DB62] [3D825EE5]
07 98,0 [FD10D065] [2DAFCB2D]
08 98,0 [E796EBB4] [75F36375]
09 98,0 [CB1B2629] [CBFB5B2A]
10 98,0 [E856F102] [EBDEBFD1]
11 100,0 [DF7C9945] [7E1E8AD0]
12 98,1 [9B59D1C1] [3E6B213B]
13 98,0 [2030D554] [2E3DC36D]


Tiamat - The Ark Of The Covenant (2008) [12CD+DVD Box Set]

Tracklist CD08 - Skeleton Skeletron (1999):

01. Church Of Tiamat [4:52]
02. Brighter Than The Sun [4:09]
03. Dust Is Our Fare [5:02]
04. To Have And Have Not [5:09]
05. For Her Pleasure [5:03]
06. Diyala [1:26]
07. Sympathy For The Devil (Rolling Stones Cover) [5:20]
08. Best Friend Money Can Buy [4:36]
09. As Long As You Are Mine [4:40]
10. Lucy [5:18]

Exact Audio Copy V1.0 beta 3 from 29. August 2011

EAC extraction logfile from 13. March 2014, 17:34

Tiamat / The Ark Of The Covenant CD8 - Skeleton Skeletron [Century Media 9977610/8]

Used drive : TSSTcorpCDDVDW SH-222BB Adapter: 1 ID: 0

Read mode : Secure
Utilize accurate stream : Yes
Defeat audio cache : Yes
Make use of C2 pointers : No

Read offset correction : 6
Overread into Lead-In and Lead-Out : No
Fill up missing offset samples with silence : Yes
Delete leading and trailing silent blocks : No
Null samples used in CRC calculations : Yes
Used interface : Native Win32 interface for Win NT & 2000

Used output format : User Defined Encoder
Selected bitrate : 1024 kBit/s
Quality : High
Add ID3 tag : No
Command line compressor : C:\Program Files\Exact Audio Copy\FLAC\FLAC.EXE
Additional command line options : -V -8 -T "Date=%year%" -T "Genre=%genre%" %source%


TOC of the extracted CD

Track | Start | Length | Start sector | End sector
––––––––––––––––––––––––––––-
1 | 0:00.00 | 4:52.32 | 0 | 21931
2 | 4:52.32 | 4:08.40 | 21932 | 40571
3 | 9:00.72 | 5:02.30 | 40572 | 63251
4 | 14:03.27 | 5:09.08 | 63252 | 86434
5 | 19:12.35 | 5:02.72 | 86435 | 109156
6 | 24:15.32 | 1:25.63 | 109157 | 115594
7 | 25:41.20 | 5:19.70 | 115595 | 139589
8 | 31:01.15 | 4:35.62 | 139590 | 160276
9 | 35:37.02 | 4:40.08 | 160277 | 181284
10 | 40:17.10 | 5:17.50 | 181285 | 205109


Range status and errors

Selected range

Filename C:\Users\inotuh\Desktop\Tiamat - The Ark Of The Covenant CD8 - Skeleton Skeletron [Century Media 9977610,8].wav

Peak level 99.4 %
Extraction speed 6.9 X
Range quality 100.0 %
Test CRC BC777E4B
Copy CRC BC777E4B
Copy OK

No errors occurred


AccurateRip summary

Track 1 accurately ripped (confidence 15) [7C713098] (AR v1)
Track 2 accurately ripped (confidence 15) [4E750559] (AR v1)
Track 3 accurately ripped (confidence 15) [B15BB190] (AR v1)
Track 4 accurately ripped (confidence 15) [5094CC04] (AR v1)
Track 5 accurately ripped (confidence 15) [1CE8BBA2] (AR v1)
Track 6 accurately ripped (confidence 15) [CF06A7F5] (AR v1)
Track 7 accurately ripped (confidence 15) [9B88E792] (AR v1)
Track 8 accurately ripped (confidence 15) [F23A4873] (AR v1)
Track 9 accurately ripped (confidence 15) [03045264] (AR v1)
Track 10 accurately ripped (confidence 15) [7930A300] (AR v1)

All tracks accurately ripped

End of status report

–– CUETools DB Plugin V2.1.5

[CTDB TOCID: pn4.5PS73QtQWSVNxrrXnVG7d_s-] found
Submit result: pn4.5PS73QtQWSVNxrrXnVG7d_s- has been confirmed
Track | CTDB Status
1 | (51/51) Accurately ripped
2 | (51/51) Accurately ripped
3 | (49/51) Accurately ripped
4 | (49/51) Accurately ripped
5 | (49/51) Accurately ripped
6 | (49/51) Accurately ripped
7 | (49/51) Accurately ripped
8 | (49/51) Accurately ripped
9 | (49/51) Accurately ripped
10 | (49/51) Accurately ripped


==== Log checksum 4581201D123288CCFDA916C31D65876D1E7458A015B6F1B33B7C8BEBECC89228 ====


[CUETools log; Date: 06.08.2018 21:51:57; Version: 2.1.5]
[CTDB TOCID: pn4.5PS73QtQWSVNxrrXnVG7d_s-] found.
Track | CTDB Status
1 | (223/225) Accurately ripped
2 | (223/225) Accurately ripped
3 | (219/225) Accurately ripped
4 | (219/225) Accurately ripped
5 | (219/225) Accurately ripped
6 | (220/225) Accurately ripped
7 | (218/225) Accurately ripped
8 | (218/225) Accurately ripped
9 | (218/225) Accurately ripped
10 | (218/225) Accurately ripped
[AccurateRip ID: 00112385-00887628-870aae0a] found.
Track [ CRC | V2 ] Status
01 [7c713098|7f4fc4bc] (015+007/173) Accurately ripped
02 [4e750559|2e21a22e] (015+007/172) Accurately ripped
03 [b15bb190|02365ce7] (015+007/173) Accurately ripped
04 [5094cc04|65b47745] (015+007/173) Accurately ripped
05 [1ce8bba2|301e699d] (015+007/173) Accurately ripped
06 [cf06a7f5|cc5342de] (015+007/172) Accurately ripped
07 [9b88e792|96c7d42d] (015+007/171) Accurately ripped
08 [f23a4873|b6c00a77] (015+007/171) Accurately ripped
09 [03045264|a7f018c2] (015+007/171) Accurately ripped
10 [7930a300|6b0654b7] (015+007/170) Accurately ripped
Offsetted by -1845:
01 [b4242daa] (002/173) Accurately ripped
02 [37b4bcba] (002/172) Accurately ripped
03 [818e4c6d] (002/173) Accurately ripped
04 [c5c282a0] (002/173) Accurately ripped
05 [6d95e058] (002/173) Accurately ripped
06 [22d3db32] (002/172) Accurately ripped
07 [a9bdcd3e] (002/171) Accurately ripped
08 [ce77469b] (002/171) Accurately ripped
09 [6680a787] (002/171) Accurately ripped
10 [09fe7924] (002/170) Accurately ripped
Offsetted by 19:
01 [b2d09cda] (008/173) Accurately ripped
02 [4d4dca92] (008/172) Accurately ripped
03 [4948ca54] (008/173) Accurately ripped
04 [51c4dc51] (008/173) Accurately ripped
05 [f3144b0e] (008/173) Accurately ripped
06 [529c3b82] (008/172) Accurately ripped
07 [fe919e95] (007/171) Accurately ripped
08 [9a107892] (008/171) Accurately ripped
09 [522f747c] (008/171) Accurately ripped
10 [c0a84f57] (008/170) Accurately ripped
Offsetted by 686:
01 [500167cc] (059/173) Accurately ripped
02 [ab8e4f63] (058/172) Accurately ripped
03 [e0509cc9] (059/173) Accurately ripped
04 [99b302e5] (059/173) Accurately ripped
05 [5e17dee3] (059/173) Accurately ripped
06 [6b20d23e] (059/172) Accurately ripped
07 [194012e5] (058/171) Accurately ripped
08 [92840c2c] (057/171) Accurately ripped
09 [3d765d6f] (058/171) Accurately ripped
10 [ffe9747b] (057/170) Accurately ripped
Offsetted by -166:
01 [8672dd14] (000/173) No match
02 [a95ff967] (000/172) No match
03 [624ccd07] (000/173) No match (V2 was not tested)
04 [c955200b] (000/173) No match
05 [e7213109] (000/173) No match
06 [876ca3cc] (000/172) No match
07 [67343134] (000/171) No match
08 [016acfc5] (000/171) No match
09 [1106e544] (000/171) No match
10 [d64a04c2] (000/170) No match
Offsetted by -163:
01 [4baa59f6] (000/173) No match
02 [734c4e70] (000/172) No match
03 [a5a8c3cb] (000/173) No match
04 [1f834d68] (000/173) No match (V2 was not tested)
05 [90b3a552] (000/173) No match
06 [8a8d66ec] (000/172) No match
07 [50bbe203] (000/171) No match (V2 was not tested)
08 [d5208dd8] (000/171) No match
09 [e20dda1d] (000/171) No match
10 [a77c0588] (000/170) No match (V2 was not tested)
Offsetted by -162:
01 [e2bcd8ec] (002/173) Accurately ripped
02 [b69b1573] (002/172) Accurately ripped
03 [f5308170] (000/173) No match
04 [a3bfbe4e] (000/173) No match
05 [13456b32] (000/173) No match (V2 was not tested)
06 [e10352b7] (000/172) No match
07 [9e1ac6a5] (000/171) No match
08 [1b8723a8] (000/171) No match (V2 was not tested)
09 [43e0e86c] (000/171) No match
10 [edfbb1ee] (000/170) No match
Offsetted by -161:
01 [79cf57e2] (000/173) No match
02 [f9e9dc76] (000/172) No match
03 [f68f3ea5] (000/173) No match
04 [30ee3564] (000/173) No match
05 [95cc3107] (000/173) No match
06 [37843e8d] (000/172) No match (V2 was not tested)
07 [36725ec9] (000/171) No match
08 [6192b9d6] (000/171) No match
09 [08a8100c] (000/171) No match (V2 was not tested)
10 [34e35f03] (000/170) No match

Track Peak [ CRC32 ] [W/O NULL] [ LOG ]
– 99,4 [BC777E4B] [EA09A548] CRC32
01 99,4 [CD4B36A3] [8F44965A]
02 99,4 [194B92BB] [E82BE114]
03 99,4 [8166C9EC] [D4F8F51F]
04 99,4 [38445DC9] [EAF40918]
05 99,4 [93CD2C44] [E4501CB9]
06 35,2 [6A013E81] [AE6C0F54]
07 99,4 [F0150080] [D0A375A4]
08 99,4 [0BEB2FCD] [BCE694DB]
09 99,4 [47C56DA0] [CECCC29C]
10 99,4 [38F2D421] [607180D9]


Tiamat - The Ark Of The Covenant (2008) [12CD+DVD Box Set]

Tracklist CD09 - Judas Christ (2002):

01. The Return Of The Son Of Nothing [4:59]
02. So Much For Suicide [4:23]
03. Vote For Love [4:50]
04. The Truth's For Sale [4:40]
05. Fireflower [3:46]
06. Sumer By Night [2:37]
07. Love Is As Good As Soma [6:42]
08. Angel Holograms [3:38]
09. Spine [4:05]
10. I Am In Love With Myself [4:22]
11. Heaven Of High [3:52]
12. Too Far Gone [4:50]

Exact Audio Copy V1.0 beta 3 from 29. August 2011

EAC extraction logfile from 13. March 2014, 18:04

Tiamat / The Ark Of The Covenant CD9 - Judas Christ [Century Media 9977610/9]

Used drive : TSSTcorpCDDVDW SH-222BB Adapter: 1 ID: 0

Read mode : Secure
Utilize accurate stream : Yes
Defeat audio cache : Yes
Make use of C2 pointers : No

Read offset correction : 6
Overread into Lead-In and Lead-Out : No
Fill up missing offset samples with silence : Yes
Delete leading and trailing silent blocks : No
Null samples used in CRC calculations : Yes
Used interface : Native Win32 interface for Win NT & 2000

Used output format : User Defined Encoder
Selected bitrate : 1024 kBit/s
Quality : High
Add ID3 tag : No
Command line compressor : C:\Program Files\Exact Audio Copy\FLAC\FLAC.EXE
Additional command line options : -V -8 -T "Date=%year%" -T "Genre=%genre%" %source%


TOC of the extracted CD

Track | Start | Length | Start sector | End sector
––––––––––––––––––––––––––––-
1 | 0:00.00 | 4:58.50 | 0 | 22399
2 | 4:58.50 | 4:22.42 | 22400 | 42091
3 | 9:21.17 | 4:49.43 | 42092 | 63809
4 | 14:10.60 | 4:40.00 | 63810 | 84809
5 | 18:50.60 | 3:46.25 | 84810 | 101784
6 | 22:37.10 | 2:37.15 | 101785 | 113574
7 | 25:14.25 | 6:42.15 | 113575 | 143739
8 | 31:56.40 | 3:38.37 | 143740 | 160126
9 | 35:35.02 | 4:04.38 | 160127 | 178464
10 | 39:39.40 | 4:22.17 | 178465 | 198131
11 | 44:01.57 | 3:51.48 | 198132 | 215504
12 | 47:53.30 | 4:49.47 | 215505 | 237226
13 | 55:15.02 | 8:29.24 | 248627 | 286825


Range status and errors

Selected range

Filename C:\Users\inotuh\Desktop\Tiamat - The Ark Of The Covenant CD9 - Judas Christ [Century Media 9977610,9].wav

Peak level 100.0 %
Extraction speed 7.6 X
Range quality 100.0 %
Test CRC 2F2C1A8F
Copy CRC 2F2C1A8F
Copy OK

No errors occurred


AccurateRip summary

Track 1 accurately ripped (confidence 10) [18984589] (AR v1)
Track 2 accurately ripped (confidence 10) [0A0EB81F] (AR v1)
Track 3 accurately ripped (confidence 10) [66981CC1] (AR v1)
Track 4 accurately ripped (confidence 10) [772D3894] (AR v1)
Track 5 accurately ripped (confidence 10) [9FF5227D] (AR v1)
Track 6 accurately ripped (confidence 10) [679CE0ED] (AR v1)
Track 7 accurately ripped (confidence 10) [6E9B925C] (AR v1)
Track 8 accurately ripped (confidence 10) [AFAC3929] (AR v1)
Track 9 accurately ripped (confidence 10) [C48C4DEC] (AR v1)
Track 10 accurately ripped (confidence 10) [55543897] (AR v1)
Track 11 accurately ripped (confidence 10) [34158714] (AR v1)
Track 12 accurately ripped (confidence 10) [DCB8C0CC] (AR v1)

All tracks accurately ripped

End of status report

–– CUETools DB Plugin V2.1.5

[CTDB TOCID: Ch8q0Ex32akVydMehNg_R5CbZ8c-] found
Submit result: Ch8q0Ex32akVydMehNg_R5CbZ8c- has been confirmed
Track | CTDB Status
1 | (14/14) Accurately ripped
2 | (14/14) Accurately ripped
3 | (14/14) Accurately ripped
4 | (14/14) Accurately ripped
5 | (14/14) Accurately ripped
6 | (14/14) Accurately ripped
7 | (14/14) Accurately ripped
8 | (14/14) Accurately ripped
9 | (14/14) Accurately ripped
10 | (14/14) Accurately ripped
11 | (14/14) Accurately ripped
12 | (14/14) Accurately ripped


==== Log checksum D9027D1205B32AF0712AC4638C85E011D4BE3548994BB5E4C25E1FBE83FB6FF7 ====


[CUETools log; Date: 06.08.2018 21:52:45; Version: 2.1.5]
CD-Extra data track length 08:29:24.
[CTDB TOCID: Ch8q0Ex32akVydMehNg_R5CbZ8c-] found.
Track | CTDB Status
1 | (93/93) Accurately ripped
2 | (93/93) Accurately ripped
3 | (93/93) Accurately ripped
4 | (93/93) Accurately ripped
5 | (93/93) Accurately ripped
6 | (93/93) Accurately ripped
7 | (93/93) Accurately ripped
8 | (93/93) Accurately ripped
9 | (92/93) Accurately ripped
10 | (92/93) Accurately ripped
11 | (93/93) Accurately ripped
12 | (89/93) Accurately ripped, or (2/93) differs in 5419 samples @04:49:24-04:49:29, or (1/93) differs in 9 samples @04:10:40-04:10:41,04:12:20,04:12:57
[AccurateRip ID: 00189603-00e6ce31-a90ef00d] found.
Track [ CRC | V2 ] Status
01 [18984589|c554717f] (10+06/71) Accurately ripped
02 [0a0eb81f|f5b56a85] (10+06/71) Accurately ripped
03 [66981cc1|50be67ce] (10+06/72) Accurately ripped
04 [772d3894|cfbeba3e] (10+06/71) Accurately ripped
05 [9ff5227d|aaf102c6] (10+06/71) Accurately ripped
06 [679ce0ed|1c503abf] (10+06/70) Accurately ripped
07 [6e9b925c|ec9ffa6c] (10+06/71) Accurately ripped
08 [afac3929|323d65c3] (10+06/70) Accurately ripped
09 [c48c4dec|d8034b07] (10+06/70) Accurately ripped
10 [55543897|cd469f86] (10+06/69) Accurately ripped
11 [34158714|ab5c9ce0] (10+06/68) Accurately ripped
12 [dcb8c0cc|93ac028e] (10+04/67) Accurately ripped
Offsetted by -102:
01 [07814018] (02/71) Accurately ripped
02 [65fff5f6] (02/71) Accurately ripped
03 [14deda13] (02/72) Accurately ripped
04 [5dad7c9a] (02/71) Accurately ripped
05 [a1a93e33] (02/71) Accurately ripped
06 [5b5ed795] (02/70) Accurately ripped
07 [3f4fd2f7] (02/71) Accurately ripped
08 [fa5083c2] (02/70) Accurately ripped
09 [ee9e5c0a] (02/70) Accurately ripped
10 [e1719484] (02/69) Accurately ripped
11 [6a3af06c] (02/68) Accurately ripped
12 [d0573fd3] (02/67) Accurately ripped
Offsetted by 30:
01 [06e53556] (27/71) Accurately ripped
02 [55ed6a34] (28/71) Accurately ripped
03 [abce99c7] (29/72) Accurately ripped
04 [d22679b0] (28/71) Accurately ripped
05 [d75ee7d4] (28/71) Accurately ripped
06 [ba96ccee] (28/70) Accurately ripped
07 [9472cd76] (28/71) Accurately ripped
08 [0088e0f0] (28/70) Accurately ripped
09 [bcffb8d9] (28/70) Accurately ripped
10 [37fc929c] (27/69) Accurately ripped
11 [52b52451] (26/68) Accurately ripped
12 [385812ae] (25/67) Accurately ripped

Track Peak [ CRC32 ] [W/O NULL] [ LOG ]
– 100,0 [2F2C1A8F] [ED364FE8] CRC32
01 99,9 [EA93E468] [C389D402]
02 99,9 [C356C062] [E2F6D30E]
03 99,9 [20C654C3] [284A04AD]
04 99,9 [B032C0B1] [FE2B1E0A]
05 99,9 [02408251] [E5B39D5B]
06 99,9 [1783B711] [0BF9F8D9]
07 100,0 [67396F39] [A9372069]
08 99,9 [51D8FCCB] [B33F35DC]
09 99,9 [4C50E14A] [531605A2]
10 99,9 [A07846EA] [0A2C156B]
11 99,9 [5C63F59E] [457041B1]
12 99,9 [AE595930] [4610C8E2]


Tiamat - The Ark Of The Covenant (2008) [12CD+DVD Box Set]

Tracklist CD10 - Prey (2003):

01. Cain [5:25]
02. Ten Thousand Tentacles [1:35]
03. Wings Of Heaven [4:32]
04. Love In Chains [4:24]
05. Divided [5:19]
06. Carry Your Cross And I’ll Carry Mine [4:37]
07. Triple Cross [1:21]
08. Light In Extintion [4:47]
09. Prey [3:32]
10. The Garden Of Heathen [1:25]
11. Clovenhoof [4:55]
12. Nihil [6:10]
13. The Pentagram [7:21]

Exact Audio Copy V1.0 beta 3 from 29. August 2011

EAC extraction logfile from 13. March 2014, 18:38

Tiamat / The Ark Of The Covenant CD10 - Prey [Century Media 9977610/10]

Used drive : TSSTcorpCDDVDW SH-222BB Adapter: 1 ID: 0

Read mode : Secure
Utilize accurate stream : Yes
Defeat audio cache : Yes
Make use of C2 pointers : No

Read offset correction : 6
Overread into Lead-In and Lead-Out : No
Fill up missing offset samples with silence : Yes
Delete leading and trailing silent blocks : No
Null samples used in CRC calculations : Yes
Used interface : Native Win32 interface for Win NT & 2000

Used output format : User Defined Encoder
Selected bitrate : 1024 kBit/s
Quality : High
Add ID3 tag : No
Command line compressor : C:\Program Files\Exact Audio Copy\FLAC\FLAC.EXE
Additional command line options : -V -8 -T "Date=%year%" -T "Genre=%genre%" %source%


TOC of the extracted CD

Track | Start | Length | Start sector | End sector
––––––––––––––––––––––––––––-
1 | 0:00.00 | 5:25.26 | 0 | 24400
2 | 5:25.26 | 1:34.46 | 24401 | 31496
3 | 6:59.72 | 4:32.21 | 31497 | 51917
4 | 11:32.18 | 4:24.30 | 51918 | 71747
5 | 15:56.48 | 5:18.67 | 71748 | 95664
6 | 21:15.40 | 4:37.25 | 95665 | 116464
7 | 25:52.65 | 1:21.04 | 116465 | 122543
8 | 27:13.69 | 4:46.71 | 122544 | 144064
9 | 32:00.65 | 3:31.49 | 144065 | 159938
10 | 35:32.39 | 1:25.14 | 159939 | 166327
11 | 36:57.53 | 4:54.54 | 166328 | 188431
12 | 41:52.32 | 6:09.51 | 188432 | 216157
13 | 48:02.08 | 7:20.63 | 216158 | 249220


Range status and errors

Selected range

Filename C:\Users\inotuh\Desktop\Tiamat - The Ark Of The Covenant CD10 - Prey [Century Media 9977610,10].wav

Peak level 97.7 %
Extraction speed 7.2 X
Range quality 100.0 %
Test CRC 29359CC4
Copy CRC 29359CC4
Copy OK

No errors occurred


AccurateRip summary

Track 1 accurately ripped (confidence 8) [7C3F2B05] (AR v1)
Track 2 accurately ripped (confidence 8) [85578CBB] (AR v1)
Track 3 accurately ripped (confidence 8) [A792C8C0] (AR v1)
Track 4 accurately ripped (confidence 8) [97C98E87] (AR v1)
Track 5 accurately ripped (confidence 8) [E2C3878D] (AR v1)
Track 6 accurately ripped (confidence 8) [F684BA97] (AR v1)
Track 7 accurately ripped (confidence 8) [DD460108] (AR v1)
Track 8 accurately ripped (confidence 8) [36D56429] (AR v1)
Track 9 accurately ripped (confidence 8) [D1D470D9] (AR v1)
Track 10 accurately ripped (confidence 8) [B2FDBB0A] (AR v1)
Track 11 accurately ripped (confidence 8) [DF9650A0] (AR v1)
Track 12 accurately ripped (confidence 8) [249E3E2E] (AR v1)
Track 13 accurately ripped (confidence 8) [B8FF1715] (AR v1)

All tracks accurately ripped

End of status report

–– CUETools DB Plugin V2.1.5

[CTDB TOCID: bUOAysLZA60dmXuxJoOBmPwA2I4-] found
Submit result: bUOAysLZA60dmXuxJoOBmPwA2I4- has been confirmed
Track | CTDB Status
1 | (30/31) Accurately ripped
2 | (31/31) Accurately ripped
3 | (31/31) Accurately ripped
4 | (30/31) Accurately ripped
5 | (31/31) Accurately ripped
6 | (31/31) Accurately ripped
7 | (31/31) Accurately ripped
8 | (31/31) Accurately ripped
9 | (31/31) Accurately ripped
10 | (31/31) Accurately ripped
11 | (31/31) Accurately ripped
12 | (30/31) Accurately ripped
13 | (29/31) Accurately ripped


==== Log checksum 22605D5D0E1A17DC5122D07E11EA147EB55A77EB978078F16B54A963A7EE8523 ====


[CUETools log; Date: 06.08.2018 21:53:07; Version: 2.1.5]
[CTDB TOCID: bUOAysLZA60dmXuxJoOBmPwA2I4-] found.
Track | CTDB Status
1 | (143/145) Accurately ripped
2 | (145/145) Accurately ripped
3 | (143/145) Accurately ripped
4 | (144/145) Accurately ripped
5 | (144/145) Accurately ripped
6 | (145/145) Accurately ripped
7 | (145/145) Accurately ripped
8 | (145/145) Accurately ripped
9 | (145/145) Accurately ripped
10 | (145/145) Accurately ripped
11 | (145/145) Accurately ripped
12 | (144/145) Accurately ripped
13 | (143/145) Accurately ripped
[AccurateRip ID: 0018ffed-00f9b6a2-b50cfa0d] found.
Track [ CRC | V2 ] Status
01 [7c3f2b05|e5531ba1] (08+06/14) Accurately ripped
02 [85578cbb|a6d6046a] (08+06/14) Accurately ripped
03 [a792c8c0|e5950af1] (08+06/14) Accurately ripped
04 [97c98e87|40c42e14] (08+06/14) Accurately ripped
05 [e2c3878d|ac73237e] (08+06/14) Accurately ripped
06 [f684ba97|52059760] (08+06/14) Accurately ripped
07 [dd460108|ddd41a8b] (08+06/14) Accurately ripped
08 [36d56429|dc32a4c9] (08+06/14) Accurately ripped
09 [d1d470d9|c20dbfa0] (08+06/14) Accurately ripped
10 [b2fdbb0a|9a8a22ff] (08+06/14) Accurately ripped
11 [df9650a0|91e1ef6a] (08+06/14) Accurately ripped
12 [249e3e2e|897e4699] (08+06/14) Accurately ripped
13 [b8ff1715|4bd3cfa5] (08+04/14) Accurately ripped
Offsetted by -1295:
01 [2cf47ac2] (00/14) No match (V2 was not tested)
02 [9ad7f034] (00/14) No match (V2 was not tested)
03 [aa68f2de] (00/14) No match (V2 was not tested)
04 [5ce7fc69] (00/14) No match (V2 was not tested)
05 [99d63789] (00/14) No match (V2 was not tested)
06 [18989997] (00/14) No match (V2 was not tested)
07 [c5f2d46b] (00/14) No match (V2 was not tested)
08 [2b678bb0] (00/14) No match (V2 was not tested)
09 [fec98e48] (00/14) No match (V2 was not tested)
10 [2eee6ba1] (00/14) No match (V2 was not tested)
11 [35bbe707] (00/14) No match (V2 was not tested)
12 [0111854a] (00/14) No match (V2 was not tested)
13 [31fcb48f] (00/14) No match (V2 was not tested)
Offsetted by -1283:
01 [80457459] (00/14) No match (V2 was not tested)
02 [cc1b3389] (00/14) No match (V2 was not tested)
03 [2e0a72c6] (00/14) No match (V2 was not tested)
04 [4e1b3981] (00/14) No match (V2 was not tested)
05 [99000b41] (00/14) No match (V2 was not tested)
06 [8fd62f27] (00/14) No match (V2 was not tested)
07 [f94713ae] (00/14) No match (V2 was not tested)
08 [993f65fc] (00/14) No match (V2 was not tested)
09 [88e3047c] (00/14) No match (V2 was not tested)
10 [12dba368] (00/14) No match (V2 was not tested)
11 [ee6465d0] (00/14) No match (V2 was not tested)
12 [f24c5854] (00/14) No match (V2 was not tested)
13 [53a8caea] (00/14) No match (V2 was not tested)

Track Peak [ CRC32 ] [W/O NULL] [ LOG ]
– 97,7 [29359CC4] [BCD74645] CRC32
01 97,7 [9DE476AF] [9F750D0E]
02 97,7 [9BEC4E2B] [62270439]
03 97,6 [CD8F34AA] [AFB6BEB5]
04 97,7 [38942228] [191BB904]
05 97,7 [5DC94099] [462D7605]
06 97,7 [DB325367] [81AAF455]
07 97,7 [A8671EEA] [90F88B69]
08 96,8 [137B9391] [D66CA264]
09 89,1 [50D445FD] [8711C70C]
10 89,1 [BB68C3B2] [37794D94]
11 97,7 [FF78DEC1] [2A474818]
12 97,7 [025350D1] [0F889AAF]
13 97,7 [09FC2AE9] [C20A9010]


Tiamat - The Ark Of The Covenant (2008) [12CD+DVD Box Set]

Tracklist CD11 - Church Of Tiamat (2008):

01. Vote For Love [5:17]
02. Children Of The Underworld [3:48]
03. Cain [5:26]
04. Brighter Than The Sun [4:05]
05. To Have And Have Not [5:56]
06. Whatever That Hurts [5:09]
07. I Am In Love With Myself [3:53]
08. In A Dream [4:17]
09. Wings Of Heaven [4:33]
10. Cold Seed [4:02]
11. Clovenhoof [5:10]
12. As Long As You Are Mine [5:04]
13. Love Is As Good As Soma [6:51]
14. The Sleeping Beauty [4:56]
15. Gaia [7:54]

Exact Audio Copy V1.0 beta 3 from 29. August 2011

EAC extraction logfile from 27. February 2014, 18:56

Tiamat / The Ark Of The Covenant CD11 -The Church Of Tiamat [Century Media 9977610/11]

Used drive : TSSTcorpCDDVDW SH-222BB Adapter: 1 ID: 0

Read mode : Secure
Utilize accurate stream : Yes
Defeat audio cache : Yes
Make use of C2 pointers : No

Read offset correction : 6
Overread into Lead-In and Lead-Out : No
Fill up missing offset samples with silence : Yes
Delete leading and trailing silent blocks : No
Null samples used in CRC calculations : Yes
Used interface : Native Win32 interface for Win NT & 2000

Used output format : User Defined Encoder
Selected bitrate : 1024 kBit/s
Quality : High
Add ID3 tag : No
Command line compressor : C:\Program Files\Exact Audio Copy\FLAC\FLAC.EXE
Additional command line options : -V -8 -T "Date=%year%" -T "Genre=%genre%" %source%


TOC of the extracted CD

Track | Start | Length | Start sector | End sector
––––––––––––––––––––––––––––-
1 | 0:00.00 | 5:16.67 | 0 | 23766
2 | 5:16.67 | 3:47.53 | 23767 | 40844
3 | 9:04.45 | 5:25.54 | 40845 | 65273
4 | 14:30.24 | 4:05.11 | 65274 | 83659
5 | 18:35.35 | 5:56.28 | 83660 | 110387
6 | 24:31.63 | 5:09.23 | 110388 | 133585
7 | 29:41.11 | 3:53.30 | 133586 | 151090
8 | 33:34.41 | 4:16.50 | 151091 | 170340
9 | 37:51.16 | 4:32.44 | 170341 | 190784
10 | 42:23.60 | 4:02.08 | 190785 | 208942
11 | 46:25.68 | 5:09.44 | 208943 | 232161
12 | 51:35.37 | 5:04.26 | 232162 | 254987
13 | 56:39.63 | 6:51.05 | 254988 | 285817
14 | 63:30.68 | 4:56.30 | 285818 | 308047
15 | 68:27.23 | 7:54.00 | 308048 | 343597


Range status and errors

Selected range

Filename C:\Users\inotuh\Desktop\Tiamat - The Ark Of The Covenant CD11 -The Church Of Tiamat [Century Media 9977610,11].wav

Peak level 96.6 %
Extraction speed 3.4 X
Range quality 99.9 %
Test CRC AE02C779
Copy CRC AE02C779
Copy OK

No errors occurred


AccurateRip summary

Track 1 accurately ripped (confidence 8) [6855A54B] (AR v1)
Track 2 accurately ripped (confidence 9) [20E5A15D] (AR v1)
Track 3 accurately ripped (confidence 9) [ADBA3B59] (AR v1)
Track 4 accurately ripped (confidence 9) [D2976AD0] (AR v1)
Track 5 accurately ripped (confidence 9) [B1C6E99B] (AR v1)
Track 6 accurately ripped (confidence 9) [35BF37C4] (AR v1)
Track 7 accurately ripped (confidence 9) [31703469] (AR v1)
Track 8 accurately ripped (confidence 9) [569170E5] (AR v1)
Track 9 accurately ripped (confidence 9) [F294AD95] (AR v1)
Track 10 accurately ripped (confidence 9) [5BC48A1F] (AR v1)
Track 11 accurately ripped (confidence 9) [B1C5219E] (AR v1)
Track 12 accurately ripped (confidence 9) [59ACA490] (AR v1)
Track 13 accurately ripped (confidence 9) [CDC5072C] (AR v1)
Track 14 accurately ripped (confidence 9) [7D757A42] (AR v1)
Track 15 accurately ripped (confidence 9) [8D9EFC26] (AR v1)

All tracks accurately ripped

End of status report

–– CUETools DB Plugin V2.1.5

[CTDB TOCID: olsyuSoG.YYtn_D3aVr9QhHrUvo-] found
Submit result: olsyuSoG.YYtn_D3aVr9QhHrUvo- has been confirmed
Track | CTDB Status
1 | (6/6) Accurately ripped
2 | (6/6) Accurately ripped
3 | (6/6) Accurately ripped
4 | (6/6) Accurately ripped
5 | (6/6) Accurately ripped
6 | (6/6) Accurately ripped
7 | (6/6) Accurately ripped
8 | (6/6) Accurately ripped
9 | (6/6) Accurately ripped
10 | (6/6) Accurately ripped
11 | (6/6) Accurately ripped
12 | (6/6) Accurately ripped
13 | (6/6) Accurately ripped
14 | (6/6) Accurately ripped
15 | (6/6) Accurately ripped


==== Log checksum 079C79B6A91E41A12327D1620C86CDEE955FACF2B7AF8BEF240D4C9C070767C5 ====


[CUETools log; Date: 06.08.2018 21:55:29; Version: 2.1.5]
[CTDB TOCID: olsyuSoG.YYtn_D3aVr9QhHrUvo-] found.
Track | CTDB Status
1 | (27/27) Accurately ripped
2 | (27/27) Accurately ripped
3 | (27/27) Accurately ripped
4 | (27/27) Accurately ripped
5 | (27/27) Accurately ripped
6 | (27/27) Accurately ripped
7 | (27/27) Accurately ripped
8 | (27/27) Accurately ripped
9 | (27/27) Accurately ripped
10 | (27/27) Accurately ripped
11 | (27/27) Accurately ripped
12 | (27/27) Accurately ripped
13 | (27/27) Accurately ripped
14 | (27/27) Accurately ripped
15 | (26/27) Accurately ripped
[AccurateRip ID: 0027b91e-01c3e554-d011e50f] found.
Track [ CRC | V2 ] Status
01 [6855a54b|03b25042] (08+06/20) Accurately ripped
02 [20e5a15d|3400e9c5] (09+06/21) Accurately ripped
03 [adba3b59|13b8d5cb] (09+06/21) Accurately ripped
04 [d2976ad0|1b68ee9e] (09+06/21) Accurately ripped
05 [b1c6e99b|2fee149d] (09+06/21) Accurately ripped
06 [35bf37c4|a9b02fd1] (09+06/21) Accurately ripped
07 [31703469|b64b0e03] (09+06/21) Accurately ripped
08 [569170e5|40c5e875] (09+06/21) Accurately ripped
09 [f294ad95|24addca0] (09+06/21) Accurately ripped
10 [5bc48a1f|80202eb8] (09+06/21) Accurately ripped
11 [b1c5219e|6308c5ae] (09+06/21) Accurately ripped
12 [59aca490|fa24f770] (09+06/21) Accurately ripped
13 [cdc5072c|5561c04f] (09+06/21) Accurately ripped
14 [7d757a42|86270901] (09+06/21) Accurately ripped
15 [8d9efc26|428a11af] (09+04/20) Accurately ripped
Offsetted by -667:
01 [65e575fe] (00/20) No match (V2 was not tested)
02 [14f7a553] (00/21) No match (V2 was not tested)
03 [43a18269] (00/21) No match (V2 was not tested)
04 [90495c80] (00/21) No match (V2 was not tested)
05 [3962adf6] (00/21) No match (V2 was not tested)
06 [dd6b9ace] (00/21) No match (V2 was not tested)
07 [bfc3f43f] (00/21) No match (V2 was not tested)
08 [575f0506] (00/21) No match (V2 was not tested)
09 [4e495dfd] (00/21) No match (V2 was not tested)
10 [10e70171] (00/21) No match (V2 was not tested)
11 [46260eec] (00/21) No match (V2 was not tested)
12 [f9f7e73d] (00/21) No match (V2 was not tested)
13 [8b78a096] (00/21) No match (V2 was not tested)
14 [4faa7d3e] (00/21) No match (V2 was not tested)
15 [f672523e] (00/20) No match (V2 was not tested)

Track Peak [ CRC32 ] [W/O NULL] [ LOG ]
– 96,6 [AE02C779] [44A869C3] CRC32
01 96,6 [186FEFF0] [E50C8E5C]
02 96,6 [BFFC5DE1] [E61F449F]
03 96,6 [5E91D2F7] [C6806E41]
04 96,6 [C7897F93] [BF54CD85]
05 96,6 [F0C2BA7F] [C5F29639]
06 96,6 [A9E95986] [8BD44316]
07 96,6 [9756DEE6] [8108690F]
08 96,6 [CCFF31ED] [31636806]
09 96,6 [D1E37C91] [867C6125]
10 96,6 [97C31BED] [D4AF21F4]
11 96,6 [CA307F44] [41316300]
12 96,6 [D0F0EE56] [D070A7CA]
13 96,6 [FB69C27D] [7F8967C6]
14 96,6 [AC2A1937] [9570DFF6]
15 96,6 [CE2928C8] [88ABFC1F]


Tiamat - The Ark Of The Covenant (2008) [12CD+DVD Box Set]

Tracklist CD12 - Panopticon (2008):

01. A Winter Shadow [5:24]
02. Ancient Entity [5:53]
03. Only In My Tears It Lasts (The Cat Mix) [5:25]
04. Three Leary Biscuits [4:18]
05. Brighter Than The Sun (Single Edit) [3:40]
06. Children Of The Underworld [4:51]
07. For Her Pleasure (Edit) [3:45]
08. Lucy (Demon Mix - Remixed By Element & The Short Romans) [4:19]
09. Brighter Than The Sun (Bullsrun Mix - Remixed By Tarsia) [4:50]
10. As Long As You Are Mine (Lodmalm's Cocktail Club A Go-Go Mix) [3:21]
11. Sixshooter [4:07]
12. However You Look At It You Lose [4:09]
13. Vote For Love (Radio Edit) [4:15]
14. Cold Last Supper [3:30]
15. Cain (Radio Edit) [3:57]
16. Sleeping (In The Fire) (W.A.S.P. Cover) [3:44]
17. Divided (Edit) [3:58]

Exact Audio Copy V1.0 beta 3 from 29. August 2011

EAC extraction logfile from 17. February 2014, 20:06

Tiamat / The Ark Of The Covenant CD12 - Panopticon [Century Media 9977610/12]

Used drive : TSSTcorpCDDVDW SH-222BB Adapter: 1 ID: 0

Read mode : Secure
Utilize accurate stream : Yes
Defeat audio cache : Yes
Make use of C2 pointers : No

Read offset correction : 6
Overread into Lead-In and Lead-Out : No
Fill up missing offset samples with silence : Yes
Delete leading and trailing silent blocks : No
Null samples used in CRC calculations : Yes
Used interface : Native Win32 interface for Win NT & 2000

Used output format : User Defined Encoder
Selected bitrate : 1024 kBit/s
Quality : High
Add ID3 tag : No
Command line compressor : C:\Program Files\Exact Audio Copy\FLAC\FLAC.EXE
Additional command line options : -V -8 -T "Date=%year%" -T "Genre=%genre%" %source%


TOC of the extracted CD

Track | Start | Length | Start sector | End sector
––––––––––––––––––––––––––––-
1 | 0:00.00 | 5:23.46 | 0 | 24270
2 | 5:23.46 | 5:53.33 | 24271 | 50778
3 | 11:17.04 | 5:25.08 | 50779 | 75161
4 | 16:42.12 | 4:17.52 | 75162 | 94488
5 | 20:59.64 | 3:39.41 | 94489 | 110954
6 | 24:39.30 | 4:50.53 | 110955 | 132757
7 | 29:30.08 | 3:45.30 | 132758 | 149662
8 | 33:15.38 | 4:18.53 | 149663 | 169065
9 | 37:34.16 | 4:49.69 | 169066 | 190809
10 | 42:24.10 | 3:20.65 | 190810 | 205874
11 | 45:45.00 | 4:06.59 | 205875 | 224383
12 | 49:51.59 | 4:08.71 | 224384 | 243054
13 | 54:00.55 | 4:15.08 | 243055 | 262187
14 | 58:15.63 | 3:29.60 | 262188 | 277922
15 | 61:45.48 | 3:57.09 | 277923 | 295706
16 | 65:42.57 | 3:43.38 | 295707 | 312469
17 | 69:26.20 | 3:58.24 | 312470 | 330343


Range status and errors

Selected range

Filename C:\Users\inotuh\Desktop\Tiamat - The Ark Of The Covenant CD12 - Panopticon [Century Media 9977610,12].wav

Peak level 100.0 %
Extraction speed 8.2 X
Range quality 100.0 %
Test CRC E510043C
Copy CRC E510043C
Copy OK

No errors occurred


AccurateRip summary

Track 1 accurately ripped (confidence 9) [3B5D54C2] (AR v1)
Track 2 accurately ripped (confidence 9) [8CBF79A4] (AR v1)
Track 3 accurately ripped (confidence 9) [60B0B09B] (AR v1)
Track 4 accurately ripped (confidence 9) [4DDD28A1] (AR v1)
Track 5 accurately ripped (confidence 9) [0C0CA0F4] (AR v1)
Track 6 accurately ripped (confidence 9) [EF7DF2C7] (AR v1)
Track 7 accurately ripped (confidence 9) [90946785] (AR v1)
Track 8 accurately ripped (confidence 9) [9A5C5DB6] (AR v1)
Track 9 accurately ripped (confidence 9) [89C62DD8] (AR v1)
Track 10 accurately ripped (confidence 9) [F538FEDF] (AR v1)
Track 11 accurately ripped (confidence 9) [92F6F452] (AR v1)
Track 12 accurately ripped (confidence 9) [ADA393F4] (AR v1)
Track 13 accurately ripped (confidence 9) [250B7EFF] (AR v1)
Track 14 accurately ripped (confidence 9) [0EECDD94] (AR v1)
Track 15 accurately ripped (confidence 9) [E05BD522] (AR v1)
Track 16 accurately ripped (confidence 9) [476F6D02] (AR v1)
Track 17 accurately ripped (confidence 9) [4A8C618B] (AR v1)

All tracks accurately ripped

End of status report

–– CUETools DB Plugin V2.1.5

[CTDB TOCID: E6C45sGiQozgjTy6Cw5jgTiOu38-] found
Submit result: E6C45sGiQozgjTy6Cw5jgTiOu38- has been confirmed
Track | CTDB Status
1 | (3/3) Accurately ripped
2 | (3/3) Accurately ripped
3 | (3/3) Accurately ripped
4 | (3/3) Accurately ripped
5 | (3/3) Accurately ripped
6 | (3/3) Accurately ripped
7 | (3/3) Accurately ripped
8 | (3/3) Accurately ripped
9 | (3/3) Accurately ripped
10 | (3/3) Accurately ripped
11 | (3/3) Accurately ripped
12 | (3/3) Accurately ripped
13 | (3/3) Accurately ripped
14 | (3/3) Accurately ripped
15 | (3/3) Accurately ripped
16 | (3/3) Accurately ripped
17 | (3/3) Accurately ripped


==== Log checksum 0A933D0D6F4D5255820586C9BB2557320CC82A36BFB55F80200BE9BAF14AA2C3 ====


[CUETools log; Date: 06.08.2018 21:55:52; Version: 2.1.5]
[CTDB TOCID: E6C45sGiQozgjTy6Cw5jgTiOu38-] found.
Track | CTDB Status
1 | (13/13) Accurately ripped
2 | (13/13) Accurately ripped
3 | (13/13) Accurately ripped
4 | (13/13) Accurately ripped
5 | (13/13) Accurately ripped
6 | (13/13) Accurately ripped
7 | (13/13) Accurately ripped
8 | (13/13) Accurately ripped
9 | (13/13) Accurately ripped
10 | (13/13) Accurately ripped
11 | (13/13) Accurately ripped
12 | (13/13) Accurately ripped
13 | (13/13) Accurately ripped
14 | (13/13) Accurately ripped
15 | (12/13) Accurately ripped
16 | (12/13) Accurately ripped
17 | (10/13) Accurately ripped, or (2/13) differs in 4607 samples @03:58:01-03:58:09
[AccurateRip ID: 0030104b-02554226-10113411] found.
Track [ CRC | V2 ] Status
01 [3b5d54c2|6348f465] (09+06/15) Accurately ripped
02 [8cbf79a4|bb789dd2] (09+06/15) Accurately ripped
03 [60b0b09b|105f117d] (09+06/15) Accurately ripped
04 [4ddd28a1|db3fdc2a] (09+06/15) Accurately ripped
05 [0c0ca0f4|0c2d5faf] (09+06/15) Accurately ripped
06 [ef7df2c7|43b7f31a] (09+06/15) Accurately ripped
07 [90946785|5657cb6e] (09+06/15) Accurately ripped
08 [9a5c5db6|004736a1] (09+06/15) Accurately ripped
09 [89c62dd8|5eaf71a3] (09+06/15) Accurately ripped
10 [f538fedf|5eaecc98] (09+06/15) Accurately ripped
11 [92f6f452|c4c1ff2a] (09+06/15) Accurately ripped
12 [ada393f4|f9062d91] (09+06/15) Accurately ripped
13 [250b7eff|da984b8a] (09+06/15) Accurately ripped
14 [0eecdd94|d1af53c0] (09+06/15) Accurately ripped
15 [e05bd522|ab8f984e] (09+06/15) Accurately ripped
16 [476f6d02|8189f1d1] (09+06/15) Accurately ripped
17 [4a8c618b|e2187a7c] (09+04/13) Accurately ripped

Track Peak [ CRC32 ] [W/O NULL] [ LOG ]
– 100,0 [E510043C] [FDF55054] CRC32
01 98,7 [74DE8D65] [5A14F530]
02 98,7 [D32B3BB3] [AAD8E86B]
03 99,2 [7B052880] [3178AAEE]
04 99,2 [8728B703] [4A566315]
05 99,4 [2199213E] [EC32A129]
06 99,4 [A98D62F9] [5A085889]
07 99,4 [43344F86] [1C3668C1]
08 99,3 [C82F45E0] [27ADCBE6]
09 98,8 [7D45AC05] [CEF726F3]
10 98,8 [36CF7150] [A6A0731F]
11 98,8 [9BA9E016] [0EB5811A]
12 98,8 [2F022870] [FB721C0D]
13 99,9 [6393C4E5] [0110F4D9]
14 99,9 [66849FBA] [3398C7E6]
15 99,9 [AC37DBE1] [E1B28D97]
16 99,9 [C34C52D4] [6FFA5D92]
17 100,0 [C22DBA24] [F2E0BD99]


Tiamat - The Ark Of The Covenant (2008) [12CD+DVD Box Set]

Tracklist DVD - The Church Of Tiamat (2008):

Track List - Live In Poland:

1. Vote For Love - 5:17
2. Children Of The Underworld - 3:48
3. Cain - 5:26
4. Brighter Than The Sun - 4:05
5. To Have And Have Not - 5:56
6. Whatever That Hurts - 5:09
7. I Am In Love With Myself - 3:53
8. In A Dream - 4:17
9. Wings Of Heaven - 4:35
10. Cold Seed - 4:00
11. Clovenhoof - 5:10
12. As Long As You Are Mine - 5:06
13. Love Is As Good As Soma - 7:20
14. The Sleeping Beauty - 5:03
15. Gaia - 7:17

Bonus: The History Of Tiamat

16. Where The Serpents Ever Dwell (Live) - 6:36
17. Whatever That Hurts (Promo Video) - 4:22
18. Gaia (Promo Video) - 3:41
19. Undressed (Live) - 5:54
20. The Ar (Live) - 2:52
21. Alteration X 10 (Recording Session) - 4:31
22. Cold Seed (Promo Video) - 3:50
23. Brighter Than The Sun (Promo Video) - 3:42
24. Vote For Love (Promo Video) - 4:16
25. Phantasma De Luxe (Live) - 5:31
26. Angel Holograms (Live) - 3:37
27. Cain (Promo Video) - 3:57
28. Do You Dream Of Me? (Animated Video) - 3:23

Title: DVD1. 2006 The Church Of Tiamat
Size: 7.06 Gb ( 7 399 364,00 KBytes ) - DVD-9
Enabled regions: 1, 2, 3, 4, 5, 6, 7, 8

VTS_01 :
Play Length: 01:16:19
Video: NTSC 16:9 (720x480) VBR, Auto Letterboxed
Audio:
English (Dolby AC3, 6 ch)
English (Dolby AC3, 2 ch)
English (DTS, 6 ch)

VTS_02 :
Play Length: 00:01:20+00:01:20+00:01:20
Video: NTSC 4:3 (720x480) VBR
Audio:
English (Dolby AC3, 2 ch)
Subtitles:
English

VTS_03 :
Play Length: 00:25:44+00:03:59+00:03:41+00:07:05+00:04:15+00:02:53+00:05:08+00:05:03+00:06:15+00:05:52+00:03:23+00:04:28+00:04:38+00:04:50
Video: NTSC 4:3 (720x480) VBR
Audio:
English (Dolby AC3, 2 ch)


Tiamat - The Ark Of The Covenant (2008) [12CD+DVD Box Set]

Tiamat - The Ark Of The Covenant (2008) [12CD+DVD Box Set]

Tiamat - The Ark Of The Covenant (2008) [12CD+DVD Box Set]

Tiamat - The Ark Of The Covenant (2008) [12CD+DVD Box Set]

Tiamat - The Ark Of The Covenant (2008) [12CD+DVD Box Set]

All thanks go to mikuh

Tiamat in my Blog

Download Tiamat - The Ark Of The Covenant (2008):