Tags
Language
Tags
December 2022
Su Mo Tu We Th Fr Sa
27 28 29 30 1 2 3
4 5 6 7 8 9 10
11 12 13 14 15 16 17
18 19 20 21 22 23 24
25 26 27 28 29 30 31

VA - The Greatest Ever One Hit Wonders (2016)

Posted By: Rtax
VA - The Greatest Ever One Hit Wonders (2016)

VA - The Greatest Ever One Hit Wonders (2016)
EAC Rip | FLAC (tracks, cue, log) - 1.08 GB | MP3 CBR 320 kbps - 366 MB
2:36:24 | Pop, Rock | Label: Universal

Like your hits as a onetime only offer? Well, The Greatest Ever One Hit Wonders is the compilation for you! Over two packed CDs is some of the biggest and best artists of all time, to have a just the one smash hit. There's a bunch of fun cheesy hits from the likes of Los del Rio, OMC, The Knack, Dexys Midnight Runners, Survivor, Deee-Lite, Alien Ant Farm, Baha Men, Crazy Town! If you're looking for a fun soundtrack to your next house party then The Greatest Ever One Hit Wonders will bring back some memories as well as some bodies to the dance floor!

Tracklist
CD1
[3:54] 01. Los Del Río - Macarena (Bayside Boys Remix)
[3:41] 02. Lou Bega - Mambo No. 5 (A Little Bit Of…)
[3:47] 03. OMC - How Bizarre
[4:55] 04. The Knack - My Sharona
[3:57] 05. Eagle‐Eye Cherry - Save Tonight
[4:18] 06. Deep Blue Something - Breakfast At Tiffany's
[3:53] 07. Deee‐Lite - Groove Is In The Heart
[3:38] 08. House Of Pain - Jump Around
[4:31] 09. Vanilla Ice - Ice Ice Baby
[3:58] 10. Montell Jordan - This Is How We Do It
[4:12] 11. Sisqó - Thong Song
[3:21] 12. Afroman - Because I Got High
[3:59] 13. Vanessa Carlton - A Thousand Miles
[3:56] 14. Hoobastank - The Reason
[4:42] 15. New Radicals - You Get What You Give
[3:19] 16. Fountains Of Wayne - Stacy's Mom
[3:46] 17. Tal Bachman - She's So High
[2:53] 18. Marcy Playground - Sex & Candy
[4:14] 19. 4 Non Blondes - What's Up?
[3:18] 20. Musical Youth - Pass The Dutchie

CD2
[4:06] 01. Kevin Rowland & Dexys Midnight Runners - Come On Eileen
[4:06] 02. Survivor - Eye Of The Tiger
[3:30] 03. Alien Ant Farm - Smooth Criminal
[3:18] 04. Baha Men - Who Let The Dogs Out
[4:33] 05. Semisonic - Closing Time
[4:10] 06. LEN - Steal My Sunshine
[3:36] 07. Crazy Town - Butterfly
[4:12] 08. Snow - Informer
[3:52] 09. Robin Thicke, Pharrell - Blurred Lines
[4:03] 10. Coolio Feat. L.V. - Gangsta's Paradise
[4:01] 11. Baby Bash Feat. Frankie J - Suga Suga
[2:41] 12. Soft Cell - Tainted Love
[3:51] 13. Toploader - Dancing In The Moonlight
[3:11] 14. Nine Days - Absolutely (Story Of A Girl)
[4:03] 15. Wheatus - Teenage Dirtbag
[5:00] 16. Spacehog - In The Meantime
[3:58] 17. Meredith Brooks - Bitch
[3:28] 18. Mr. Big - To Be With You
[4:02] 19. Europe - The Final Countdown
[4:52] 20. Bobby McFerrin - Don't Worry Be Happy
Exact Audio Copy V1.6 from 23. October 2020

EAC extraction logfile from 22. November 2020, 15:41

Various Artists / The Greatest Ever One Hit Wonders

Used drive : ASUS DRW-24D5MT Adapter: 1 ID: 0

Read mode : Secure
Utilize accurate stream : Yes
Defeat audio cache : Yes
Make use of C2 pointers : No

Read offset correction : 6
Overread into Lead-In and Lead-Out : No
Fill up missing offset samples with silence : Yes
Delete leading and trailing silent blocks : No
Null samples used in CRC calculations : Yes
Used interface : Native Win32 interface for Win NT & 2000
Gap handling : Appended to previous track

Used output format : User Defined Encoder
Selected bitrate : 896 kBit/s
Quality : High
Add ID3 tag : No
Command line compressor : C:\Program Files (x86)\Exact Audio Copy\FLAC\FLAC.EXE
Additional command line options : -6 -V -T "ARTIST=%artist%" -T "TITLE=%title%" -T "ALBUM=%albumtitle%" -T "DATE=%year%" -T "TRACKNUMBER=%tracknr%" -T "GENRE=%genre%" -T "COMMENT=%comment%" -T "BAND=%albuminterpret%" -T "ALBUMARTIST=%albuminterpret%" -T "COMPOSER=%composer%" %haslyrics%–tag-from-file=LYRICS="%lyricsfile%"%haslyrics% -T "DISCNUMBER=%cdnumber%" -T "TOTALDISCS=%totalcds%" -T "TOTALTRACKS=%numtracks%" %hascover%–picture="%coverfile%"%hascover% %source% -o %dest%


TOC of the extracted CD

Track | Start | Length | Start sector | End sector
––––––––––––––––––––––––––––-
1 | 0:00.00 | 3:53.32 | 0 | 17506
2 | 3:53.32 | 3:40.11 | 17507 | 34017
3 | 7:33.43 | 3:46.41 | 34018 | 51008
4 | 11:20.09 | 4:54.03 | 51009 | 73061
5 | 16:14.12 | 3:56.40 | 73062 | 90801
6 | 20:10.52 | 4:17.37 | 90802 | 110113
7 | 24:28.14 | 3:52.71 | 110114 | 127584
8 | 28:21.10 | 3:37.35 | 127585 | 143894
9 | 31:58.45 | 4:30.62 | 143895 | 164206
10 | 36:29.32 | 3:57.18 | 164207 | 181999
11 | 40:26.50 | 4:11.37 | 182000 | 200861
12 | 44:38.12 | 3:20.07 | 200862 | 215868
13 | 47:58.19 | 3:58.42 | 215869 | 233760
14 | 51:56.61 | 3:55.56 | 233761 | 251441
15 | 55:52.42 | 4:41.26 | 251442 | 272542
16 | 60:33.68 | 3:18.24 | 272543 | 287416
17 | 63:52.17 | 3:45.70 | 287417 | 304361
18 | 67:38.12 | 2:52.48 | 304362 | 317309
19 | 70:30.60 | 4:13.35 | 317310 | 336319
20 | 74:44.20 | 3:17.35 | 336320 | 351129


Track 1

Filename F:\Losless\New Rips\VA - The Greatest Ever One Hit Wonders (2016, Universal Music Australia 5370158, CD)\01. Los Del Río - Macarena (Bayside Boys Remix).wav

Pre-gap length 0:00:02.00

Peak level 95.0 %
Extraction speed 4.8 X
Track quality 100.0 %
Test CRC 51BF5267
Copy CRC 51BF5267
Accurately ripped (confidence 1) [8972D15C] (AR v2)
Copy OK

Track 2

Filename F:\Losless\New Rips\VA - The Greatest Ever One Hit Wonders (2016, Universal Music Australia 5370158, CD)\02. Lou Bega - Mambo No. 5 (A Little Bit Of…).wav

Peak level 100.0 %
Extraction speed 5.1 X
Track quality 100.0 %
Test CRC 5905549D
Copy CRC 5905549D
Accurately ripped (confidence 1) [4561AAE8] (AR v2)
Copy OK

Track 3

Filename F:\Losless\New Rips\VA - The Greatest Ever One Hit Wonders (2016, Universal Music Australia 5370158, CD)\03. OMC - How Bizarre.wav

Peak level 100.0 %
Extraction speed 5.5 X
Track quality 100.0 %
Test CRC 2E5F2447
Copy CRC 2E5F2447
Accurately ripped (confidence 1) [4C2288B0] (AR v2)
Copy OK

Track 4

Filename F:\Losless\New Rips\VA - The Greatest Ever One Hit Wonders (2016, Universal Music Australia 5370158, CD)\04. The Knack - My Sharona.wav

Peak level 100.0 %
Extraction speed 6.1 X
Track quality 100.0 %
Test CRC 5E31E630
Copy CRC 5E31E630
Accurately ripped (confidence 1) [56404C7E] (AR v2)
Copy OK

Track 5

Filename F:\Losless\New Rips\VA - The Greatest Ever One Hit Wonders (2016, Universal Music Australia 5370158, CD)\05. Eagle‐Eye Cherry - Save Tonight.wav

Peak level 100.0 %
Extraction speed 6.3 X
Track quality 100.0 %
Test CRC 58C6AE2C
Copy CRC 58C6AE2C
Accurately ripped (confidence 1) [F4D4799C] (AR v2)
Copy OK

Track 6

Filename F:\Losless\New Rips\VA - The Greatest Ever One Hit Wonders (2016, Universal Music Australia 5370158, CD)\06. Deep Blue Something - Breakfast At Tiffany's.wav

Peak level 100.0 %
Extraction speed 6.7 X
Track quality 100.0 %
Test CRC 14235B5C
Copy CRC 14235B5C
Accurately ripped (confidence 1) [75630B42] (AR v2)
Copy OK

Track 7

Filename F:\Losless\New Rips\VA - The Greatest Ever One Hit Wonders (2016, Universal Music Australia 5370158, CD)\07. Deee‐Lite - Groove Is In The Heart.wav

Peak level 82.8 %
Extraction speed 6.9 X
Track quality 100.0 %
Test CRC 6CAABDD2
Copy CRC 6CAABDD2
Accurately ripped (confidence 1) [662A7403] (AR v2)
Copy OK

Track 8

Filename F:\Losless\New Rips\VA - The Greatest Ever One Hit Wonders (2016, Universal Music Australia 5370158, CD)\08. House Of Pain - Jump Around.wav

Peak level 100.0 %
Extraction speed 6.2 X
Track quality 99.9 %
Test CRC C4E00845
Copy CRC C4E00845
Accurately ripped (confidence 1) [35636FDA] (AR v2)
Copy OK

Track 9

Filename F:\Losless\New Rips\VA - The Greatest Ever One Hit Wonders (2016, Universal Music Australia 5370158, CD)\09. Vanilla Ice - Ice Ice Baby.wav

Peak level 98.8 %
Extraction speed 7.6 X
Track quality 100.0 %
Test CRC 165E1A30
Copy CRC 165E1A30
Accurately ripped (confidence 1) [01C46997] (AR v2)
Copy OK

Track 10

Filename F:\Losless\New Rips\VA - The Greatest Ever One Hit Wonders (2016, Universal Music Australia 5370158, CD)\10. Montell Jordan - This Is How We Do It.wav

Peak level 100.0 %
Extraction speed 7.7 X
Track quality 100.0 %
Test CRC D36DB0FB
Copy CRC D36DB0FB
Accurately ripped (confidence 1) [730EA066] (AR v2)
Copy OK

Track 11

Filename F:\Losless\New Rips\VA - The Greatest Ever One Hit Wonders (2016, Universal Music Australia 5370158, CD)\11. Sisqó - Thong Song.wav

Peak level 100.0 %
Extraction speed 8.0 X
Track quality 100.0 %
Test CRC C1B45ED8
Copy CRC C1B45ED8
Accurately ripped (confidence 1) [28CE23EC] (AR v2)
Copy OK

Track 12

Filename F:\Losless\New Rips\VA - The Greatest Ever One Hit Wonders (2016, Universal Music Australia 5370158, CD)\12. Afroman - Because I Got High.wav

Peak level 100.0 %
Extraction speed 7.9 X
Track quality 100.0 %
Test CRC 5E3120C1
Copy CRC 5E3120C1
Accurately ripped (confidence 1) [793262E5] (AR v2)
Copy OK

Track 13

Filename F:\Losless\New Rips\VA - The Greatest Ever One Hit Wonders (2016, Universal Music Australia 5370158, CD)\13. Vanessa Carlton - A Thousand Miles.wav

Peak level 99.8 %
Extraction speed 8.4 X
Track quality 100.0 %
Test CRC DF4FDE2A
Copy CRC DF4FDE2A
Accurately ripped (confidence 1) [2D19753F] (AR v2)
Copy OK

Track 14

Filename F:\Losless\New Rips\VA - The Greatest Ever One Hit Wonders (2016, Universal Music Australia 5370158, CD)\14. Hoobastank - The Reason.wav

Peak level 93.3 %
Extraction speed 8.5 X
Track quality 100.0 %
Test CRC D8D9990C
Copy CRC D8D9990C
Accurately ripped (confidence 1) [68999471] (AR v2)
Copy OK

Track 15

Filename F:\Losless\New Rips\VA - The Greatest Ever One Hit Wonders (2016, Universal Music Australia 5370158, CD)\15. New Radicals - You Get What You Give.wav

Peak level 100.0 %
Extraction speed 9.0 X
Track quality 100.0 %
Test CRC 035A3E5B
Copy CRC 035A3E5B
Accurately ripped (confidence 1) [9FF5B139] (AR v2)
Copy OK

Track 16

Filename F:\Losless\New Rips\VA - The Greatest Ever One Hit Wonders (2016, Universal Music Australia 5370158, CD)\16. Fountains Of Wayne - Stacy's Mom.wav

Peak level 100.0 %
Extraction speed 8.8 X
Track quality 100.0 %
Test CRC 381F0CB3
Copy CRC 381F0CB3
Accurately ripped (confidence 1) [CEB3130F] (AR v2)
Copy OK

Track 17

Filename F:\Losless\New Rips\VA - The Greatest Ever One Hit Wonders (2016, Universal Music Australia 5370158, CD)\17. Tal Bachman - She's So High.wav

Peak level 99.2 %
Extraction speed 9.1 X
Track quality 100.0 %
Test CRC A47FF326
Copy CRC A47FF326
Accurately ripped (confidence 1) [CD6BE651] (AR v2)
Copy OK

Track 18

Filename F:\Losless\New Rips\VA - The Greatest Ever One Hit Wonders (2016, Universal Music Australia 5370158, CD)\18. Marcy Playground - Sex & Candy.wav

Peak level 100.0 %
Extraction speed 7.6 X
Track quality 99.9 %
Test CRC 6F83C6C7
Copy CRC 6F83C6C7
Accurately ripped (confidence 1) [AA988D0D] (AR v2)
Copy OK

Track 19

Filename F:\Losless\New Rips\VA - The Greatest Ever One Hit Wonders (2016, Universal Music Australia 5370158, CD)\19. 4 Non Blondes - What's Up.wav

Peak level 100.0 %
Extraction speed 9.5 X
Track quality 100.0 %
Test CRC F20EF2D8
Copy CRC F20EF2D8
Accurately ripped (confidence 1) [0C09D8DB] (AR v2)
Copy OK

Track 20

Filename F:\Losless\New Rips\VA - The Greatest Ever One Hit Wonders (2016, Universal Music Australia 5370158, CD)\20. Musical Youth - Pass The Dutchie.wav

Peak level 100.0 %
Extraction speed 9.2 X
Track quality 100.0 %
Test CRC 114DABA7
Copy CRC 114DABA7
Accurately ripped (confidence 1) [F917E9C9] (AR v2)
Copy OK


All tracks accurately ripped

No errors occurred

End of status report

–– AcoustID Plugin V1.2.0

Total fingerprints: 20


–– CUETools DB Plugin V2.1.6

[CTDB TOCID: kBCV42Af9Qnp4amW5AESvy2tq4s-] found
Submit result: kBCV42Af9Qnp4amW5AESvy2tq4s- has been confirmed
Track | CTDB Status
1 | (8/8) Accurately ripped
2 | (8/8) Accurately ripped
3 | (8/8) Accurately ripped
4 | (8/8) Accurately ripped
5 | (8/8) Accurately ripped
6 | (8/8) Accurately ripped
7 | (8/8) Accurately ripped
8 | (8/8) Accurately ripped
9 | (8/8) Accurately ripped
10 | (8/8) Accurately ripped
11 | (8/8) Accurately ripped
12 | (8/8) Accurately ripped
13 | (8/8) Accurately ripped
14 | (8/8) Accurately ripped
15 | (8/8) Accurately ripped
16 | (8/8) Accurately ripped
17 | (8/8) Accurately ripped
18 | (8/8) Accurately ripped
19 | (8/8) Accurately ripped
20 | (8/8) Accurately ripped


==== Log checksum 863D171FB4321DB062E0A71543CC67512BECA46233304243522639D9B699403A ====


Exact Audio Copy V1.6 from 23. October 2020

EAC extraction logfile from 22. November 2020, 15:41

Various Artists / The Greatest Ever One Hit Wonders

Used drive : TSSTcorpCD/DVDW SH-S182D Adapter: 1 ID: 1

Read mode : Secure
Utilize accurate stream : Yes
Defeat audio cache : Yes
Make use of C2 pointers : No

Read offset correction : 6
Overread into Lead-In and Lead-Out : No
Fill up missing offset samples with silence : Yes
Delete leading and trailing silent blocks : No
Null samples used in CRC calculations : Yes
Used interface : Native Win32 interface for Win NT & 2000
Gap handling : Appended to previous track

Used output format : User Defined Encoder
Selected bitrate : 896 kBit/s
Quality : High
Add ID3 tag : No
Command line compressor : C:\Program Files (x86)\Exact Audio Copy\FLAC\FLAC.EXE
Additional command line options : -6 -V -T "ARTIST=%artist%" -T "TITLE=%title%" -T "ALBUM=%albumtitle%" -T "DATE=%year%" -T "TRACKNUMBER=%tracknr%" -T "GENRE=%genre%" -T "COMMENT=%comment%" -T "BAND=%albuminterpret%" -T "ALBUMARTIST=%albuminterpret%" -T "COMPOSER=%composer%" %haslyrics%–tag-from-file=LYRICS="%lyricsfile%"%haslyrics% -T "DISCNUMBER=%cdnumber%" -T "TOTALDISCS=%totalcds%" -T "TOTALTRACKS=%numtracks%" %hascover%–picture="%coverfile%"%hascover% %source% -o %dest%


TOC of the extracted CD

Track | Start | Length | Start sector | End sector
––––––––––––––––––––––––––––-
1 | 0:00.00 | 4:05.14 | 0 | 18388
2 | 4:05.14 | 4:05.46 | 18389 | 36809
3 | 8:10.60 | 3:29.13 | 36810 | 52497
4 | 11:39.73 | 3:17.57 | 52498 | 67329
5 | 14:57.55 | 4:32.35 | 67330 | 87764
6 | 19:30.15 | 4:09.40 | 87765 | 106479
7 | 23:39.55 | 3:35.58 | 106480 | 122662
8 | 27:15.38 | 4:11.52 | 122663 | 141539
9 | 31:27.15 | 3:51.03 | 141540 | 158867
10 | 35:18.18 | 4:02.59 | 158868 | 177076
11 | 39:21.02 | 4:00.17 | 177077 | 195093
12 | 43:21.19 | 2:40.64 | 195094 | 207157
13 | 46:02.08 | 3:50.42 | 207158 | 224449
14 | 49:52.50 | 3:10.26 | 224450 | 238725
15 | 53:03.01 | 4:02.21 | 238726 | 256896
16 | 57:05.22 | 4:59.28 | 256897 | 279349
17 | 62:04.50 | 3:57.06 | 279350 | 297130
18 | 66:01.56 | 3:27.48 | 297131 | 312703
19 | 69:29.29 | 4:01.19 | 312704 | 330797
20 | 73:30.48 | 4:51.35 | 330798 | 352657


Track 1

Filename F:\Losless\New Rips\VA - The Greatest Ever One Hit Wonders (2016, Universal Music Australia 5370158, CD)\CD2\01. Kevin Rowland & Dexys Midnight Runners - Come On Eileen.wav

Pre-gap length 0:00:02.00

Peak level 100.0 %
Extraction speed 4.9 X
Track quality 100.0 %
Test CRC 07C2F23C
Copy CRC 07C2F23C
Accurately ripped (confidence 1) [D2F0F692] (AR v2)
Copy OK

Track 2

Filename F:\Losless\New Rips\VA - The Greatest Ever One Hit Wonders (2016, Universal Music Australia 5370158, CD)\CD2\02. Survivor - Eye Of The Tiger.wav

Peak level 100.0 %
Extraction speed 5.3 X
Track quality 100.0 %
Test CRC 8F971E83
Copy CRC 8F971E83
Accurately ripped (confidence 1) [B333BC4F] (AR v2)
Copy OK

Track 3

Filename F:\Losless\New Rips\VA - The Greatest Ever One Hit Wonders (2016, Universal Music Australia 5370158, CD)\CD2\03. Alien Ant Farm - Smooth Criminal.wav

Peak level 100.0 %
Extraction speed 4.8 X
Track quality 99.9 %
Test CRC CB02AF19
Copy CRC CB02AF19
Accurately ripped (confidence 1) [726BE2F2] (AR v2)
Copy OK

Track 4

Filename F:\Losless\New Rips\VA - The Greatest Ever One Hit Wonders (2016, Universal Music Australia 5370158, CD)\CD2\04. Baha Men - Who Let The Dogs Out.wav

Peak level 95.4 %
Extraction speed 5.8 X
Track quality 100.0 %
Test CRC B61A7B61
Copy CRC B61A7B61
Accurately ripped (confidence 1) [88C6A5F8] (AR v2)
Copy OK

Track 5

Filename F:\Losless\New Rips\VA - The Greatest Ever One Hit Wonders (2016, Universal Music Australia 5370158, CD)\CD2\05. Semisonic - Closing Time.wav

Peak level 96.2 %
Extraction speed 6.4 X
Track quality 100.0 %
Test CRC 3FEA5912
Copy CRC 3FEA5912
Accurately ripped (confidence 1) [A8A01249] (AR v2)
Copy OK

Track 6

Filename F:\Losless\New Rips\VA - The Greatest Ever One Hit Wonders (2016, Universal Music Australia 5370158, CD)\CD2\06. LEN - Steal My Sunshine.wav

Peak level 100.0 %
Extraction speed 6.6 X
Track quality 100.0 %
Test CRC ADCDCAA7
Copy CRC ADCDCAA7
Accurately ripped (confidence 1) [6539D9F3] (AR v2)
Copy OK

Track 7

Filename F:\Losless\New Rips\VA - The Greatest Ever One Hit Wonders (2016, Universal Music Australia 5370158, CD)\CD2\07. Crazy Town - Butterfly.wav

Peak level 97.6 %
Extraction speed 5.9 X
Track quality 99.9 %
Test CRC A2E27F2B
Copy CRC A2E27F2B
Accurately ripped (confidence 1) [CE8BB0F9] (AR v2)
Copy OK

Track 8

Filename F:\Losless\New Rips\VA - The Greatest Ever One Hit Wonders (2016, Universal Music Australia 5370158, CD)\CD2\08. Snow - Informer.wav

Peak level 99.7 %
Extraction speed 7.2 X
Track quality 100.0 %
Test CRC 63E3F99A
Copy CRC 63E3F99A
Accurately ripped (confidence 1) [FDF69E1D] (AR v2)
Copy OK

Track 9

Filename F:\Losless\New Rips\VA - The Greatest Ever One Hit Wonders (2016, Universal Music Australia 5370158, CD)\CD2\09. Robin Thicke, Pharrell - Blurred Lines.wav

Peak level 100.0 %
Extraction speed 6.5 X
Track quality 99.9 %
Test CRC 9B47AB1F
Copy CRC 9B47AB1F
Accurately ripped (confidence 1) [95B7E350] (AR v2)
Copy OK

Track 10

Filename F:\Losless\New Rips\VA - The Greatest Ever One Hit Wonders (2016, Universal Music Australia 5370158, CD)\CD2\10. Coolio Feat. L.V. - Gangsta's Paradise.wav

Peak level 100.0 %
Extraction speed 7.7 X
Track quality 100.0 %
Test CRC 5A09CF7E
Copy CRC 5A09CF7E
Accurately ripped (confidence 1) [DC55317E] (AR v2)
Copy OK

Track 11

Filename F:\Losless\New Rips\VA - The Greatest Ever One Hit Wonders (2016, Universal Music Australia 5370158, CD)\CD2\11. Baby Bash Feat. Frankie J - Suga Suga.wav

Peak level 90.3 %
Extraction speed 7.9 X
Track quality 100.0 %
Test CRC F9ADD8DF
Copy CRC F9ADD8DF
Accurately ripped (confidence 1) [27297057] (AR v2)
Copy OK

Track 12

Filename F:\Losless\New Rips\VA - The Greatest Ever One Hit Wonders (2016, Universal Music Australia 5370158, CD)\CD2\12. Soft Cell - Tainted Love.wav

Peak level 99.8 %
Extraction speed 7.6 X
Track quality 100.0 %
Test CRC FDD0F7A9
Copy CRC FDD0F7A9
Accurately ripped (confidence 1) [48043788] (AR v2)
Copy OK

Track 13

Filename F:\Losless\New Rips\VA - The Greatest Ever One Hit Wonders (2016, Universal Music Australia 5370158, CD)\CD2\13. Toploader - Dancing In The Moonlight.wav

Peak level 99.9 %
Extraction speed 8.3 X
Track quality 100.0 %
Test CRC F965DCE4
Copy CRC F965DCE4
Accurately ripped (confidence 1) [9A09D9E9] (AR v2)
Copy OK

Track 14

Filename F:\Losless\New Rips\VA - The Greatest Ever One Hit Wonders (2016, Universal Music Australia 5370158, CD)\CD2\14. Nine Days - Absolutely (Story Of A Girl).wav

Peak level 99.8 %
Extraction speed 8.1 X
Track quality 100.0 %
Test CRC C4070018
Copy CRC C4070018
Accurately ripped (confidence 1) [13EF2FA3] (AR v2)
Copy OK

Track 15

Filename F:\Losless\New Rips\VA - The Greatest Ever One Hit Wonders (2016, Universal Music Australia 5370158, CD)\CD2\15. Wheatus - Teenage Dirtbag.wav

Peak level 100.0 %
Extraction speed 8.6 X
Track quality 100.0 %
Test CRC 41C48850
Copy CRC 41C48850
Accurately ripped (confidence 1) [875E5EBA] (AR v2)
Copy OK

Track 16

Filename F:\Losless\New Rips\VA - The Greatest Ever One Hit Wonders (2016, Universal Music Australia 5370158, CD)\CD2\16. Spacehog - In The Meantime.wav

Peak level 100.0 %
Extraction speed 9.1 X
Track quality 100.0 %
Test CRC BEFD9901
Copy CRC BEFD9901
Accurately ripped (confidence 1) [99CB5A49] (AR v2)
Copy OK

Track 17

Filename F:\Losless\New Rips\VA - The Greatest Ever One Hit Wonders (2016, Universal Music Australia 5370158, CD)\CD2\17. Meredith Brooks - Bitch.wav

Peak level 100.0 %
Extraction speed 9.0 X
Track quality 100.0 %
Test CRC 3CA5CF10
Copy CRC 3CA5CF10
Accurately ripped (confidence 1) [09E15979] (AR v2)
Copy OK

Track 18

Filename F:\Losless\New Rips\VA - The Greatest Ever One Hit Wonders (2016, Universal Music Australia 5370158, CD)\CD2\18. Mr. Big - To Be With You.wav

Peak level 100.0 %
Extraction speed 9.1 X
Track quality 100.0 %
Test CRC 67E8757A
Copy CRC 67E8757A
Accurately ripped (confidence 1) [523C555C] (AR v2)
Copy OK

Track 19

Filename F:\Losless\New Rips\VA - The Greatest Ever One Hit Wonders (2016, Universal Music Australia 5370158, CD)\CD2\19. Europe - The Final Countdown.wav

Peak level 100.0 %
Extraction speed 9.4 X
Track quality 100.0 %
Test CRC EA26B94B
Copy CRC EA26B94B
Accurately ripped (confidence 1) [971BF635] (AR v2)
Copy OK

Track 20

Filename F:\Losless\New Rips\VA - The Greatest Ever One Hit Wonders (2016, Universal Music Australia 5370158, CD)\CD2\20. Bobby McFerrin - Don't Worry Be Happy.wav

Peak level 100.0 %
Extraction speed 9.9 X
Track quality 100.0 %
Test CRC D7E2E264
Copy CRC D7E2E264
Accurately ripped (confidence 1) [56D66603] (AR v2)
Copy OK


All tracks accurately ripped

No errors occurred

End of status report

–– AcoustID Plugin V1.2.0

Total fingerprints: 20


–– CUETools DB Plugin V2.1.6

[CTDB TOCID: VSl89POmaYHgTXOkLstCqp7fnpI-] found
Submit result: VSl89POmaYHgTXOkLstCqp7fnpI- has been confirmed
Track | CTDB Status
1 | (9/9) Accurately ripped
2 | (9/9) Accurately ripped
3 | (9/9) Accurately ripped
4 | (9/9) Accurately ripped
5 | (9/9) Accurately ripped
6 | (9/9) Accurately ripped
7 | (9/9) Accurately ripped
8 | (9/9) Accurately ripped
9 | (9/9) Accurately ripped
10 | (9/9) Accurately ripped
11 | (9/9) Accurately ripped
12 | (9/9) Accurately ripped
13 | (9/9) Accurately ripped
14 | (9/9) Accurately ripped
15 | (9/9) Accurately ripped
16 | (8/9) Accurately ripped
17 | (9/9) Accurately ripped
18 | (9/9) Accurately ripped
19 | (9/9) Accurately ripped
20 | (9/9) Accurately ripped


==== Log checksum 962A859844D6BEE92AFDBFF2130B156AD92A4F07A879A76CC54F134BB72F4E5C ====