Subcategories

Steven Price - The Aeronauts (Original Motion Picture Soundtrack) (2019)

Posted By: aasana
Steven Price - The Aeronauts (Original Motion Picture Soundtrack) (2019)

Steven Price - The Aeronauts (Original Motion Picture Soundtrack) (2019)
EAC Rip | FLAC (tracks+.cue) | 01:03:02 | 263,03 MB
Soundtrack | Label: Decca

Steven Price is a British film composer. He began his career as a music mixer and engineer in 1996, working mostly for television programs. In 2002 he was hired to be music editor on Peter Jacksons second film in the Lord of the Rings trilogy, The Two Towers. He continued as music editor for The Return of the King in 2003, and by 2005 was at work on the film Batman Begins. He finished out the decade as a music editor and guitarist, until he was hired as the composer for Scott Pilgrim vs. the World in 2010. He also created innovative soundtracks for Attack the Block in 2011 and The Worlds End in 2013, before achieving major success with his score for Gravity, also in 2013.

Tracklist:
01. Steven Price - She's Late (2:24)
02. Steven Price - We Will Break That Record (2:33)
03. Steven Price - Anything Can Happen In This Weather (2:08)
04. Steven Price - You'll Get Your Chance (1:55)
05. Steven Price - And So It Begins (4:01)
06. Steven Price - We Rose Above It (1:43)
07. Steven Price - Have You Noticed (2:29)
08. Steven Price - Of All The Amazing Things (2:28)
09. Steven Price - We Have A Policy (1:57)
10. Steven Price - Dancing In A Parachute (1:05)
11. Steven Price - Do You Have Faith (3:25)
12. Steven Price - An Obligation (2:24)
13. Steven Price - Imagine That Story Again (4:06)
14. Steven Price - Somewhere I Belong (4:29)
15. Steven Price - I Can’t Let This Happen Again (2:56)
16. Steven Price - And Now Snow (1:56)
17. Steven Price - For Science (8:26)
18. Steven Price - The Sky Lies Open (4:08)
19. Steven Price - We Took To The Skies (4:49)
20. Steven Price - Home To You (3:42)

Exact Audio Copy V1.1 from 23. June 2015

EAC extraction logfile from 2. December 2019, 11:44

Steven Price / The Aeronauts

Used drive : slimtype eTDU108 1 Adapter: 1 ID: 0

Read mode : Secure
Utilize accurate stream : Yes
Defeat audio cache : Yes
Make use of C2 pointers : No

Read offset correction : 6
Overread into Lead-In and Lead-Out : No
Fill up missing offset samples with silence : Yes
Delete leading and trailing silent blocks : No
Null samples used in CRC calculations : Yes
Used interface : Native Win32 interface for Win NT & 2000
Gap handling : Appended to previous track

Used output format : User Defined Encoder
Selected bitrate : 1024 kBit/s
Quality : High
Add ID3 tag : No
Command line compressor : C:\Program Files (x86)\Exact Audio Copy\FLAC\FLAC.EXE
Additional command line options : -8 -V -T "ARTIST=%artist%" -T "TITLE=%title%" -T "ALBUM=%albumtitle%" -T "DATE=%year%" -T "TRACKNUMBER=%tracknr%" -T "GENRE=%genre%" -T "COMMENT=%comment%" -T "BAND=%albuminterpret%" -T "ALBUMARTIST=%albuminterpret%" -T "COMPOSER=%composer%" %haslyrics%–tag-from-file=LYRICS="%lyricsfile%"%haslyrics% -T "DISCNUMBER=%cdnumber%" -T "TOTALDISCS=%totalcds%" -T "TOTALTRACKS=%numtracks%" %hascover%–picture="%coverfile%"%hascover% %source% -o %dest%


TOC of the extracted CD

Track | Start | Length | Start sector | End sector
––––––––––––––––––––––––––––-
1 | 0:00.00 | 2:24.11 | 0 | 10810
2 | 2:24.11 | 2:32.72 | 10811 | 22282
3 | 4:57.08 | 2:07.58 | 22283 | 31865
4 | 7:04.66 | 1:55.02 | 31866 | 40492
5 | 8:59.68 | 4:01.34 | 40493 | 58601
6 | 13:01.27 | 1:43.36 | 58602 | 66362
7 | 14:44.63 | 2:28.48 | 66363 | 77510
8 | 17:13.36 | 2:28.15 | 77511 | 88625
9 | 19:41.51 | 1:56.62 | 88626 | 97387
10 | 21:38.38 | 1:04.62 | 97388 | 102249
11 | 22:43.25 | 3:25.04 | 102250 | 117628
12 | 26:08.29 | 2:23.59 | 117629 | 128412
13 | 28:32.13 | 4:05.49 | 128413 | 146836
14 | 32:37.62 | 4:28.47 | 146837 | 166983
15 | 37:06.34 | 2:55.67 | 166984 | 180175
16 | 40:02.26 | 1:55.60 | 180176 | 188860
17 | 41:58.11 | 8:25.58 | 188861 | 226793
18 | 50:23.69 | 4:08.01 | 226794 | 245394
19 | 54:31.70 | 4:49.24 | 245395 | 267093
20 | 59:21.19 | 3:41.44 | 267094 | 283712


Track 1

Filename D:\BGMusic\Steven Price - The Aeronauts\01 - Steven Price - She's Late.wav

Pre-gap length 0:00:02.00

Peak level 97.7 %
Extraction speed 1.0 X
Track quality 100.0 %
Test CRC 28E3F21A
Copy CRC 28E3F21A
Track not present in AccurateRip database
Copy OK

Track 2

Filename D:\BGMusic\Steven Price - The Aeronauts\02 - Steven Price - We Will Break That Record.wav

Peak level 93.0 %
Extraction speed 1.1 X
Track quality 100.0 %
Test CRC 41CCCDC1
Copy CRC 41CCCDC1
Track not present in AccurateRip database
Copy OK

Track 3

Filename D:\BGMusic\Steven Price - The Aeronauts\03 - Steven Price - Anything Can Happen In This Weather.wav

Peak level 97.6 %
Extraction speed 0.9 X
Track quality 99.9 %
Test CRC ECB0F570
Copy CRC ECB0F570
Track not present in AccurateRip database
Copy OK

Track 4

Filename D:\BGMusic\Steven Price - The Aeronauts\04 - Steven Price - You'll Get Your Chance.wav

Peak level 41.2 %
Extraction speed 1.2 X
Track quality 100.0 %
Test CRC 2A1D6BB7
Copy CRC 2A1D6BB7
Track not present in AccurateRip database
Copy OK

Track 5

Filename D:\BGMusic\Steven Price - The Aeronauts\05 - Steven Price - And So It Begins.wav

Pre-gap length 0:00:00.02

Peak level 97.7 %
Extraction speed 1.4 X
Track quality 100.0 %
Test CRC A2E6077B
Copy CRC A2E6077B
Track not present in AccurateRip database
Copy OK

Track 6

Filename D:\BGMusic\Steven Price - The Aeronauts\06 - Steven Price - We Rose Above It.wav

Pre-gap length 0:00:00.06

Peak level 91.7 %
Extraction speed 1.3 X
Track quality 100.0 %
Test CRC A055EA9B
Copy CRC A055EA9B
Track not present in AccurateRip database
Copy OK

Track 7

Filename D:\BGMusic\Steven Price - The Aeronauts\07 - Steven Price - Have You Noticed.wav

Peak level 99.1 %
Extraction speed 1.4 X
Track quality 100.0 %
Test CRC 88B27263
Copy CRC 88B27263
Track not present in AccurateRip database
Copy OK

Track 8

Filename D:\BGMusic\Steven Price - The Aeronauts\08 - Steven Price - Of All the Amazing Things.wav

Pre-gap length 0:00:00.96

Peak level 43.2 %
Extraction speed 1.5 X
Track quality 100.0 %
Test CRC F8DF3EC7
Copy CRC F8DF3EC7
Track not present in AccurateRip database
Copy OK

Track 9

Filename D:\BGMusic\Steven Price - The Aeronauts\09 - Steven Price - We Have a Policy.wav

Peak level 97.6 %
Extraction speed 1.1 X
Track quality 99.9 %
Test CRC 76FFE9D6
Copy CRC 76FFE9D6
Track not present in AccurateRip database
Copy OK

Track 10

Filename D:\BGMusic\Steven Price - The Aeronauts\10 - Steven Price - Dancing In a Parachute.wav

Pre-gap length 0:00:00.21

Peak level 33.2 %
Extraction speed 1.2 X
Track quality 100.0 %
Test CRC E3108B62
Copy CRC E3108B62
Track not present in AccurateRip database
Copy OK

Track 11

Filename D:\BGMusic\Steven Price - The Aeronauts\11 - Steven Price - Do You Have Faith.wav

Pre-gap length 0:00:00.58

Peak level 49.9 %
Extraction speed 1.7 X
Track quality 100.0 %
Test CRC C4D02814
Copy CRC C4D02814
Track not present in AccurateRip database
Copy OK

Track 12

Filename D:\BGMusic\Steven Price - The Aeronauts\12 - Steven Price - An Obligation.wav

Peak level 57.9 %
Extraction speed 1.6 X
Track quality 100.0 %
Test CRC A2B1BC2A
Copy CRC A2B1BC2A
Track not present in AccurateRip database
Copy OK

Track 13

Filename D:\BGMusic\Steven Price - The Aeronauts\13 - Steven Price - Imagine That Story Again.wav

Pre-gap length 0:00:00.62

Peak level 76.3 %
Extraction speed 1.6 X
Track quality 99.9 %
Test CRC E469DAC0
Copy CRC E469DAC0
Track not present in AccurateRip database
Copy OK

Track 14

Filename D:\BGMusic\Steven Price - The Aeronauts\14 - Steven Price - Somewhere I Belong.wav

Peak level 97.6 %
Extraction speed 2.0 X
Track quality 100.0 %
Test CRC EE2BABBF
Copy CRC EE2BABBF
Track not present in AccurateRip database
Copy OK

Track 15

Filename D:\BGMusic\Steven Price - The Aeronauts\15 - Steven Price - I Can't Let This Happen Again.wav

Pre-gap length 0:00:00.65

Peak level 31.3 %
Extraction speed 1.9 X
Track quality 100.0 %
Test CRC 0F06C081
Copy CRC 0F06C081
Track not present in AccurateRip database
Copy OK

Track 16

Filename D:\BGMusic\Steven Price - The Aeronauts\16 - Steven Price - And Now Snow.wav

Peak level 37.3 %
Extraction speed 1.8 X
Track quality 100.0 %
Test CRC 90B2EEA0
Copy CRC 90B2EEA0
Track not present in AccurateRip database
Copy OK

Track 17

Filename D:\BGMusic\Steven Price - The Aeronauts\17 - Steven Price - For Science.wav

Pre-gap length 0:00:00.21

Peak level 97.7 %
Extraction speed 2.3 X
Track quality 100.0 %
Test CRC 1AF7D83B
Copy CRC 1AF7D83B
Track not present in AccurateRip database
Copy OK

Track 18

Filename D:\BGMusic\Steven Price - The Aeronauts\18 - Steven Price - The Sky Lies Open.wav

Peak level 95.6 %
Extraction speed 2.0 X
Track quality 99.9 %
Test CRC 59DD0763
Copy CRC 59DD0763
Track not present in AccurateRip database
Copy OK

Track 19

Filename D:\BGMusic\Steven Price - The Aeronauts\19 - Steven Price - We Took To the Skies.wav

Peak level 97.7 %
Extraction speed 2.4 X
Track quality 100.0 %
Test CRC 1F107F18
Copy CRC 1F107F18
Track not present in AccurateRip database
Copy OK

Track 20

Filename D:\BGMusic\Steven Price - The Aeronauts\20 - Sigrid - Home To You.wav

Pre-gap length 0:00:01.05

Peak level 47.4 %
Extraction speed 2.3 X
Track quality 100.0 %
Test CRC 244FD156
Copy CRC 244FD156
Track not present in AccurateRip database
Copy OK


None of the tracks are present in the AccurateRip database

No errors occurred

End of status report

–– CUETools DB Plugin V2.1.6

[CTDB TOCID: yPAlHX15DfUx060f5cQIuvgAA9w-] disk not present in database
Submit result: yPAlHX15DfUx060f5cQIuvgAA9w- has been uploaded


==== Log checksum 6AF563841133DC5EB4B7B77F6A99C126F242A12165246DB2347EDBC4F59B7997 ====