Subcategories
Tags
Language
Tags

Sly & The Family Stone - Greatest Hits [2CD] (1995)

Posted By: JET 1
Sly & The Family Stone - Greatest Hits [2CD] (1995)

Sly & The Family Stone - Greatest Hits [2CD] (1995)
EAC Rip | FLAC (Tracks) +CUE, LOG | 632 MB | Scans
Genre: Funk, Psychedelic Soul, Rock | Label: Sony Records | Catalog Number: 471758 9

Released in 1970 during the stopgap between Stand! and There's a Riot Goin' On, Greatest Hits inadvertently arrived at precisely the right moment, summarizing Sly & the Family Stone's joyous hit-making run on the pop and R&B charts. Technically, only four songs here reached the Top Ten, with only two others hitting the Top 40, but judging this solely on charts is misleading, since this is simply a peerless singles collection. This summarizes their first four albums perfectly (almost all of Stand! outside of the two jams and "Somebody's Watching You" is here), adding the non-LP singles "Hot Fun in the Summertime," "Thank You (Falettinme Be Mice Elf Agin)," and "Everybody Is a Star," possibly the loveliest thing they ever recorded. But, this isn't merely a summary (and, if it was just that, Anthology, the early-'80s comp that covers Riot and Fresh would be stronger than this), it's one of the greatest party records of all time. Music is rarely as vivacious, vigorous, and vibrant as this, and captured on one album, the spirit, sound, and songs of Sly & the Family Stone are all the more stunning. Greatest hits don't come better than this – in fact, music rarely does. {Review by Stephen Thomas Erlewine}

Exact Audio Copy V1.3 from 2. September 2016

EAC extraction logfile from 19. September 2018, 18:14

Sly & The Family Stone / Greatest Hits

Used drive : PLEXTOR PX-891SAF Adapter: 1 ID: 0

Read mode : Secure
Utilize accurate stream : Yes
Defeat audio cache : Yes
Make use of C2 pointers : No

Read offset correction : 6
Overread into Lead-In and Lead-Out : No
Fill up missing offset samples with silence : Yes
Delete leading and trailing silent blocks : No
Null samples used in CRC calculations : Yes
Used interface : Native Win32 interface for Win NT & 2000
Gap handling : Appended to previous track

Used output format : User Defined Encoder
Selected bitrate : 1024 kBit/s
Quality : High
Add ID3 tag : No
Command line compressor : C:\Program Files (x86)\Exact Audio Copy\Flac\flac.exe
Additional command line options : -8 -V -T "ARTIST=%artist%" -T "TITLE=%title%" -T "ALBUM=%albumtitle%" -T "DATE=%year%" -T "TRACKNUMBER=%tracknr%" -T "GENRE=%genre%" -T "PERFORMER=%albuminterpret%" -T "COMPOSER=%composer%" %haslyrics%–tag-from-file=LYRICS="%lyricsfile%"%haslyrics% -T "ALBUMARTIST=%albumartist%" -T "DISCNUMBER=%cdnumber%" -T "TOTALDISCS=%totalcds%" -T "TOTALTRACKS=%numtracks%" -T "COMMENT=%comment%" %source% -o %dest%


TOC of the extracted CD

Track | Start | Length | Start sector | End sector
––––––––––––––––––––––––––––-
1 | 0:00.00 | 3:01.60 | 0 | 13634
2 | 3:01.60 | 5:25.27 | 13635 | 38036
3 | 8:27.12 | 3:05.45 | 38037 | 51956
4 | 11:32.57 | 4:43.25 | 51957 | 73206
5 | 16:16.07 | 3:13.03 | 73207 | 87684
6 | 19:29.10 | 3:06.47 | 87685 | 101681
7 | 22:35.57 | 2:46.68 | 101682 | 114199
8 | 25:22.50 | 2:53.62 | 114200 | 127236
9 | 28:16.37 | 2:22.10 | 127237 | 137896
10 | 30:38.47 | 3:57.65 | 137897 | 155736
11 | 34:36.37 | 2:38.30 | 155737 | 167616
12 | 37:14.67 | 5:58.23 | 167617 | 194489
13 | 43:13.15 | 3:28.52 | 194490 | 210141
14 | 46:41.67 | 3:00.38 | 210142 | 223679
15 | 49:42.30 | 3:01.72 | 223680 | 237326
16 | 52:44.27 | 3:00.43 | 237327 | 250869
17 | 55:44.70 | 2:54.40 | 250870 | 263959
18 | 58:39.35 | 5:22.30 | 263960 | 288139
19 | 64:01.65 | 2:56.15 | 288140 | 301354
20 | 66:58.05 | 3:53.47 | 301355 | 318876


Track 1

Filename D:\Rotterdam 2018 II\Sly & The Family Stone - Greatest Hits\cd 1\01. Sly & The Family Stone - Dance To The Music.wav

Pre-gap length 0:00:02.00

Peak level 98.6 %
Extraction speed 5.5 X
Track quality 100.0 %
Test CRC 82A3189C
Copy CRC 82A3189C
Accurately ripped (confidence 32) [6B221D47] (AR v2)
Copy OK

Track 2

Filename D:\Rotterdam 2018 II\Sly & The Family Stone - Greatest Hits\cd 1\02. Sly & The Family Stone - I Want To Take You Higher.wav

Pre-gap length 0:00:01.93

Peak level 88.7 %
Extraction speed 5.6 X
Track quality 99.9 %
Test CRC 8AA2F930
Copy CRC 8AA2F930
Accurately ripped (confidence 33) [6C5750B8] (AR v2)
Copy OK

Track 3

Filename D:\Rotterdam 2018 II\Sly & The Family Stone - Greatest Hits\cd 1\03. Sly & The Family Stone - Family Affair.wav

Pre-gap length 0:00:01.76

Peak level 97.9 %
Extraction speed 5.2 X
Track quality 99.9 %
Test CRC 64EFAA40
Copy CRC 64EFAA40
Accurately ripped (confidence 33) [052D173E] (AR v2)
Copy OK

Track 4

Filename D:\Rotterdam 2018 II\Sly & The Family Stone - Greatest Hits\cd 1\04. Sly & The Family Stone - Thank You (Falettinme Be Mice Elf Again).wav

Pre-gap length 0:00:01.96

Peak level 99.8 %
Extraction speed 7.3 X
Track quality 100.0 %
Test CRC 075E9B50
Copy CRC 075E9B50
Accurately ripped (confidence 33) [2B31CCC8] (AR v2)
Copy OK

Track 5

Filename D:\Rotterdam 2018 II\Sly & The Family Stone - Greatest Hits\cd 1\05. Sly & The Family Stone - I Get High On You.wav

Pre-gap length 0:00:01.49

Peak level 89.2 %
Extraction speed 7.3 X
Track quality 100.0 %
Test CRC D5FBB7F1
Copy CRC D5FBB7F1
Accurately ripped (confidence 33) [D7E4A639] (AR v2)
Copy OK

Track 6

Filename D:\Rotterdam 2018 II\Sly & The Family Stone - Greatest Hits\cd 1\06. Sly & The Family Stone - Stand.wav

Pre-gap length 0:00:01.10

Peak level 89.5 %
Extraction speed 7.6 X
Track quality 100.0 %
Test CRC B53B592A
Copy CRC B53B592A
Accurately ripped (confidence 33) [9EF956D7] (AR v2)
Copy OK

Track 7

Filename D:\Rotterdam 2018 II\Sly & The Family Stone - Greatest Hits\cd 1\07. Sly & The Family Stone - M'Lady.wav

Pre-gap length 0:00:01.40

Peak level 87.6 %
Extraction speed 7.7 X
Track quality 100.0 %
Test CRC 081BC68B
Copy CRC 081BC68B
Accurately ripped (confidence 33) [971AF4EF] (AR v2)
Copy OK

Track 8

Filename D:\Rotterdam 2018 II\Sly & The Family Stone - Greatest Hits\cd 1\08. Sly & The Family Stone - Skin I'm In.wav

Pre-gap length 0:00:01.40

Peak level 86.0 %
Extraction speed 7.9 X
Track quality 100.0 %
Test CRC 518B948C
Copy CRC 518B948C
Accurately ripped (confidence 33) [917C27C0] (AR v2)
Copy OK

Track 9

Filename D:\Rotterdam 2018 II\Sly & The Family Stone - Greatest Hits\cd 1\09. Sly & The Family Stone - Everyday People.wav

Pre-gap length 0:00:01.00

Peak level 73.7 %
Extraction speed 7.9 X
Track quality 100.0 %
Test CRC 581E53DA
Copy CRC 581E53DA
Accurately ripped (confidence 33) [5FC9AF8D] (AR v2)
Copy OK

Track 10

Filename D:\Rotterdam 2018 II\Sly & The Family Stone - Greatest Hits\cd 1\10. Sly & The Family Stone - Sing A Simple Song.wav

Pre-gap length 0:00:01.73

Peak level 81.7 %
Extraction speed 8.9 X
Track quality 100.0 %
Test CRC 3F97B837
Copy CRC 3F97B837
Accurately ripped (confidence 33) [3DEE81CB] (AR v2)
Copy OK

Track 11

Filename D:\Rotterdam 2018 II\Sly & The Family Stone - Greatest Hits\cd 1\11. Sly & The Family Stone - Hot Fun In The Summertime.wav

Pre-gap length 0:00:01.56

Peak level 100.0 %
Extraction speed 8.5 X
Track quality 100.0 %
Test CRC 1A6432FE
Copy CRC 1A6432FE
Accurately ripped (confidence 33) [CE5177B8] (AR v2)
Copy OK

Track 12

Filename D:\Rotterdam 2018 II\Sly & The Family Stone - Greatest Hits\cd 1\12. Sly & The Family Stone - Don't Call Me Nigger, Whitey.wav

Pre-gap length 0:00:01.53

Peak level 99.7 %
Extraction speed 9.9 X
Track quality 100.0 %
Test CRC D64422A2
Copy CRC D64422A2
Accurately ripped (confidence 33) [3D3AE0B8] (AR v2)
Copy OK

Track 13

Filename D:\Rotterdam 2018 II\Sly & The Family Stone - Greatest Hits\cd 1\13. Sly & The Family Stone - Brave & Strong.wav

Pre-gap length 0:00:01.73

Peak level 90.3 %
Extraction speed 9.6 X
Track quality 100.0 %
Test CRC AEE4C00A
Copy CRC AEE4C00A
Accurately ripped (confidence 33) [35D1A2BC] (AR v2)
Copy OK

Track 14

Filename D:\Rotterdam 2018 II\Sly & The Family Stone - Greatest Hits\cd 1\14. Sly & The Family Stone - Life.wav

Pre-gap length 0:00:01.60

Peak level 100.0 %
Extraction speed 9.6 X
Track quality 100.0 %
Test CRC 8AE6D9D5
Copy CRC 8AE6D9D5
Accurately ripped (confidence 33) [7F225DDE] (AR v2)
Copy OK

Track 15

Filename D:\Rotterdam 2018 II\Sly & The Family Stone - Greatest Hits\cd 1\15. Sly & The Family Stone - Everybody Is A Star.wav

Pre-gap length 0:00:01.37

Peak level 100.0 %
Extraction speed 9.7 X
Track quality 100.0 %
Test CRC 1A57B7F3
Copy CRC 1A57B7F3
Accurately ripped (confidence 33) [44D4457A] (AR v2)
Copy OK

Track 16

Filename D:\Rotterdam 2018 II\Sly & The Family Stone - Greatest Hits\cd 1\16. Sly & The Family Stone - If You Want Me To Stay.wav

Pre-gap length 0:00:01.76

Peak level 78.6 %
Extraction speed 8.1 X
Track quality 99.9 %
Test CRC F7EEA54F
Copy CRC F7EEA54F
Accurately ripped (confidence 33) [413B8D3A] (AR v2)
Copy OK

Track 17

Filename D:\Rotterdam 2018 II\Sly & The Family Stone - Greatest Hits\cd 1\17. Sly & The Family Stone - (You Caught Me) Smilin'.wav

Pre-gap length 0:00:01.97

Peak level 97.2 %
Extraction speed 10.1 X
Track quality 100.0 %
Test CRC 20F858B6
Copy CRC 20F858B6
Accurately ripped (confidence 33) [B774C4E2] (AR v2)
Copy OK

Track 18

Filename D:\Rotterdam 2018 II\Sly & The Family Stone - Greatest Hits\cd 1\18. Sly & The Family Stone - Que Sera Sera (Whatever Will Be, Will Be).wav

Pre-gap length 0:00:01.33

Peak level 71.8 %
Extraction speed 11.1 X
Track quality 100.0 %
Test CRC A82E1700
Copy CRC A82E1700
Accurately ripped (confidence 32) [F130DF10] (AR v2)
Copy OK

Track 19

Filename D:\Rotterdam 2018 II\Sly & The Family Stone - Greatest Hits\cd 1\19. Sly & The Family Stone - Runnin' Away.wav

Pre-gap length 0:00:00.90

Peak level 90.7 %
Extraction speed 10.7 X
Track quality 100.0 %
Test CRC 8E48EA33
Copy CRC 8E48EA33
Accurately ripped (confidence 33) [E0CD02EA] (AR v2)
Copy OK

Track 20

Filename D:\Rotterdam 2018 II\Sly & The Family Stone - Greatest Hits\cd 1\20. Sly & The Family Stone - Family Affair (Remix).wav

Pre-gap length 0:00:01.30

Peak level 94.0 %
Extraction speed 11.5 X
Track quality 100.0 %
Test CRC 41A1B262
Copy CRC 41A1B262
Accurately ripped (confidence 33) [5A665897] (AR v2)
Copy OK


All tracks accurately ripped

No errors occurred

End of status report

–– CUETools DB Plugin V2.1.6

[CTDB TOCID: Gx027BEpcWBVnlcMCYjX0SqGRfE-] found
Submit result: Gx027BEpcWBVnlcMCYjX0SqGRfE- has been confirmed
Track | CTDB Status
1 | (148/149) Accurately ripped
2 | (149/149) Accurately ripped
3 | (147/149) Accurately ripped
4 | (147/149) Accurately ripped
5 | (146/149) Accurately ripped
6 | (146/149) Accurately ripped
7 | (148/149) Accurately ripped
8 | (146/149) Accurately ripped
9 | (147/149) Accurately ripped
10 | (147/149) Accurately ripped
11 | (148/149) Accurately ripped
12 | (147/149) Accurately ripped
13 | (149/149) Accurately ripped
14 | (147/149) Accurately ripped
15 | (148/149) Accurately ripped
16 | (148/149) Accurately ripped
17 | (148/149) Accurately ripped
18 | (147/149) Accurately ripped
19 | (147/149) Accurately ripped
20 | (146/149) Accurately ripped


==== Log checksum 61CB75AF66DC1DE701E449769089C01E56771309C0D73A68353CD5FB1B0B7D34 ====

––––––––––––––––––––––––––––––

Exact Audio Copy V1.3 from 2. September 2016

EAC extraction logfile from 19. September 2018, 18:14

Sly & The Family Stone / Greatest Hits

Used drive : PLEXTOR PX-891SAF Adapter: 1 ID: 0

Read mode : Secure
Utilize accurate stream : Yes
Defeat audio cache : Yes
Make use of C2 pointers : No

Read offset correction : 6
Overread into Lead-In and Lead-Out : No
Fill up missing offset samples with silence : Yes
Delete leading and trailing silent blocks : No
Null samples used in CRC calculations : Yes
Used interface : Native Win32 interface for Win NT & 2000
Gap handling : Appended to previous track

Used output format : User Defined Encoder
Selected bitrate : 1024 kBit/s
Quality : High
Add ID3 tag : No
Command line compressor : C:\Program Files (x86)\Exact Audio Copy\Flac\flac.exe
Additional command line options : -8 -V -T "ARTIST=%artist%" -T "TITLE=%title%" -T "ALBUM=%albumtitle%" -T "DATE=%year%" -T "TRACKNUMBER=%tracknr%" -T "GENRE=%genre%" -T "PERFORMER=%albuminterpret%" -T "COMPOSER=%composer%" %haslyrics%–tag-from-file=LYRICS="%lyricsfile%"%haslyrics% -T "ALBUMARTIST=%albumartist%" -T "DISCNUMBER=%cdnumber%" -T "TOTALDISCS=%totalcds%" -T "TOTALTRACKS=%numtracks%" -T "COMMENT=%comment%" %source% -o %dest%


TOC of the extracted CD

Track | Start | Length | Start sector | End sector
––––––––––––––––––––––––––––-
1 | 0:00.00 | 3:01.60 | 0 | 13634
2 | 3:01.60 | 5:25.27 | 13635 | 38036
3 | 8:27.12 | 3:05.45 | 38037 | 51956
4 | 11:32.57 | 4:43.25 | 51957 | 73206
5 | 16:16.07 | 3:13.03 | 73207 | 87684
6 | 19:29.10 | 3:06.47 | 87685 | 101681
7 | 22:35.57 | 2:46.68 | 101682 | 114199
8 | 25:22.50 | 2:53.62 | 114200 | 127236
9 | 28:16.37 | 2:22.10 | 127237 | 137896
10 | 30:38.47 | 3:57.65 | 137897 | 155736
11 | 34:36.37 | 2:38.30 | 155737 | 167616
12 | 37:14.67 | 5:58.23 | 167617 | 194489
13 | 43:13.15 | 3:28.52 | 194490 | 210141
14 | 46:41.67 | 3:00.38 | 210142 | 223679
15 | 49:42.30 | 3:01.72 | 223680 | 237326
16 | 52:44.27 | 3:00.43 | 237327 | 250869
17 | 55:44.70 | 2:54.40 | 250870 | 263959
18 | 58:39.35 | 5:22.30 | 263960 | 288139
19 | 64:01.65 | 2:56.15 | 288140 | 301354
20 | 66:58.05 | 3:53.47 | 301355 | 318876


Track 1

Filename D:\Rotterdam 2018 II\Sly & The Family Stone - Greatest Hits\cd 1\01. Sly & The Family Stone - Dance To The Music.wav

Pre-gap length 0:00:02.00

Peak level 98.6 %
Extraction speed 5.5 X
Track quality 100.0 %
Test CRC 82A3189C
Copy CRC 82A3189C
Accurately ripped (confidence 32) [6B221D47] (AR v2)
Copy OK

Track 2

Filename D:\Rotterdam 2018 II\Sly & The Family Stone - Greatest Hits\cd 1\02. Sly & The Family Stone - I Want To Take You Higher.wav

Pre-gap length 0:00:01.93

Peak level 88.7 %
Extraction speed 5.6 X
Track quality 99.9 %
Test CRC 8AA2F930
Copy CRC 8AA2F930
Accurately ripped (confidence 33) [6C5750B8] (AR v2)
Copy OK

Track 3

Filename D:\Rotterdam 2018 II\Sly & The Family Stone - Greatest Hits\cd 1\03. Sly & The Family Stone - Family Affair.wav

Pre-gap length 0:00:01.76

Peak level 97.9 %
Extraction speed 5.2 X
Track quality 99.9 %
Test CRC 64EFAA40
Copy CRC 64EFAA40
Accurately ripped (confidence 33) [052D173E] (AR v2)
Copy OK

Track 4

Filename D:\Rotterdam 2018 II\Sly & The Family Stone - Greatest Hits\cd 1\04. Sly & The Family Stone - Thank You (Falettinme Be Mice Elf Again).wav

Pre-gap length 0:00:01.96

Peak level 99.8 %
Extraction speed 7.3 X
Track quality 100.0 %
Test CRC 075E9B50
Copy CRC 075E9B50
Accurately ripped (confidence 33) [2B31CCC8] (AR v2)
Copy OK

Track 5

Filename D:\Rotterdam 2018 II\Sly & The Family Stone - Greatest Hits\cd 1\05. Sly & The Family Stone - I Get High On You.wav

Pre-gap length 0:00:01.49

Peak level 89.2 %
Extraction speed 7.3 X
Track quality 100.0 %
Test CRC D5FBB7F1
Copy CRC D5FBB7F1
Accurately ripped (confidence 33) [D7E4A639] (AR v2)
Copy OK

Track 6

Filename D:\Rotterdam 2018 II\Sly & The Family Stone - Greatest Hits\cd 1\06. Sly & The Family Stone - Stand.wav

Pre-gap length 0:00:01.10

Peak level 89.5 %
Extraction speed 7.6 X
Track quality 100.0 %
Test CRC B53B592A
Copy CRC B53B592A
Accurately ripped (confidence 33) [9EF956D7] (AR v2)
Copy OK

Track 7

Filename D:\Rotterdam 2018 II\Sly & The Family Stone - Greatest Hits\cd 1\07. Sly & The Family Stone - M'Lady.wav

Pre-gap length 0:00:01.40

Peak level 87.6 %
Extraction speed 7.7 X
Track quality 100.0 %
Test CRC 081BC68B
Copy CRC 081BC68B
Accurately ripped (confidence 33) [971AF4EF] (AR v2)
Copy OK

Track 8

Filename D:\Rotterdam 2018 II\Sly & The Family Stone - Greatest Hits\cd 1\08. Sly & The Family Stone - Skin I'm In.wav

Pre-gap length 0:00:01.40

Peak level 86.0 %
Extraction speed 7.9 X
Track quality 100.0 %
Test CRC 518B948C
Copy CRC 518B948C
Accurately ripped (confidence 33) [917C27C0] (AR v2)
Copy OK

Track 9

Filename D:\Rotterdam 2018 II\Sly & The Family Stone - Greatest Hits\cd 1\09. Sly & The Family Stone - Everyday People.wav

Pre-gap length 0:00:01.00

Peak level 73.7 %
Extraction speed 7.9 X
Track quality 100.0 %
Test CRC 581E53DA
Copy CRC 581E53DA
Accurately ripped (confidence 33) [5FC9AF8D] (AR v2)
Copy OK

Track 10

Filename D:\Rotterdam 2018 II\Sly & The Family Stone - Greatest Hits\cd 1\10. Sly & The Family Stone - Sing A Simple Song.wav

Pre-gap length 0:00:01.73

Peak level 81.7 %
Extraction speed 8.9 X
Track quality 100.0 %
Test CRC 3F97B837
Copy CRC 3F97B837
Accurately ripped (confidence 33) [3DEE81CB] (AR v2)
Copy OK

Track 11

Filename D:\Rotterdam 2018 II\Sly & The Family Stone - Greatest Hits\cd 1\11. Sly & The Family Stone - Hot Fun In The Summertime.wav

Pre-gap length 0:00:01.56

Peak level 100.0 %
Extraction speed 8.5 X
Track quality 100.0 %
Test CRC 1A6432FE
Copy CRC 1A6432FE
Accurately ripped (confidence 33) [CE5177B8] (AR v2)
Copy OK

Track 12

Filename D:\Rotterdam 2018 II\Sly & The Family Stone - Greatest Hits\cd 1\12. Sly & The Family Stone - Don't Call Me Nigger, Whitey.wav

Pre-gap length 0:00:01.53

Peak level 99.7 %
Extraction speed 9.9 X
Track quality 100.0 %
Test CRC D64422A2
Copy CRC D64422A2
Accurately ripped (confidence 33) [3D3AE0B8] (AR v2)
Copy OK

Track 13

Filename D:\Rotterdam 2018 II\Sly & The Family Stone - Greatest Hits\cd 1\13. Sly & The Family Stone - Brave & Strong.wav

Pre-gap length 0:00:01.73

Peak level 90.3 %
Extraction speed 9.6 X
Track quality 100.0 %
Test CRC AEE4C00A
Copy CRC AEE4C00A
Accurately ripped (confidence 33) [35D1A2BC] (AR v2)
Copy OK

Track 14

Filename D:\Rotterdam 2018 II\Sly & The Family Stone - Greatest Hits\cd 1\14. Sly & The Family Stone - Life.wav

Pre-gap length 0:00:01.60

Peak level 100.0 %
Extraction speed 9.6 X
Track quality 100.0 %
Test CRC 8AE6D9D5
Copy CRC 8AE6D9D5
Accurately ripped (confidence 33) [7F225DDE] (AR v2)
Copy OK

Track 15

Filename D:\Rotterdam 2018 II\Sly & The Family Stone - Greatest Hits\cd 1\15. Sly & The Family Stone - Everybody Is A Star.wav

Pre-gap length 0:00:01.37

Peak level 100.0 %
Extraction speed 9.7 X
Track quality 100.0 %
Test CRC 1A57B7F3
Copy CRC 1A57B7F3
Accurately ripped (confidence 33) [44D4457A] (AR v2)
Copy OK

Track 16

Filename D:\Rotterdam 2018 II\Sly & The Family Stone - Greatest Hits\cd 1\16. Sly & The Family Stone - If You Want Me To Stay.wav

Pre-gap length 0:00:01.76

Peak level 78.6 %
Extraction speed 8.1 X
Track quality 99.9 %
Test CRC F7EEA54F
Copy CRC F7EEA54F
Accurately ripped (confidence 33) [413B8D3A] (AR v2)
Copy OK

Track 17

Filename D:\Rotterdam 2018 II\Sly & The Family Stone - Greatest Hits\cd 1\17. Sly & The Family Stone - (You Caught Me) Smilin'.wav

Pre-gap length 0:00:01.97

Peak level 97.2 %
Extraction speed 10.1 X
Track quality 100.0 %
Test CRC 20F858B6
Copy CRC 20F858B6
Accurately ripped (confidence 33) [B774C4E2] (AR v2)
Copy OK

Track 18

Filename D:\Rotterdam 2018 II\Sly & The Family Stone - Greatest Hits\cd 1\18. Sly & The Family Stone - Que Sera Sera (Whatever Will Be, Will Be).wav

Pre-gap length 0:00:01.33

Peak level 71.8 %
Extraction speed 11.1 X
Track quality 100.0 %
Test CRC A82E1700
Copy CRC A82E1700
Accurately ripped (confidence 32) [F130DF10] (AR v2)
Copy OK

Track 19

Filename D:\Rotterdam 2018 II\Sly & The Family Stone - Greatest Hits\cd 1\19. Sly & The Family Stone - Runnin' Away.wav

Pre-gap length 0:00:00.90

Peak level 90.7 %
Extraction speed 10.7 X
Track quality 100.0 %
Test CRC 8E48EA33
Copy CRC 8E48EA33
Accurately ripped (confidence 33) [E0CD02EA] (AR v2)
Copy OK

Track 20

Filename D:\Rotterdam 2018 II\Sly & The Family Stone - Greatest Hits\cd 1\20. Sly & The Family Stone - Family Affair (Remix).wav

Pre-gap length 0:00:01.30

Peak level 94.0 %
Extraction speed 11.5 X
Track quality 100.0 %
Test CRC 41A1B262
Copy CRC 41A1B262
Accurately ripped (confidence 33) [5A665897] (AR v2)
Copy OK


All tracks accurately ripped

No errors occurred

End of status report

–– CUETools DB Plugin V2.1.6

[CTDB TOCID: Gx027BEpcWBVnlcMCYjX0SqGRfE-] found
Submit result: Gx027BEpcWBVnlcMCYjX0SqGRfE- has been confirmed
Track | CTDB Status
1 | (148/149) Accurately ripped
2 | (149/149) Accurately ripped
3 | (147/149) Accurately ripped
4 | (147/149) Accurately ripped
5 | (146/149) Accurately ripped
6 | (146/149) Accurately ripped
7 | (148/149) Accurately ripped
8 | (146/149) Accurately ripped
9 | (147/149) Accurately ripped
10 | (147/149) Accurately ripped
11 | (148/149) Accurately ripped
12 | (147/149) Accurately ripped
13 | (149/149) Accurately ripped
14 | (147/149) Accurately ripped
15 | (148/149) Accurately ripped
16 | (148/149) Accurately ripped
17 | (148/149) Accurately ripped
18 | (147/149) Accurately ripped
19 | (147/149) Accurately ripped
20 | (146/149) Accurately ripped


==== Log checksum 61CB75AF66DC1DE701E449769089C01E56771309C0D73A68353CD5FB1B0B7D34 ====

Exact Audio Copy V1.3 from 2. September 2016

EAC extraction logfile from 19. September 2018, 18:28

Sly & the Family Stone / Greatest Hits (Best of the Best) (Disc 2)

Used drive : PLEXTOR PX-891SAF Adapter: 1 ID: 0

Read mode : Secure
Utilize accurate stream : Yes
Defeat audio cache : Yes
Make use of C2 pointers : No

Read offset correction : 6
Overread into Lead-In and Lead-Out : No
Fill up missing offset samples with silence : Yes
Delete leading and trailing silent blocks : No
Null samples used in CRC calculations : Yes
Used interface : Native Win32 interface for Win NT & 2000
Gap handling : Appended to previous track

Used output format : User Defined Encoder
Selected bitrate : 1024 kBit/s
Quality : High
Add ID3 tag : No
Command line compressor : C:\Program Files (x86)\Exact Audio Copy\Flac\flac.exe
Additional command line options : -8 -V -T "ARTIST=%artist%" -T "TITLE=%title%" -T "ALBUM=%albumtitle%" -T "DATE=%year%" -T "TRACKNUMBER=%tracknr%" -T "GENRE=%genre%" -T "PERFORMER=%albuminterpret%" -T "COMPOSER=%composer%" %haslyrics%–tag-from-file=LYRICS="%lyricsfile%"%haslyrics% -T "ALBUMARTIST=%albumartist%" -T "DISCNUMBER=%cdnumber%" -T "TOTALDISCS=%totalcds%" -T "TOTALTRACKS=%numtracks%" -T "COMMENT=%comment%" %source% -o %dest%


TOC of the extracted CD

Track | Start | Length | Start sector | End sector
––––––––––––––––––––––––––––-
1 | 0:00.00 | 6:39.32 | 0 | 29956
2 | 6:39.32 | 6:05.63 | 29957 | 57394
3 | 12:45.20 | 5:58.62 | 57395 | 84306
4 | 18:44.07 | 6:17.00 | 84307 | 112581
5 | 25:01.07 | 5:50.15 | 112582 | 138846
6 | 30:51.22 | 3:40.03 | 138847 | 155349


Track 1

Filename D:\Rotterdam 2018 II\Sly & The Family Stone - Greatest Hits\cd 2\01. Sly & the Family Stone - Dance to the Music.wav

Pre-gap length 0:00:02.00

Peak level 100.0 %
Extraction speed 5.5 X
Track quality 100.0 %
Test CRC EC17FBB1
Copy CRC EC17FBB1
Cannot be verified as accurate (confidence 13) [688E55AF], AccurateRip returned [7FD06FE2] (AR v2)
Copy OK

Track 2

Filename D:\Rotterdam 2018 II\Sly & The Family Stone - Greatest Hits\cd 2\02. Sly & the Family Stone - Sing a Simple Song.wav

Pre-gap length 0:00:02.13

Peak level 100.0 %
Extraction speed 5.5 X
Track quality 99.9 %
Test CRC 6642E71D
Copy CRC 6642E71D
Cannot be verified as accurate (confidence 13) [29230491], AccurateRip returned [00B79AD4] (AR v2)
Copy OK

Track 3

Filename D:\Rotterdam 2018 II\Sly & The Family Stone - Greatest Hits\cd 2\03. Sly & the Family Stone - Everyday People.wav

Pre-gap length 0:00:02.04

Peak level 95.6 %
Extraction speed 6.9 X
Track quality 100.0 %
Test CRC AF634308
Copy CRC AF634308
Cannot be verified as accurate (confidence 13) [32715D9B], AccurateRip returned [97F3DD0F] (AR v2)
Copy OK

Track 4

Filename D:\Rotterdam 2018 II\Sly & The Family Stone - Greatest Hits\cd 2\04. Sly & the Family Stone - Stand!.wav

Pre-gap length 0:00:01.20

Peak level 92.0 %
Extraction speed 7.5 X
Track quality 100.0 %
Test CRC 4F01E3F4
Copy CRC 4F01E3F4
Cannot be verified as accurate (confidence 13) [BEE627EE], AccurateRip returned [A09CCBA0] (AR v2)
Copy OK

Track 5

Filename D:\Rotterdam 2018 II\Sly & The Family Stone - Greatest Hits\cd 2\05. Sly & the Family Stone - I Get High on You.wav

Pre-gap length 0:00:01.56

Peak level 77.6 %
Extraction speed 8.1 X
Track quality 100.0 %
Test CRC 17263E0C
Copy CRC 17263E0C
Cannot be verified as accurate (confidence 13) [4C28E1AC], AccurateRip returned [1D55436D] (AR v2)
Copy OK

Track 6

Filename D:\Rotterdam 2018 II\Sly & The Family Stone - Greatest Hits\cd 2\06. Sly & the Family Stone - You Can Make It If You Try.wav

Pre-gap length 0:00:02.13

Peak level 100.0 %
Extraction speed 7.9 X
Track quality 100.0 %
Test CRC E715A048
Copy CRC E715A048
Cannot be verified as accurate (confidence 13) [AA651468], AccurateRip returned [64E014BD] (AR v2)
Copy OK


No tracks could be verified as accurate
You may have a different pressing from the one(s) in the database

No errors occurred

End of status report

–– CUETools DB Plugin V2.1.6

[CTDB TOCID: 3sbIzcJUU82izxsYE8Mzu_XMvPs-] found
Submit result: 3sbIzcJUU82izxsYE8Mzu_XMvPs- has been confirmed
Track | CTDB Status
1 | (19/20) Accurately ripped
2 | (20/20) Accurately ripped
3 | (20/20) Accurately ripped
4 | (20/20) Accurately ripped
5 | (20/20) Accurately ripped
6 | (20/20) Accurately ripped


==== Log checksum D7B53CC67B90B3313BE8E25D218F9A01D095638795D076008E69302504A18959 ====

––––––––––––––––––––––––––––––

Exact Audio Copy V1.3 from 2. September 2016

EAC extraction logfile from 19. September 2018, 18:28

Sly & the Family Stone / Greatest Hits (Best of the Best) (Disc 2)

Used drive : PLEXTOR PX-891SAF Adapter: 1 ID: 0

Read mode : Secure
Utilize accurate stream : Yes
Defeat audio cache : Yes
Make use of C2 pointers : No

Read offset correction : 6
Overread into Lead-In and Lead-Out : No
Fill up missing offset samples with silence : Yes
Delete leading and trailing silent blocks : No
Null samples used in CRC calculations : Yes
Used interface : Native Win32 interface for Win NT & 2000
Gap handling : Appended to previous track

Used output format : User Defined Encoder
Selected bitrate : 1024 kBit/s
Quality : High
Add ID3 tag : No
Command line compressor : C:\Program Files (x86)\Exact Audio Copy\Flac\flac.exe
Additional command line options : -8 -V -T "ARTIST=%artist%" -T "TITLE=%title%" -T "ALBUM=%albumtitle%" -T "DATE=%year%" -T "TRACKNUMBER=%tracknr%" -T "GENRE=%genre%" -T "PERFORMER=%albuminterpret%" -T "COMPOSER=%composer%" %haslyrics%–tag-from-file=LYRICS="%lyricsfile%"%haslyrics% -T "ALBUMARTIST=%albumartist%" -T "DISCNUMBER=%cdnumber%" -T "TOTALDISCS=%totalcds%" -T "TOTALTRACKS=%numtracks%" -T "COMMENT=%comment%" %source% -o %dest%


TOC of the extracted CD

Track | Start | Length | Start sector | End sector
––––––––––––––––––––––––––––-
1 | 0:00.00 | 6:39.32 | 0 | 29956
2 | 6:39.32 | 6:05.63 | 29957 | 57394
3 | 12:45.20 | 5:58.62 | 57395 | 84306
4 | 18:44.07 | 6:17.00 | 84307 | 112581
5 | 25:01.07 | 5:50.15 | 112582 | 138846
6 | 30:51.22 | 3:40.03 | 138847 | 155349


Track 1

Filename D:\Rotterdam 2018 II\Sly & The Family Stone - Greatest Hits\cd 2\01. Sly & the Family Stone - Dance to the Music.wav

Pre-gap length 0:00:02.00

Peak level 100.0 %
Extraction speed 5.5 X
Track quality 100.0 %
Test CRC EC17FBB1
Copy CRC EC17FBB1
Cannot be verified as accurate (confidence 13) [688E55AF], AccurateRip returned [7FD06FE2] (AR v2)
Copy OK

Track 2

Filename D:\Rotterdam 2018 II\Sly & The Family Stone - Greatest Hits\cd 2\02. Sly & the Family Stone - Sing a Simple Song.wav

Pre-gap length 0:00:02.13

Peak level 100.0 %
Extraction speed 5.5 X
Track quality 99.9 %
Test CRC 6642E71D
Copy CRC 6642E71D
Cannot be verified as accurate (confidence 13) [29230491], AccurateRip returned [00B79AD4] (AR v2)
Copy OK

Track 3

Filename D:\Rotterdam 2018 II\Sly & The Family Stone - Greatest Hits\cd 2\03. Sly & the Family Stone - Everyday People.wav

Pre-gap length 0:00:02.04

Peak level 95.6 %
Extraction speed 6.9 X
Track quality 100.0 %
Test CRC AF634308
Copy CRC AF634308
Cannot be verified as accurate (confidence 13) [32715D9B], AccurateRip returned [97F3DD0F] (AR v2)
Copy OK

Track 4

Filename D:\Rotterdam 2018 II\Sly & The Family Stone - Greatest Hits\cd 2\04. Sly & the Family Stone - Stand!.wav

Pre-gap length 0:00:01.20

Peak level 92.0 %
Extraction speed 7.5 X
Track quality 100.0 %
Test CRC 4F01E3F4
Copy CRC 4F01E3F4
Cannot be verified as accurate (confidence 13) [BEE627EE], AccurateRip returned [A09CCBA0] (AR v2)
Copy OK

Track 5

Filename D:\Rotterdam 2018 II\Sly & The Family Stone - Greatest Hits\cd 2\05. Sly & the Family Stone - I Get High on You.wav

Pre-gap length 0:00:01.56

Peak level 77.6 %
Extraction speed 8.1 X
Track quality 100.0 %
Test CRC 17263E0C
Copy CRC 17263E0C
Cannot be verified as accurate (confidence 13) [4C28E1AC], AccurateRip returned [1D55436D] (AR v2)
Copy OK

Track 6

Filename D:\Rotterdam 2018 II\Sly & The Family Stone - Greatest Hits\cd 2\06. Sly & the Family Stone - You Can Make It If You Try.wav

Pre-gap length 0:00:02.13

Peak level 100.0 %
Extraction speed 7.9 X
Track quality 100.0 %
Test CRC E715A048
Copy CRC E715A048
Cannot be verified as accurate (confidence 13) [AA651468], AccurateRip returned [64E014BD] (AR v2)
Copy OK


No tracks could be verified as accurate
You may have a different pressing from the one(s) in the database

No errors occurred

End of status report

–– CUETools DB Plugin V2.1.6

[CTDB TOCID: 3sbIzcJUU82izxsYE8Mzu_XMvPs-] found
Submit result: 3sbIzcJUU82izxsYE8Mzu_XMvPs- has been confirmed
Track | CTDB Status
1 | (19/20) Accurately ripped
2 | (20/20) Accurately ripped
3 | (20/20) Accurately ripped
4 | (20/20) Accurately ripped
5 | (20/20) Accurately ripped
6 | (20/20) Accurately ripped


==== Log checksum D7B53CC67B90B3313BE8E25D218F9A01D095638795D076008E69302504A18959 ====


Tracklist ::
CD 1
01. Dance To The Music
02. I Want To Take You Higher
03. Family Affair
04. Thank You (Falettinme Be Mice Elf Again)
05. I Get High On You
06. Stand
07. M'lady
08. Skin I'm In
09. Everyday People
10. Sing A Simple Song
11. Hot Fun In The Summertime
12. Don't Call Me Nigger, Whitey
13. Brave & Strong
14. Life
15. Everybody Is A Star
16. If You Want Me To Stay
17. (You Caught Me) Smilin'
18. Que Sera Sera (Whatever Will Be, Will Be)
19. Runnin' Away
20. Family Affair (Remix)

CD 2
01. Dance To The Music
02. Sing A Simple Song
03. Everyday People
04. Stand!
05. I Get High On You
06. You Can Make It If You Try