Subcategories

Rod Stewart - Every Picture Tells A Story (1971) {Japan Platinum SHM-CD}

Posted By: tiburon
Rod Stewart - Every Picture Tells A Story (1971) {Japan Platinum SHM-CD}

Rod Stewart - Every Picture Tells A Story (1971) {Japan Platinum SHM-CD}
EAC 1.0b3 | FLAC Image level 8 | Cue+Log | Full Scans 300dpi | 597MB + 5% Recovery
MP3 CBR 320 Kbps | 93MB + 5% Recovery
Genre: Rock
Rod Stewart - Every Picture Tells A Story (1971) {Japan Platinum SHM-CD}

Every Picture Tells a Story is the third studio album by the British singer-songwriter Rod Stewart, released in May 1971. It incorporates hard rock, folk, and blues styles. It went to number one on both the UK and US charts and finished third in the Pazz & Jop critics' poll for best album of 1971. It has been an enduring critical success, including a number 172 ranking on Rolling Stone Magazine's 2003 list of the 500 greatest albums of all time.
Track List
01. Every Picture Tells A Story 6:00
02. Seems Like A Long Time 4:02
03. That's All Right 6:01
04. Tomorrow Is A Long Time 3:48
05. Maggie May 5:50
06. Mandolin Wind 5:37
07. (I Know) I'm Losing You 5:25
08. Reason To Believe 4:09


Exact Audio Copy V1.0 beta 3 from 29. August 2011

EAC extraction logfile from 17. December 2014, 18:28

Rod Stewart / Every Picture Tells A Story PT-SHM

Used drive : PLEXTOR BD-R PX-B950SA Adapter: 6 ID: 0

Read mode : Secure
Utilize accurate stream : Yes
Defeat audio cache : Yes
Make use of C2 pointers : No

Read offset correction : 6
Overread into Lead-In and Lead-Out : No
Fill up missing offset samples with silence : Yes
Delete leading and trailing silent blocks : No
Null samples used in CRC calculations : Yes
Used interface : Native Win32 interface for Win NT & 2000

Used output format : Internal WAV Routines
Sample format : 44.100 Hz; 16 Bit; Stereo


TOC of the extracted CD

Track | Start | Length | Start sector | End sector
––––––––––––––––––––––––––––-
1 | 0:00.00 | 5:59.60 | 0 | 26984
2 | 5:59.60 | 4:03.65 | 26985 | 45274
3 | 10:03.50 | 5:59.50 | 45275 | 72249
4 | 16:03.25 | 3:46.15 | 72250 | 89214
5 | 19:49.40 | 5:50.20 | 89215 | 115484
6 | 25:39.60 | 5:36.22 | 115485 | 140706
7 | 31:16.07 | 5:23.68 | 140707 | 164999
8 | 36:40.00 | 4:06.57 | 165000 | 183506


Range status and errors

Selected range

Filename C:\Users\Meijin\Desktop\Lossless Galaxy ALLexxess\Rod Stewart\1971 Every Picture Tells A Story (Mini LP PT-SHM Universal Japan 2013)\Rod Stewart - Every Picture Tells A Story PT-SHM.wav

Peak level 97.6 %
Extraction speed 6.7 X
Range quality 100.0 %
Test CRC 305C23AA
Copy CRC 305C23AA
Copy OK

No errors occurred


AccurateRip summary

Track 1 accurately ripped (confidence 6) [6F4A3E97] (AR v2)
Track 2 accurately ripped (confidence 6) [062597D7] (AR v2)
Track 3 accurately ripped (confidence 6) [C879FAEA] (AR v2)
Track 4 accurately ripped (confidence 6) [736157CA] (AR v2)
Track 5 accurately ripped (confidence 6) [A203097F] (AR v2)
Track 6 accurately ripped (confidence 6) [55AF7658] (AR v2)
Track 7 accurately ripped (confidence 6) [B8B1D5BB] (AR v2)
Track 8 accurately ripped (confidence 6) [D51E706B] (AR v2)

All tracks accurately ripped

End of status report

==== Log checksum 7C4653767DB114F80AF8A0A5578840E0050073DC5C585E5E92160CAAA8678E16 ====


foobar2000 1.1.7 / Dynamic Range Meter 1.1.1
log date: 2014-12-17 18:34:23

––––––––––––––––––––––––––––––––––––––––
Analyzed: Rod Stewart / Every Picture Tells A Story PT-SHM
––––––––––––––––––––––––––––––––––––––––

DR Peak RMS Duration Track
––––––––––––––––––––––––––––––––––––––––
DR11 -0.21 dB -14.28 dB 6:00 01-Every Picture Tells A Story
DR10 -1.21 dB -15.53 dB 4:04 02-Seems Like A Long Time
DR11 -1.06 dB -14.87 dB 6:00 03-That's All Right
DR10 -2.73 dB -15.66 dB 3:46 04-Tomorrow Is Such A Long Time
DR11 -1.18 dB -15.09 dB 5:50 05-Maggie May
DR11 -1.74 dB -16.33 dB 5:36 06-Mandolin Wind
DR11 -1.00 dB -14.67 dB 5:24 07-(I Know) I'm Losing You
DR10 -1.47 dB -15.01 dB 4:07 08-Reason To Believe
––––––––––––––––––––––––––––––––––––––––

Number of tracks: 8
Official DR value: DR11

Samplerate: 44100 Hz
Channels: 2
Bits per sample: 16
Bitrate: 1411 kbps
Codec: PCM
================================================================================

Rod Stewart - Every Picture Tells A Story (1971) {Japan Platinum SHM-CD}
Rod Stewart - Every Picture Tells A Story (1971) {Japan Platinum SHM-CD}


Thanks to the original ripper