Subcategories
Tags
Language
Tags

Olivia Newton-John - 40/40: The Best Selection [2 SHM-CDs] (2010) {Japan}

Posted By: BlondStyle
Olivia Newton-John - 40/40: The Best Selection [2 SHM-CDs] (2010) {Japan}

Olivia Newton-John - 40/40 - The Best Selection [2 SHM-CDs] (2010) {Japan}
Pop/Rock, Soft Rock, Country-Pop | EAC Rip | FLAC, Img+CUE+LOG+Scans (JPEG) | 02:23:23 | 1,58 Gb
Label: Universal International (Japan) | Cat.# UICY-1493~4 | Released: 2010-10-13
Olivia Newton-John - 40/40: The Best Selection [2 SHM-CDs] (2010) {Japan}

"40/40: The Best Selection" is a double compilation album by English-born Australian pop singer Olivia Newton-John. The album is set to be released 13 October 2010, simultaneously with the box set 40th Anniversary Collection. This compilation has been specially created for the Japanese market and has been remastered by Universal Music Japan and pressed on SHM-CD for ultimate clarity. The songs were selected by votes from Japanese fans for a limited release edition that includes a bonus track "Come on Home".
~Wikipedia

Olivia Newton-John - 40/40: The Best Selection [2 SHM-CDs] (2010) {Japan}

"40/40: The Best Selection" is a comprehensive double-disc career overview of Olivia Newton-John designed to celebrate her four decades in show business. Yes, the compilation runs 40 tracks, but this is not designed to showcase each era of Olivia's career in equal measure. Perhaps there are a few more latter-day cuts than most audiences would know, and maybe there are a few more early tracks than needed, but all the big hits are here, from the early mellow country-rock to the slick soft rock and melodic disco of the turn of the '80s. Compared to the U.S. compilation Gold, this isn't quite as good - there's too much of the two bookends of a long career - but it does have what most casual audiences require: all the hits, all sounding as good as they ever have.
~Review by Stephen Thomas Erlewine

Olivia Newton-John - 40/40: The Best Selection [2 SHM-CDs] (2010) {Japan}




Release of this 2CD-Set: 2010, October, 13 [CDs Universal International (Japan), Cat.# UICY-1493~4 / UPC: 4988005632791]
This compilation ℗ © 2010 Universal International, a division of UNIVERSAL MUSIC LLC
Universal International, A UNIVERSAL MUSIC COMPANY.
Marketed & Distributed by UNIVERSAL MUSIC LLC.
Made in Japan


Credits:

Artwork & Design - Chihiro Nozaki (FACE Design)
Product Coordination - Michlyo Goda (Universal Music LLC)
Mastering Engineer - Hiroshi Takiguchi (JVC Mastering Center)
Production Manager - Soichiro Shibata (Universal Music LLC)


Tracklist:

Disc 1

01. Have You Never Been Mellow (03:31)
(John Farrar)
02. Hopelessly Devoted To You (03:06)
(John Farrar)
03. Sam (03:42)
(Don Black / John Farrar / Hank Marvin)
04. Making A Good Thing Better (03:43)
(Peter Wingfield)
05. Something Better To Do (03:15)
(John Farrar)
06. Don't Stop Believin' (03:39)
(John Farrar)
07. Sad Songs (03:37)
(Billy Alessi / Bobby Alessi)
08. Compassionate Man (03:24)
(Chris Christian / John Farrar)
09. Jolene (03:02)
(Dolly Parton)
10. Please Mr. Please (03:24)
(John Rostill / Bruce Welch)
11. Take Me Home, Country Roads (03:18)
(Bill Danoff / John Denver / Taffy Nivert)
12. Let It Shine (02:27)
(Linda Hargrove)
13. If Not For You (02:54)
(Bob Dylan)
14. Don't Throw It All Away (02:55)
(Gary Benson / David Mindel)
15. Let Me Be There (03:01)
(John Rostill)
16. Long Live Love (02:48)
(Valerie Avon / Harold Spiro)
17. If You Love Me (Let Me Know) (03:15)
(John Rostill)
18. Angel Eyes (02:45)
(Tony Macaulay / Keith Potger)
19. The Promise (The Dolphin Song) (04:32)
(Olivia Newton-John)
20. Summer Nights (03:34)
(Warren Casey / Jim Jacobs)

Disc 2

01. Xanadu (03:29)
(Jeff Lynne)
02. Physical (03:44)
(Steve Kipner / Terry Shaddick)
03. You're The One That I Want (02:49)
(John Farrar)
04. Heart Attack (03:08)
(Paul Bliss / Stephen Kipner)
05. Twist Of Fate (03:45)
(John Farrar)
06. Landslide (04:23)
(John Farrar)
07. I Need Love (04:10)
(Steve Kipner / Lewis Parker)
08. The Rumour (03:56)
(Elton John / Bernie Taupin)
09. Totally Hot (03:12)
(John Farrar)
10. Make A Move On Me (03:17)
(John Farrar / Tom Snow)
11. Deeper Than The Night (03:36)
(Tom Snow / Johnny Vastano)
12. Magic (04:30)
(John Farrar)
13. Soul Kiss (04:30)
(Mark Goldenberg)
14. A Little More Love (03:27)
(John Farrar)
15. Suddenly (04:01)
(John Farrar)
16. Take A Chance (04:09)
(David Foster / Steve Lukather / Olivia Newton-John)
17. Come On Over (03:39)
(Barry Gibb / Robin Gibb)
18. Slow Dancing (03:58)
(Jack Tempchin)
19. Clearly Love (02:19)
(Diane Berglund / Jim Phillips)
20. I Honestly Love You (03:39)
(Peter Allen / Jeff Barry)
21. Come On Home (Special Bonus Track) (03:31)

Exact Audio Copy V1.0 beta 3 from 29. August 2011

EAC extraction logfile from 29. October 2016, 14:05

Olivia Newton-John / 40_40 - The Best Selection (Disc 1)

Used drive : PIONEER BD-RW BDR-208D Adapter: 1 ID: 0

Read mode : Secure
Utilize accurate stream : Yes
Defeat audio cache : Yes
Make use of C2 pointers : No

Read offset correction : 667
Overread into Lead-In and Lead-Out : No
Fill up missing offset samples with silence : Yes
Delete leading and trailing silent blocks : No
Null samples used in CRC calculations : Yes
Used interface : Native Win32 interface for Win NT & 2000

Used output format : Internal WAV Routines
Sample format : 44.100 Hz; 16 Bit; Stereo


TOC of the extracted CD

Track | Start | Length | Start sector | End sector
––––––––––––––––––––––––––––-
1 | 0:00.00 | 3:31.50 | 0 | 15874
2 | 3:31.50 | 3:06.05 | 15875 | 29829
3 | 6:37.55 | 3:42.70 | 29830 | 46549
4 | 10:20.50 | 3:43.70 | 46550 | 63344
5 | 14:04.45 | 3:15.57 | 63345 | 78026
6 | 17:20.27 | 3:39.00 | 78027 | 94451
7 | 20:59.27 | 3:37.08 | 94452 | 110734
8 | 24:36.35 | 3:24.42 | 110735 | 126076
9 | 28:01.02 | 3:02.68 | 126077 | 139794
10 | 31:03.70 | 3:24.00 | 139795 | 155094
11 | 34:27.70 | 3:18.20 | 155095 | 169964
12 | 37:46.15 | 2:27.02 | 169965 | 180991
13 | 40:13.17 | 2:54.55 | 180992 | 194096
14 | 43:07.72 | 2:55.25 | 194097 | 207246
15 | 46:03.22 | 3:01.25 | 207247 | 220846
16 | 49:04.47 | 2:48.43 | 220847 | 233489
17 | 51:53.15 | 3:15.07 | 233490 | 248121
18 | 55:08.22 | 2:45.65 | 248122 | 260561
19 | 57:54.12 | 4:32.58 | 260562 | 281019
20 | 62:26.70 | 3:34.72 | 281020 | 297141


Range status and errors

Selected range

Filename D:\BlondStyle\Disc 1.wav

Peak level 100.0 %
Extraction speed 7.6 X
Range quality 100.0 %
Test CRC 1C974852
Copy CRC 1C974852
Copy OK

No errors occurred


AccurateRip summary

Track 1 accurately ripped (confidence 26) [540A0D34] (AR v2)
Track 2 accurately ripped (confidence 26) [7F1E72EE] (AR v2)
Track 3 accurately ripped (confidence 26) [DD0B8304] (AR v2)
Track 4 accurately ripped (confidence 26) [D77F8D39] (AR v2)
Track 5 accurately ripped (confidence 26) [EEB0C27B] (AR v2)
Track 6 accurately ripped (confidence 25) [4F2628D8] (AR v2)
Track 7 accurately ripped (confidence 26) [85E699FB] (AR v2)
Track 8 accurately ripped (confidence 26) [3AA00EC4] (AR v2)
Track 9 accurately ripped (confidence 26) [9C23D466] (AR v2)
Track 10 accurately ripped (confidence 25) [1488B248] (AR v2)
Track 11 accurately ripped (confidence 25) [CE9D6E67] (AR v2)
Track 12 accurately ripped (confidence 25) [5B4B9198] (AR v2)
Track 13 accurately ripped (confidence 25) [D4CD5D78] (AR v2)
Track 14 accurately ripped (confidence 25) [CF0A20EF] (AR v2)
Track 15 accurately ripped (confidence 26) [4C42AFF9] (AR v2)
Track 16 accurately ripped (confidence 25) [669B88C0] (AR v2)
Track 17 accurately ripped (confidence 25) [107D8C08] (AR v2)
Track 18 accurately ripped (confidence 26) [4ACD118F] (AR v2)
Track 19 accurately ripped (confidence 25) [38551607] (AR v2)
Track 20 accurately ripped (confidence 25) [4D0745AF] (AR v2)

All tracks accurately ripped

End of status report

–– CUETools DB Plugin V2.1.3

[CTDB TOCID: 6jh28YL.1BD9EJ22HM.pIBwVieE-] found, Submit result: already submitted
[cc7001fe] (41/48) Accurately ripped
[ab05e49c] (01/48) No match
[9cf10649] (01/48) No match
[62c76f1e] (01/48) No match
[3247c175] (01/48) No match
[caae0cd7] (01/48) No match
[be1e2deb] (01/48) No match
[588b7605] (01/48) No match


==== Log checksum 0E16F4101507416F4AB94DF83BCCD55C4B2358E1951E1DCB52EFFCD7ACE38EA0 ====

––––––––––––––––––––––––––––––––––––––––
Analyzed: Olivia Newton-John / 40_40 - The Best Selection (Disc 1)
––––––––––––––––––––––––––––––––––––––––

DR Peak RMS Duration Track
––––––––––––––––––––––––––––––––––––––––
DR6 -0.06 dB -8.50 dB 3:32 01-Have You Never Been Mellow
DR7 -0.13 dB -9.32 dB 3:06 02-Hopelessly Devoted To You
DR8 0.00 dB -10.95 dB 3:43 03-Sam
DR6 0.00 dB -9.85 dB 3:44 04-Making A Good Thing Better
DR8 0.00 dB -9.53 dB 3:16 05-Something Better To Do
DR8 0.00 dB -10.22 dB 3:39 06-Don't Stop Believin'
DR7 0.00 dB -9.67 dB 3:37 07-Sad Songs
DR7 0.00 dB -9.22 dB 3:25 08-Compassionate Man
DR6 0.00 dB -7.08 dB 3:03 09-Jolene
DR7 0.00 dB -10.15 dB 3:24 10-Please Mr. Please
DR7 -0.08 dB -10.02 dB 3:18 11-Take Me Home, Country Roads
DR7 0.00 dB -8.47 dB 2:27 12-Let It Shine
DR8 0.00 dB -9.07 dB 2:55 13-If Not For You
DR7 0.00 dB -8.19 dB 2:55 14-Don't Throw It All Away
DR6 0.00 dB -7.79 dB 3:01 15-Let Me Be There
DR6 0.00 dB -7.85 dB 2:49 16-Long Live Love
DR7 0.00 dB -9.05 dB 3:15 17-If You Love Me (Let Me Know)
DR6 0.00 dB -8.12 dB 2:46 18-Angel Eyes
DR9 0.00 dB -12.55 dB 4:33 19-The Promise (The Dolphin Song)
DR6 0.00 dB -8.73 dB 3:35 20-Summer Nights
––––––––––––––––––––––––––––––––––––––––

Number of tracks: 20
Official DR value: DR7

Samplerate: 44100 Hz
Channels: 2
Bits per sample: 16
Bitrate: 961 kbps
Codec: FLAC
================================================================================

Exact Audio Copy V1.0 beta 3 from 29. August 2011

EAC extraction logfile from 29. October 2016, 14:50

Olivia Newton-John / 40_40 - The Best Selection (Disc 2)

Used drive : PIONEER BD-RW BDR-208D Adapter: 1 ID: 0

Read mode : Secure
Utilize accurate stream : Yes
Defeat audio cache : Yes
Make use of C2 pointers : No

Read offset correction : 667
Overread into Lead-In and Lead-Out : No
Fill up missing offset samples with silence : Yes
Delete leading and trailing silent blocks : No
Null samples used in CRC calculations : Yes
Used interface : Native Win32 interface for Win NT & 2000

Used output format : Internal WAV Routines
Sample format : 44.100 Hz; 16 Bit; Stereo


TOC of the extracted CD

Track | Start | Length | Start sector | End sector
––––––––––––––––––––––––––––-
1 | 0:00.00 | 3:29.47 | 0 | 15721
2 | 3:29.47 | 3:44.68 | 15722 | 32589
3 | 7:14.40 | 2:49.25 | 32590 | 45289
4 | 10:03.65 | 3:08.20 | 45290 | 59409
5 | 13:12.10 | 3:45.17 | 59410 | 76301
6 | 16:57.27 | 4:23.33 | 76302 | 96059
7 | 21:20.60 | 4:10.27 | 96060 | 114836
8 | 25:31.12 | 3:56.38 | 114837 | 132574
9 | 29:27.50 | 3:12.07 | 132575 | 146981
10 | 32:39.57 | 3:17.18 | 146982 | 161774
11 | 35:57.00 | 3:36.62 | 161775 | 178036
12 | 39:33.62 | 4:30.13 | 178037 | 198299
13 | 44:04.00 | 4:30.00 | 198300 | 218549
14 | 48:34.00 | 3:27.67 | 218550 | 234141
15 | 52:01.67 | 4:01.43 | 234142 | 252259
16 | 56:03.35 | 4:09.35 | 252260 | 270969
17 | 60:12.70 | 3:39.55 | 270970 | 287449
18 | 63:52.50 | 3:58.35 | 287450 | 305334
19 | 67:51.10 | 2:19.30 | 305335 | 315789
20 | 70:10.40 | 3:39.07 | 315790 | 332221
21 | 73:49.47 | 3:31.46 | 332222 | 348092


Range status and errors

Selected range

Filename D:\BlondStyle\Disc 2.wav

Peak level 100.0 %
Extraction speed 7.8 X
Range quality 100.0 %
Test CRC E79C0649
Copy CRC E79C0649
Copy OK

No errors occurred


AccurateRip summary

Track 1 accurately ripped (confidence 27) [42CD3F21] (AR v2)
Track 2 accurately ripped (confidence 27) [3BD89E5C] (AR v2)
Track 3 accurately ripped (confidence 27) [0A01B025] (AR v2)
Track 4 accurately ripped (confidence 26) [91EA7C50] (AR v2)
Track 5 accurately ripped (confidence 26) [D3D625B1] (AR v2)
Track 6 accurately ripped (confidence 26) [9A2349B7] (AR v2)
Track 7 accurately ripped (confidence 26) [E54A8222] (AR v2)
Track 8 accurately ripped (confidence 26) [53FF4CEA] (AR v2)
Track 9 accurately ripped (confidence 26) [F12172F9] (AR v2)
Track 10 accurately ripped (confidence 26) [6AB35C71] (AR v2)
Track 11 accurately ripped (confidence 26) [E7062ED0] (AR v2)
Track 12 accurately ripped (confidence 25) [95EAC196] (AR v2)
Track 13 accurately ripped (confidence 26) [7A844DAA] (AR v2)
Track 14 accurately ripped (confidence 26) [459912CC] (AR v2)
Track 15 accurately ripped (confidence 25) [C3C80E1C] (AR v2)
Track 16 accurately ripped (confidence 24) [55B96177] (AR v2)
Track 17 accurately ripped (confidence 24) [80F56D02] (AR v2)
Track 18 accurately ripped (confidence 25) [96B7B367] (AR v2)
Track 19 accurately ripped (confidence 25) [B080A592] (AR v2)
Track 20 accurately ripped (confidence 27) [1184D58E] (AR v2)
Track 21 accurately ripped (confidence 26) [B937CEFB] (AR v2)

All tracks accurately ripped

End of status report

–– CUETools DB Plugin V2.1.3

[CTDB TOCID: K5WDDetNSOGQngpvFYzeudwG6hU-] found, Submit result: K5WDDetNSOGQngpvFYzeudwG6hU- has been confirmed
[0caf6570] (39/46) Accurately ripped
[7a9beae8] (01/46) No match
[0aaf1fdb] (01/46) No match
[d07331b0] (01/46) No match
[0a92854a] (01/46) No match
[8cbd43db] (01/46) No match
[061b82dc] (01/46) No match
[6b3729aa] (01/46) No match


==== Log checksum B1B567FDA4CE674C75C1F7381DF5CD6B40F4AF56D7A6A798CF3DF218134E9E55 ====

––––––––––––––––––––––––––––––––––––––––
Analyzed: Olivia Newton-John / 40_40 - The Best Selection (Disc 2)
––––––––––––––––––––––––––––––––––––––––

DR Peak RMS Duration Track
––––––––––––––––––––––––––––––––––––––––
DR6 -0.08 dB -7.24 dB 3:30 01-Xanadu
DR6 0.00 dB -7.13 dB 3:45 02-Physical
DR7 0.00 dB -8.32 dB 2:49 03-You're The One That I Want
DR7 0.00 dB -8.79 dB 3:08 04-Heart Attack
DR7 0.00 dB -8.33 dB 3:45 05-Twist Of Fate
DR6 0.00 dB -7.80 dB 4:23 06-Landslide
DR7 0.00 dB -9.10 dB 4:10 07-I Need Love
DR7 0.00 dB -8.10 dB 3:57 08-The Rumour
DR7 0.00 dB -8.79 dB 3:12 09-Totally Hot
DR6 0.00 dB -8.05 dB 3:17 10-Make A Move On Me
DR6 0.00 dB -8.58 dB 3:37 11-Deeper Than The Night
DR7 0.00 dB -9.30 dB 4:30 12-Magic
DR8 0.00 dB -9.49 dB 4:30 13-Soul Kiss
DR7 0.00 dB -8.89 dB 3:28 14-A Little More Love
DR9 0.00 dB -10.93 dB 4:02 15-Suddenly
DR7 0.00 dB -10.29 dB 4:09 16-Take A Chance
DR7 0.00 dB -8.87 dB 3:40 17-Come On Over
DR9 0.00 dB -11.47 dB 3:58 18-Slow Dancing
DR7 0.00 dB -9.13 dB 2:19 19-Clearly Love
DR8 0.00 dB -12.51 dB 3:39 20-I Honestly Love You
DR7 0.00 dB -10.45 dB 3:32 21-Come On Home (Special Bonus Track)
––––––––––––––––––––––––––––––––––––––––

Number of tracks: 21
Official DR value: DR7

Samplerate: 44100 Hz
Channels: 2
Bits per sample: 16
Bitrate: 983 kbps
Codec: FLAC
================================================================================

See also:

♫~Welcome To My Blog~♫

password: BlondStyle