Tags
Language
Tags
February 2024
Su Mo Tu We Th Fr Sa
28 29 30 31 1 2 3
4 5 6 7 8 9 10
11 12 13 14 15 16 17
18 19 20 21 22 23 24
25 26 27 28 29 1 2
Attention❗ To save your time, in order to download anything on this site, you must be registered 👉 HERE. If you do not have a registration yet, it is better to do it right away. ✌

( • )( • ) ( ͡⚆ ͜ʖ ͡⚆ ) (‿ˠ‿)
SpicyMags.xyz

Mythos - Mythos (1998)

Posted By: gribovar
Mythos - Mythos (1998)

Mythos - Mythos (1998)
EAC Rip | FLAC (tracks+.cue+log) - 419 MB | MP3 CBR 320 kbps (LAME 3.93) - 150 MB | Covers - 186 MB
Genre: New Age, Enigmatic, Downtempo | RAR 3% Rec. | Label: Higher Octave Music (HOMCD 46572)

Canadian duo Mythos synthesize dance beats, various world musics, and new age sensibilities in a manner akin to an Enigma or Deep Forest. Bob D'Eith (keyboards) and Paul Schmidt (guitar) grew up in Vancouver, both receiving classical training on their respective instruments; the result was their Juno-nominated, Canada-only 1997 debut, Introspection. Mythos then signed with Higher Octave and released their self-titled international debut in 1998. The album's rich classical melodies blend with African tribal rhythms and traditional Oriental Middle Eastern tones to create a sound that is unique, otherworldly, and elegant. With over an hour of music, this self-titled recording includes the best of the previously released album Introspection plus seven new tracks.
Tracklist:
01. Brazil
02. June
03. Sunless Sea
04. November
05. Planinata
06. La Cathedral
07. The Odyssey
08. Angels Weep
09. The Nile
10. Motif
11. Sirens
12. Prelude
13. Introspection
14. Evolution
15. Premonition
16. Paradox

Total time: 01:03:56

Exact Audio Copy V0.99 prebeta 5 from 4. May 2009

EAC extraction logfile from 5. September 2010, 13:50

Mythos / Mythos

Used drive : HL-DT-STDVDRAM GH22NS50 Adapter: 7 ID: 0

Read mode : Secure
Utilize accurate stream : Yes
Defeat audio cache : Yes
Make use of C2 pointers : No

Read offset correction : 667
Overread into Lead-In and Lead-Out : No
Fill up missing offset samples with silence : Yes
Delete leading and trailing silent blocks : No
Null samples used in CRC calculations : Yes
Used interface : Installed external ASPI interface
Gap handling : Appended to previous track

Used output format : User Defined Encoder
Selected bitrate : 128 kBit/s
Quality : Low
Add ID3 tag : No
Command line compressor : C:\Program Files\Exact Audio Copy\Flac\flac.exe
Additional command line options : -8 -V -T "ARTIST=%a" -T "TITLE=%t" -T "ALBUM=%g" -T "DATE=%y" -T "TRACKNUMBER=%n" -T "GENRE=%m" -T "COMMENT=ripped by DrStandBy" %s


TOC of the extracted CD

Track | Start | Length | Start sector | End sector
––––––––––––––––––––––––––––-
1 | 0:01.00 | 4:17.53 | 75 | 19402
2 | 4:18.53 | 5:01.07 | 19403 | 41984
3 | 9:19.60 | 4:00.16 | 41985 | 60000
4 | 13:20.01 | 4:58.01 | 60001 | 82351
5 | 18:18.02 | 3:26.34 | 82352 | 97835
6 | 21:44.36 | 2:03.52 | 97836 | 107112
7 | 23:48.13 | 4:31.63 | 107113 | 127500
8 | 28:20.01 | 5:36.53 | 127501 | 152753
9 | 33:56.54 | 4:02.32 | 152754 | 170935
10 | 37:59.11 | 2:49.50 | 170936 | 183660
11 | 40:48.61 | 3:31.45 | 183661 | 199530
12 | 44:20.31 | 2:37.04 | 199531 | 211309
13 | 46:57.35 | 4:01.39 | 211310 | 229423
14 | 50:58.74 | 5:11.24 | 229424 | 252772
15 | 56:10.23 | 2:59.54 | 252773 | 266251
16 | 59:10.02 | 4:46.50 | 266252 | 287751


Track 1

Filename E:\Mythos\Mythos - 1998 - Mythos\01. Mythos - Brazil.wav

Pre-gap length 0:00:03.00

Peak level 97.5 %
Track quality 99.9 %
Test CRC 232A39E3
Copy CRC 232A39E3
Accurately ripped (confidence 5) [F303E217]
Copy OK

Track 2

Filename E:\Mythos\Mythos - 1998 - Mythos\02. Mythos - June.wav

Peak level 97.5 %
Track quality 100.0 %
Test CRC 798EB08A
Copy CRC 798EB08A
Accurately ripped (confidence 5) [4AB3D942]
Copy OK

Track 3

Filename E:\Mythos\Mythos - 1998 - Mythos\03. Mythos - Sunless Sea.wav

Peak level 97.5 %
Track quality 100.0 %
Test CRC 232B259A
Copy CRC 232B259A
Accurately ripped (confidence 5) [6ED49492]
Copy OK

Track 4

Filename E:\Mythos\Mythos - 1998 - Mythos\04. Mythos - November.wav

Peak level 100.0 %
Track quality 100.0 %
Test CRC D9E2DFC3
Copy CRC D9E2DFC3
Accurately ripped (confidence 5) [FB65DDB2]
Copy OK

Track 5

Filename E:\Mythos\Mythos - 1998 - Mythos\05. Mythos - Planinata.wav

Peak level 97.5 %
Track quality 100.0 %
Test CRC D3E7547E
Copy CRC D3E7547E
Accurately ripped (confidence 5) [A4B12353]
Copy OK

Track 6

Filename E:\Mythos\Mythos - 1998 - Mythos\06. Mythos - La Cathedral.wav

Peak level 97.5 %
Track quality 100.0 %
Test CRC 216488B0
Copy CRC 216488B0
Accurately ripped (confidence 5) [9C4C2FDE]
Copy OK

Track 7

Filename E:\Mythos\Mythos - 1998 - Mythos\07. Mythos - The Odyssey.wav

Peak level 100.0 %
Track quality 100.0 %
Test CRC 8C44E41A
Copy CRC 8C44E41A
Accurately ripped (confidence 4) [F2BB42BE]
Copy OK

Track 8

Filename E:\Mythos\Mythos - 1998 - Mythos\08. Mythos - Angels Weep.wav

Peak level 97.5 %
Track quality 99.9 %
Test CRC F25A08C3
Copy CRC F25A08C3
Accurately ripped (confidence 4) [015AB569]
Copy OK

Track 9

Filename E:\Mythos\Mythos - 1998 - Mythos\09. Mythos - The Nile.wav

Peak level 100.0 %
Track quality 99.9 %
Test CRC B1E87CAC
Copy CRC B1E87CAC
Accurately ripped (confidence 4) [89B7CA0B]
Copy OK

Track 10

Filename E:\Mythos\Mythos - 1998 - Mythos\10. Mythos - Motif.wav

Peak level 97.5 %
Track quality 99.9 %
Test CRC 27832133
Copy CRC 27832133
Accurately ripped (confidence 4) [C287E93D]
Copy OK

Track 11

Filename E:\Mythos\Mythos - 1998 - Mythos\11. Mythos - Sirens.wav

Peak level 100.0 %
Track quality 100.0 %
Test CRC F7D3FA3B
Copy CRC F7D3FA3B
Accurately ripped (confidence 4) [FA440D9E]
Copy OK

Track 12

Filename E:\Mythos\Mythos - 1998 - Mythos\12. Mythos - Prelude.wav

Peak level 91.6 %
Track quality 99.9 %
Test CRC B95AD18B
Copy CRC B95AD18B
Accurately ripped (confidence 4) [21515277]
Copy OK

Track 13

Filename E:\Mythos\Mythos - 1998 - Mythos\13. Mythos - Introspection.wav

Peak level 88.1 %
Track quality 100.0 %
Test CRC 6DD70BC4
Copy CRC 6DD70BC4
Accurately ripped (confidence 4) [5E77B8BE]
Copy OK

Track 14

Filename E:\Mythos\Mythos - 1998 - Mythos\14. Mythos - Evolution.wav

Peak level 97.5 %
Track quality 100.0 %
Test CRC 107374F4
Copy CRC 107374F4
Accurately ripped (confidence 3) [D3048DB5]
Copy OK

Track 15

Filename E:\Mythos\Mythos - 1998 - Mythos\15. Mythos - Premonition.wav

Peak level 94.2 %
Track quality 100.0 %
Test CRC 2938FE72
Copy CRC 2938FE72
Accurately ripped (confidence 4) [44ED5067]
Copy OK

Track 16

Filename E:\Mythos\Mythos - 1998 - Mythos\16. Mythos - Paradox.wav

Peak level 98.2 %
Track quality 100.0 %
Test CRC D2CC2E43
Copy CRC D2CC2E43
Accurately ripped (confidence 4) [187B7A1D]
Copy OK


All tracks accurately ripped

No errors occurred

End of status report

[CUETools log; Date: 14.10.2021 14:12:37; Version: 2.1.4]
Pregap length 00:01:00.
[CTDB TOCID: DDUCy3HK5e9PY1mp2Kxj8E_NHUc-] found.
Track | CTDB Status
1 | (50/51) Accurately ripped
2 | (47/51) Accurately ripped, or (3/51) differs in 128 samples @00:00:02
3 | (47/51) Accurately ripped, or (3/51) differs in 192 samples @00:00:51
4 | (47/51) Accurately ripped, or (3/51) differs in 128 samples @00:00:16
5 | (51/51) Accurately ripped
6 | (51/51) Accurately ripped
7 | (48/51) Accurately ripped
8 | (49/51) Accurately ripped
9 | (47/51) Accurately ripped
10 | (45/51) Accurately ripped, or (3/51) differs in 128 samples @02:49:38
11 | (49/51) Accurately ripped
12 | (48/51) Accurately ripped
13 | (49/51) Accurately ripped
14 | (45/51) Accurately ripped, or (3/51) differs in 128 samples @05:11:23
15 | (48/51) Accurately ripped
16 | (47/51) Accurately ripped
[AccurateRip ID: 00260123-01c345b5-af0efb10] found.
Track [ CRC | V2 ] Status
01 [f303e217|6726ed2a] (07+13/42) Accurately ripped
02 [4ab3d942|adf892f9] (07+13/42) Accurately ripped
03 [6ed49492|eaed1965] (07+13/42) Accurately ripped
04 [fb65ddb2|5913f048] (07+13/42) Accurately ripped
05 [a4b12353|a6631052] (07+13/41) Accurately ripped
06 [9c4c2fde|ad14529b] (07+13/42) Accurately ripped
07 [f2bb42be|08fabebd] (06+12/39) Accurately ripped
08 [015ab569|2493f67b] (06+12/38) Accurately ripped
09 [89b7ca0b|d5e54747] (06+12/38) Accurately ripped
10 [c287e93d|dcffda11] (06+12/38) Accurately ripped
11 [fa440d9e|bf91ad34] (06+11/37) Accurately ripped
12 [21515277|a92660d4] (06+11/38) Accurately ripped
13 [5e77b8be|9a582419] (06+11/38) Accurately ripped
14 [d3048db5|f401b1ef] (05+11/36) Accurately ripped
15 [44ed5067|a8709d56] (06+12/39) Accurately ripped
16 [187b7a1d|e0baf157] (06+11/37) Accurately ripped
Offsetted by 874:
01 [0955e5c1] (02/42) Accurately ripped
02 [daea6db4] (02/42) Accurately ripped
03 [d395dfe6] (02/42) Accurately ripped
04 [dd2850ea] (02/42) Accurately ripped
05 [ea0fa481] (02/41) Accurately ripped
06 [53279a24] (02/42) Accurately ripped
07 [bae8b09a] (02/39) Accurately ripped
08 [29044419] (02/38) Accurately ripped
09 [f5518cbd] (02/38) Accurately ripped
10 [fceac34b] (02/38) Accurately ripped
11 [7492f818] (02/37) Accurately ripped
12 [2ae51455] (02/38) Accurately ripped
13 [6c7132ba] (02/38) Accurately ripped
14 [bf2c46c7] (02/36) Accurately ripped
15 [11939287] (02/39) Accurately ripped
16 [2e4a2199] (02/37) Accurately ripped
Offsetted by 1541:
01 [64798a3c] (04/42) Accurately ripped
02 [cfb5c40b] (04/42) Accurately ripped
03 [cfa2a6dc] (04/42) Accurately ripped
04 [902f3d0e] (04/42) Accurately ripped
05 [e25e805a] (04/41) Accurately ripped
06 [8ddc8631] (04/42) Accurately ripped
07 [61264e8c] (04/39) Accurately ripped
08 [4e05aa41] (03/38) Accurately ripped
09 [fd545df4] (03/38) Accurately ripped
10 [07ca69b4] (03/38) Accurately ripped
11 [df6367ab] (03/37) Accurately ripped
12 [466a0d56] (04/38) Accurately ripped
13 [62e57b9c] (04/38) Accurately ripped
14 [caf9bfce] (03/36) Accurately ripped
15 [8555d277] (04/39) Accurately ripped
16 [31548b60] (03/37) Accurately ripped
Offsetted by 1543:
01 [87acb17e] (02/42) Accurately ripped
02 [8e6dd5f5] (02/42) Accurately ripped
03 [ab8ba960] (02/42) Accurately ripped
04 [d4a7c666] (02/42) Accurately ripped
05 [73cf3190] (02/41) Accurately ripped
06 [d9438b1f] (02/42) Accurately ripped
07 [85579e78] (02/39) Accurately ripped
08 [dffaec31] (02/38) Accurately ripped
09 [7640cd1e] (02/38) Accurately ripped
10 [23751c4a] (02/38) Accurately ripped
11 [b57d5c7d] (02/37) Accurately ripped
12 [cf842a7c] (02/38) Accurately ripped
13 [065ebb28] (02/38) Accurately ripped
14 [3eebc7d8] (02/36) Accurately ripped
15 [9508e017] (02/39) Accurately ripped
16 [06cedf6d] (02/37) Accurately ripped
Offsetted by 1949:
01 [713cd2d4] (00/42) No match (V2 was not tested)
02 [ca640a83] (00/42) No match (V2 was not tested)
03 [0d50a80c] (00/42) No match (V2 was not tested)
04 [203caf2e] (00/42) No match (V2 was not tested)
05 [c82bb762] (00/41) No match (V2 was not tested)
06 [a3f473d9] (00/42) No match (V2 was not tested)
07 [3871fe9c] (00/39) No match (V2 was not tested)
08 [9d763581] (00/38) No match (V2 was not tested)
09 [59bcf36c] (00/38) No match (V2 was not tested)
10 [13d0b93c] (00/38) No match (V2 was not tested)
11 [7c127f03] (00/37) No match (V2 was not tested)
12 [8739479e] (00/38) No match (V2 was not tested)
13 [a7841f2c] (00/38) No match (V2 was not tested)
14 [2fd827c6] (00/36) No match (V2 was not tested)
15 [0804adf7] (00/39) No match (V2 was not tested)
16 [37361ed2] (00/37) No match (V2 was not tested)

Track Peak [ CRC32 ] [W/O NULL] [ LOG ]
– 100,0 [173DD82E] [4753DAA5]
01 97,5 [232A39E3] [5DAFE65F] CRC32
02 97,5 [798EB08A] [2EA83176] CRC32
03 97,5 [232B259A] [809C8414] CRC32
04 100,0 [D9E2DFC3] [D498F184] CRC32
05 97,5 [D3E7547E] [B12922E5] CRC32
06 97,5 [216488B0] [EBC1A54C] CRC32
07 100,0 [8C44E41A] [445D7E6F] CRC32
08 97,5 [F25A08C3] [97DD498E] CRC32
09 100,0 [B1E87CAC] [91CB87B4] CRC32
10 97,5 [27832133] [59BA5A64] CRC32
11 100,0 [F7D3FA3B] [65EDDDB6] CRC32
12 91,6 [B95AD18B] [BE512CBB] CRC32
13 88,1 [6DD70BC4] [BD77F5F0] CRC32
14 97,5 [107374F4] [D2DA1A6A] CRC32
15 94,2 [2938FE72] [561B873E] CRC32
16 98,2 [D2CC2E43] [379A0E34] CRC32

Thanks to DrStandBy

See also:
Mythos - The Reality of a Dreamer (2000)
Mythos - Eternity (2002)
Mythos - Journey (2013)
Mythos - XXV (2021)