Tags
Language
Tags
March 2024
Su Mo Tu We Th Fr Sa
25 26 27 28 29 1 2
3 4 5 6 7 8 9
10 11 12 13 14 15 16
17 18 19 20 21 22 23
24 25 26 27 28 29 30
31 1 2 3 4 5 6

Mick Chillage - FAXology (2011)

Posted By: gribovar
Mick Chillage - FAXology (2011)

Mick Chillage - FAXology (2011)
EAC Rip | WavPack (image+.cue+log) - 374 MB | MP3 CBR 320 kbps (LAME 3.93) - 167 MB | Covers - 4 MB
Genre: Ambient | RAR 3% Rec. | Label: Fax +49-69/450464 (PS 08/122)

Fax is famous for releasing mostly experimental electronic and ambient music but depending on the artist/s an album could go anywhere. They have also just released the latest Anthony Rother LP in the last month and also some of the greatest names in electronic music such as Klaus Schulze, Brian Eno, Atom Heart, Bill Laswell, Biosphere, Tetsu Inoue, Mixmaster Morris, and many, many more have either released solo albums or collaborated with label boss and owner, Pete Namlook. Mick says: ""FAXology" is a result of me psyching myself up to send Peter a demo for Fax records, as the title suggest the CD is collection of Fax inspired pieces which Pete felt would suit a release to celebrate the labels fast approaching 20th year. Pete said while listening to the works he began to reminisce about the early days of Fax with albums like Broadway 2350 etc and felt the time was right for such a release."
Tracklist:
01. Approaching Antares
02. X 202
03. Hypersleep
04. Control Room
05. Corot-9b
06. Gamma Radiation
07. Returning Home

Total time: 01:11:13

Exact Audio Copy V1.0 beta 1 from 15. November 2010

EAC extraction logfile from 7. July 2011, 16:17

Mick Chillage / FAXology

Used drive : PLEXTOR DVDR PX-830SA Adapter: 0 ID: 0

Read mode : Secure
Utilize accurate stream : Yes
Defeat audio cache : Yes
Make use of C2 pointers : No

Read offset correction : 96
Overread into Lead-In and Lead-Out : No
Fill up missing offset samples with silence : Yes
Delete leading and trailing silent blocks : No
Null samples used in CRC calculations : Yes
Used interface : Installed external ASPI interface

Used output format : User Defined Encoder
Selected bitrate : 1024 kBit/s
Quality : High
Add ID3 tag : No
Command line compressor : C:\Program Files\Exact Audio Copy\wavpack.exe
Additional command line options : -hmxd -w "GENRE=%m" -w "DATE=%y" -w "COMMENT=Released by a-one" %s %d


TOC of the extracted CD

Track | Start | Length | Start sector | End sector
––––––––––––––––––––––––––––-
1 | 0:00.00 | 20:51.69 | 0 | 93893
2 | 20:51.69 | 3:15.25 | 93894 | 108543
3 | 24:07.19 | 5:52.39 | 108544 | 134982
4 | 29:59.58 | 5:07.56 | 134983 | 158063
5 | 35:07.39 | 8:13.01 | 158064 | 195039
6 | 43:20.40 | 18:33.46 | 195040 | 278560
7 | 61:54.11 | 9:19.16 | 278561 | 320501


Range status and errors

Selected range

Filename C:\Rips\Mick Chillage - FAXology.wav

Peak level 98.8 %
Extraction speed 1.0 X
Range quality 99.9 %
Test CRC 42CE8210
Copy CRC 42CE8210
Copy OK

No errors occurred


AccurateRip summary

Track 1 not present in database
Track 2 not present in database
Track 3 not present in database
Track 4 not present in database
Track 5 not present in database
Track 6 not present in database
Track 7 not present in database

None of the tracks are present in the AccurateRip database

End of status report

[CUETools log; Date: 09.10.2022 14:45:01; Version: 2.1.4]
[CTDB TOCID: oMQBsh9XnoKfKY.5nudC2HBXAMI-] found.
Track | CTDB Status
1 | (8/8) Accurately ripped
2 | (8/8) Accurately ripped
3 | (8/8) Accurately ripped
4 | (8/8) Accurately ripped
5 | (8/8) Accurately ripped
6 | (8/8) Accurately ripped
7 | (8/8) Accurately ripped
[AccurateRip ID: 0013ad74-0072ddb0-5010b107] found.
Track [ CRC | V2 ] Status
01 [64b8fb1d|b2a84944] (0+3/3) Accurately ripped
02 [c4dc30d6|2e6d2738] (0+3/3) Accurately ripped
03 [c77583e4|0e640522] (0+3/3) Accurately ripped
04 [53c3b63c|65dc95ea] (0+3/3) Accurately ripped
05 [ed825712|9e8ebb17] (0+3/3) Accurately ripped
06 [ec286fce|f7e23732] (0+3/3) Accurately ripped
07 [800031d9|0ce2baa1] (0+3/3) Accurately ripped

Track Peak [ CRC32 ] [W/O NULL] [ LOG ]
– 98,8 [42CE8210] [56CF678B] CRC32
01 98,8 [3AE9F556] [96E61F53]
02 98,8 [5F827F6F] [8E06A2A4]
03 98,8 [375BCA5E] [D9AA6FD9]
04 81,8 [B46DE1B1] [11BCE992]
05 98,8 [A2C8B63B] [AC74363C]
06 98,8 [32842E18] [45D3EEA4]
07 98,8 [D5C2B1F8] [EFDAD217]

Thanks to a-one