Subcategories

Meat Loaf - Bat Out of Hell (1977) [2006, Special Edition]

Posted By: v3122
Meat Loaf - Bat Out of Hell (1977) [2006, Special Edition]

Meat Loaf - Bat Out of Hell (1977)
EAC | Flac(Image) + Cue + Log & MP3 CBR 320Kbps
Cleveland International, 88697010122 | ~ 424 or 156 Mb | Scans(jpg) -> 9.16 Mb
Hard Rock

There is no other album like Bat Out of Hell, unless you want to count the sequel. This is Grand Guignol pop – epic, gothic, operatic, and silly, and it's appealing because of all of this. Jim Steinman was a composer without peer, simply because nobody else wanted to make mini-epics like this. And there never could have been a singer more suited for his compositions than Meat Loaf, a singer partial to bombast, albeit shaded bombast. The compositions are staggeringly ridiculous, yet Meat Loaf finds the emotional core in each song, bringing true heartbreak to "Two out of Three Ain't Bad" and sly humor to "Paradise by the Dashboard Light." There's no discounting the production of Todd Rundgren, either, who gives Steinman's self-styled grandiosity a production that's staggeringly big but never overwhelming and always alluring. While the sentiments are deliberately adolescent and filled with jokes and exaggerated clichés, there's real (albeit silly) wit behind these compositions, not just in the lyrics but in the music, which is a savvy blend of oldies pastiche, show tunes, prog rock, Springsteen-esque narratives, and blistering hard rock (thereby sounding a bit like an extension of Rocky Horror Picture Show, which brought Meat Loaf to the national stage). It may be easy to dismiss this as ridiculous, but there's real style and craft here and its kitsch is intentional. It may elevate adolescent passion to operatic dimensions, and that's certainly silly, but it's hard not to marvel at the skill behind this grandly silly, irresistible album.

by Stephen Thomas Erlewine, allmusic
Meat Loaf - Bat Out of Hell (1977):

Meat Loaf - Bat Out of Hell (1977) [2006, Special Edition]

Tracklist:

01. Bat Out of Hell
02. You Took the Words Right Out of My Mouth (Hot Summer Night)
03. Heaven Can Wait
04. All Revved Up with No Place to Go
05. Two Out of Three Ain't Bad
06. Paradise By the Dashboard Light
07. For Crying Out Loud
08. Great Boleros Of Fire
09. Bat Out of Hell
10. Dead Ringer for Love - Meat Loaf with Cher

Exact Audio Copy V1.1 from 23. June 2015

EAC extraction logfile from 29. June 2017, 12:52

Meat Loaf / Bat Out of Hell

Used drive : ASUS DRW-24F1ST a Adapter: 1 ID: 1

Read mode : Secure
Utilize accurate stream : Yes
Defeat audio cache : Yes
Make use of C2 pointers : No

Read offset correction : 6
Overread into Lead-In and Lead-Out : No
Fill up missing offset samples with silence : Yes
Delete leading and trailing silent blocks : No
Null samples used in CRC calculations : Yes
Used interface : Native Win32 interface for Win NT & 2000

Used output format : User Defined Encoder
Selected bitrate : 896 kBit/s
Quality : High
Add ID3 tag : No
Command line compressor : C:\Program Files (x86)\Exact Audio Copy\Flac\flac.exe
Additional command line options : -V -8 -T "Date=%year%" -T "COMMENT=ripped by CHKA1961" -T "Genre=%genre%" %source%


TOC of the extracted CD

Track | Start | Length | Start sector | End sector
––––––––––––––––––––––––––––-
1 | 0:00.00 | 9:52.05 | 0 | 44404
2 | 9:52.05 | 5:05.40 | 44405 | 67319
3 | 14:57.45 | 4:41.62 | 67320 | 88456
4 | 19:39.32 | 4:20.48 | 88457 | 108004
5 | 24:00.05 | 5:26.55 | 108005 | 132509
6 | 29:26.60 | 8:30.15 | 132510 | 170774
7 | 37:57.00 | 8:55.12 | 170775 | 210911
8 | 46:52.12 | 3:54.38 | 210912 | 228499
9 | 50:46.50 | 11:11.40 | 228500 | 278864
10 | 61:58.15 | 4:21.60 | 278865 | 298499


Range status and errors

Selected range

Filename D:\Downloads\Meat Loaf - Bat Out Of Hell\Meat Loaf - Bat Out of Hell.wav

Peak level 100.0 %
Extraction speed 7.9 X
Range quality 99.9 %
Test CRC 49ABAA35
Copy CRC 49ABAA35
Copy OK

No errors occurred


AccurateRip summary

Track 1 accurately ripped (confidence 100) [2E5F37F2] (AR v2)
Track 2 accurately ripped (confidence 101) [A876F322] (AR v2)
Track 3 accurately ripped (confidence 102) [9BAA9A61] (AR v2)
Track 4 accurately ripped (confidence 101) [54AB8914] (AR v2)
Track 5 accurately ripped (confidence 102) [93A86180] (AR v2)
Track 6 accurately ripped (confidence 103) [A8052A3D] (AR v2)
Track 7 accurately ripped (confidence 102) [81CE8195] (AR v2)
Track 8 accurately ripped (confidence 98) [DBD5ADE8] (AR v2)
Track 9 accurately ripped (confidence 98) [3E8E1AB8] (AR v2)
Track 10 accurately ripped (confidence 99) [9380E225] (AR v2)

All tracks accurately ripped

End of status report

==== Log checksum F6541A76012E1F279F76CE245B493E76C6339CF4B81785CD948DD7C539AF7CCE ====

foobar2000 1.2.9 / Dynamic Range Meter 1.1.1
log date: 2017-07-18 23:21:48

––––––––––––––––––––––––––––––––––––––––
Analyzed: Meat Loaf / Bat Out of Hell
––––––––––––––––––––––––––––––––––––––––

DR Peak RMS Duration Track
––––––––––––––––––––––––––––––––––––––––
DR9 0.00 dB -11.93 dB 9:52 01-Bat Out of Hell
DR10 0.00 dB -12.10 dB 5:06 02-You Took the Words Right Out of My Mouth (Hot Summer Night)
DR12 0.00 dB -14.64 dB 4:42 03-Heaven Can Wait
DR11 0.00 dB -12.13 dB 4:21 04-All Revved Up With No Place to Go
DR12 0.00 dB -13.99 dB 5:27 05-Two Out of Three Ain’t Bad
DR10 0.00 dB -11.98 dB 8:30 06-Paradise by the Dashboard Light
DR10 0.00 dB -14.04 dB 8:55 07-For Crying Out Loud
DR10 -1.38 dB -13.17 dB 3:55 08-Bolero (live intro)
DR9 -0.42 dB -11.90 dB 11:12 09-Bat Out of Hell (live)
––––––––––––––––––––––––––––––––––––––––

Number of tracks: 9
Official DR value: DR10

Samplerate: 44100 Hz
Channels: 2
Bits per sample: 16
Bitrate: 868 kbps
Codec: FLAC

[CUETools log; Date: 18.07.2017 23:16:36; Version: 2.1.4]
HDCD: peak extend: none, transient filter: some, gain: none
[CTDB TOCID: rZ5dCt9bwQEbnbiERwk76QeHVVw-] found.
Track | CTDB Status
1 | (527/531) Accurately ripped
2 | (529/531) Accurately ripped
3 | (530/531) Accurately ripped
4 | (530/531) Accurately ripped
5 | (527/531) Accurately ripped
6 | (528/531) Accurately ripped
7 | (529/531) Accurately ripped
8 | (529/531) Accurately ripped
9 | (527/531) Accurately ripped
10 | (522/531) Accurately ripped, or (2/531) differs in 1106 samples @04:21:44-04:21:48
[AccurateRip ID: 0018d859-00c63a4f-980f8c0a] found.
Track [ CRC | V2 ] Status
01 [735dbadc|2e5f37f2] (043+101/496) Accurately ripped
02 [01de29a1|a876f322] (042+102/499) Accurately ripped
03 [2c2666dd|9baa9a61] (043+103/499) Accurately ripped
04 [7309ff78|54ab8914] (043+102/496) Accurately ripped
05 [ca35999e|93a86180] (043+103/501) Accurately ripped
06 [abb0d096|a8052a3d] (043+104/500) Accurately ripped
07 [3e6a5824|81ce8195] (044+103/500) Accurately ripped
08 [17807f6d|dbd5ade8] (043+099/491) Accurately ripped
09 [a6ad8a2b|3e8e1ab8] (043+099/488) Accurately ripped
10 [52e03c7a|9380e225] (043+100/486) Accurately ripped
Offsetted by -682:
01 [02a87417] (009/496) Accurately ripped
02 [6d58f289] (009/499) Accurately ripped
03 [42eaf4a8] (009/499) Accurately ripped
04 [3ba93249] (009/496) Accurately ripped
05 [07490ca8] (009/501) Accurately ripped
06 [ee00ae25] (009/500) Accurately ripped
07 [01c7e3c9] (009/500) Accurately ripped
08 [74d8c2ba] (009/491) Accurately ripped
09 [33e938bc] (009/488) Accurately ripped
10 [bd611896] (009/486) Accurately ripped
Offsetted by -48:
01 [04c3e74a] (002/496) Accurately ripped
02 [c112a86e] (002/499) Accurately ripped
03 [0b181459] (002/499) Accurately ripped
04 [39bc1e6d] (002/496) Accurately ripped
05 [e621fa19] (002/501) Accurately ripped
06 [f7e15b71] (002/500) Accurately ripped
07 [50801625] (002/500) Accurately ripped
08 [509e10a7] (002/491) Accurately ripped
09 [1a3d2186] (002/488) Accurately ripped
10 [3d4be272] (002/486) Accurately ripped
Offsetted by -36:
01 [3ab87050] (005/496) Accurately ripped
02 [6bd8e0ba] (005/499) Accurately ripped
03 [6ab0e4bc] (005/499) Accurately ripped
04 [a60c5d60] (005/496) Accurately ripped
05 [9f02aaac] (005/501) Accurately ripped
06 [7c248d66] (005/500) Accurately ripped
07 [77eb12fd] (005/500) Accurately ripped
08 [526d1d4c] (005/491) Accurately ripped
09 [1fd3a350] (005/488) Accurately ripped
10 [c266f8ea] (005/486) Accurately ripped
Offsetted by 598:
01 [a8ee5b3c] (006/496) Accurately ripped
02 [ffd8514a] (006/499) Accurately ripped
03 [f3a96c1d] (006/499) Accurately ripped
04 [2ef5fccb] (006/496) Accurately ripped
05 [5b67258f] (006/501) Accurately ripped
06 [f127d9b3] (006/500) Accurately ripped
07 [558150c5] (006/500) Accurately ripped
08 [063a28d7] (006/491) Accurately ripped
09 [4140bfe7] (006/488) Accurately ripped
10 [3e6dcb20] (007/486) Accurately ripped
Offsetted by 628:
01 [ebf23269] (126/496) Accurately ripped
02 [42ff7b7f] (126/499) Accurately ripped
03 [66c18635] (126/499) Accurately ripped
04 [0ce4ef35] (126/496) Accurately ripped
05 [debb0873] (127/501) Accurately ripped
06 [83bfe491] (126/500) Accurately ripped
07 [8ec70851] (126/500) Accurately ripped
08 [d6ee086e] (124/491) Accurately ripped
09 [ca796955] (122/488) Accurately ripped
10 [a38f835d] (124/486) Accurately ripped
Offsetted by 1229:
01 [ca495b75] (008/496) Accurately ripped
02 [6472ae7a] (008/499) Accurately ripped
03 [40d31acb] (008/499) Accurately ripped
04 [d2c29d10] (008/496) Accurately ripped
05 [a7984702] (008/501) Accurately ripped
06 [3663298c] (008/500) Accurately ripped
07 [0c1a730c] (008/500) Accurately ripped
08 [9811fca7] (008/491) Accurately ripped
09 [c87ff192] (008/488) Accurately ripped
10 [99e2c5ec] (007/486) Accurately ripped
Offsetted by -19:
01 [0ef05370] (000/496) No match (V2 was not tested)
02 [b193bbbd] (000/499) No match (V2 was not tested)
03 [89181734] (000/499) No match (V2 was not tested)
04 [416aeb14] (000/496) No match (V2 was not tested)
05 [11f2a406] (000/501) No match (V2 was not tested)
06 [33be559d] (000/500) No match (V2 was not tested)
07 [9c26b1ba] (000/500) No match (V2 was not tested)
08 [2f6f8d07] (000/491) No match (V2 was not tested)
09 [3cbc38af] (000/488) No match (V2 was not tested)
10 [7f44ae21] (000/486) No match (V2 was not tested)
Offsetted by 592:
01 [31252247] (000/496) No match (V2 was not tested)
02 [aa3066c5] (000/499) No match (V2 was not tested)
03 [f32f4e02] (000/499) No match (V2 was not tested)
04 [c8012411] (000/496) No match (V2 was not tested)
05 [6e263b89] (000/501) No match (V2 was not tested)
06 [b7408dce] (000/500) No match (V2 was not tested)
07 [60b2e126] (000/500) No match (V2 was not tested)
08 [265246cb] (000/491) No match (V2 was not tested)
09 [fba9f864] (000/488) No match (V2 was not tested)
10 [f7123fdc] (000/486) No match (V2 was not tested)

Track Peak [ CRC32 ] [W/O NULL] [ LOG ]
– 100,0 [49ABAA35] [6962A706] CRC32
01 100,0 [819A6146] [F876621B]
02 100,0 [A67C0C44] [7A96177E]
03 100,0 [F81EE499] [87A4AC98]
04 100,0 [8312ABF7] [343AC114]
05 100,0 [7B6077FE] [01316311]
06 100,0 [8AE4A05E] [9E1E0C52]
07 100,0 [E7426061] [87926D82]
08 85,3 [D3AFC19B] [0D5001FC]
09 95,2 [F29F2CBC] [4388F145]
10 100,0 [6BC45A59] [16C7D92A]

Meat Loaf - Bat Out of Hell (1977) [2006, Special Edition]

All thanks go to CHKA1961

Meat Loaf in my Blog

Download Meat Loaf - Bat Out of Hell (1977):