Subcategories

Mr. Dead - Metabolics Volume II: Dawn Of The Dead (2000) {Wordsound} **[RE-UP]**

Posted By: TestTickles
Mr. Dead - Metabolics Volume II: Dawn Of The Dead (2000) {Wordsound} **[RE-UP]**

Mr. Dead - Metabolics Volume II: Dawn Of The Dead (2000) {Wordsound}
EAC Rip | FLAC with CUE and LOG | scans | 387 mb
MP3 CBR 320 kbps | RAR | 134 mb
Genre: hip-hop, rap

Mr. Dead is a rapper that is about horrorcore and other cores no one can even pronounce. A visionary of death metaphors who was a part of the group Metabolics. Metabolics Volume II: Dawn Of The Dead was released in 2000 by Wordsound Records.

Mr. Dead - Metabolics Volume II: Dawn Of The Dead (2000) {Wordsound} **[RE-UP]**

1. The Return
2. Left For Dead
3. End Of Days
4. Lungevity
5. Spit Somethin'
6. Dawn Of The Dead
7. Altered States
8. Handle Ya Business
9. Seize & Structure
10. Pleasantries & Subtleties
11. It Ain't Goin Down Like That
12. Self Discipline
13. Junk Mode
14. Chemically Imbalanced
15. Third Degree Burn
16. Gained Access

EAC extraction logfile from 26. October 2011, 11:01 for CD
Mr. Dead / Metabolics Volume II: Dawn Of The Dead

Used drive : TSSTcorpDVD+-RW TS-H653B Adapter: 2 ID: 0
Read mode : Secure with NO C2, accurate stream, disable cache
Read offset correction : 6
Overread into Lead-In and Lead-Out : No

Used output format : Internal WAV Routines
44.100 Hz; 16 Bit; Stereo

Other options :
Fill up missing offset samples with silence : Yes
Delete leading and trailing silent blocks : No
Native Win32 interface for Win NT & 2000


Track 1
Filename C:\FLAC\Mr. Dead - Metabolics Volume II Dawn Of The Dead (2000) [FLAC] {Wordsound}\01 - The Return.wav

Pre-gap length 0:00:02.00

Peak level 98.8 %
Track quality 99.8 %
Test CRC 2121A3C2
Copy CRC 2121A3C2
Copy OK

Track 2
Filename C:\FLAC\Mr. Dead - Metabolics Volume II Dawn Of The Dead (2000) [FLAC] {Wordsound}\02 - Left For Dead.wav

Peak level 98.8 %
Track quality 100.0 %
Test CRC E235BF83
Copy CRC E235BF83
Copy OK

Track 3
Filename C:\FLAC\Mr. Dead - Metabolics Volume II Dawn Of The Dead (2000) [FLAC] {Wordsound}\03 - End Of Days.wav

Peak level 98.8 %
Track quality 100.0 %
Test CRC 72692C0F
Copy CRC 72692C0F
Copy OK

Track 4
Filename C:\FLAC\Mr. Dead - Metabolics Volume II Dawn Of The Dead (2000) [FLAC] {Wordsound}\04 - Longevity.wav

Peak level 98.8 %
Track quality 100.0 %
Test CRC F7A26C7C
Copy CRC F7A26C7C
Copy OK

Track 5
Filename C:\FLAC\Mr. Dead - Metabolics Volume II Dawn Of The Dead (2000) [FLAC] {Wordsound}\05 - Spit Somethin'.wav

Peak level 98.8 %
Track quality 99.9 %
Test CRC CA1D603E
Copy CRC CA1D603E
Copy OK

Track 6
Filename C:\FLAC\Mr. Dead - Metabolics Volume II Dawn Of The Dead (2000) [FLAC] {Wordsound}\06 - Dawn Of The Dead.wav

Peak level 98.8 %
Track quality 100.0 %
Test CRC DD6CF31B
Copy CRC DD6CF31B
Copy OK

Track 7
Filename C:\FLAC\Mr. Dead - Metabolics Volume II Dawn Of The Dead (2000) [FLAC] {Wordsound}\07 - Altered States.wav

Peak level 98.8 %
Track quality 100.0 %
Test CRC 90437CE9
Copy CRC 90437CE9
Copy OK

Track 8
Filename C:\FLAC\Mr. Dead - Metabolics Volume II Dawn Of The Dead (2000) [FLAC] {Wordsound}\08 - Handle Ya Business.wav

Peak level 98.8 %
Track quality 99.9 %
Test CRC 2A13F9C3
Copy CRC 2A13F9C3
Copy OK

Track 9
Filename C:\FLAC\Mr. Dead - Metabolics Volume II Dawn Of The Dead (2000) [FLAC] {Wordsound}\09 - Seize & Structure.wav

Peak level 98.8 %
Track quality 100.0 %
Test CRC B6AAC47B
Copy CRC B6AAC47B
Copy OK

Track 10
Filename C:\FLAC\Mr. Dead - Metabolics Volume II Dawn Of The Dead (2000) [FLAC] {Wordsound}\10 - Pleasantries & Subtleties.wav

Peak level 98.8 %
Track quality 100.0 %
Test CRC F4303DE6
Copy CRC F4303DE6
Copy OK

Track 11
Filename C:\FLAC\Mr. Dead - Metabolics Volume II Dawn Of The Dead (2000) [FLAC] {Wordsound}\11 - It Ain't Goin' Down Like That.wav

Peak level 98.8 %
Track quality 100.0 %
Test CRC 35CD2959
Copy CRC 35CD2959
Copy OK

Track 12
Filename C:\FLAC\Mr. Dead - Metabolics Volume II Dawn Of The Dead (2000) [FLAC] {Wordsound}\12 - Self Discipline.wav

Peak level 98.8 %
Track quality 100.0 %
Test CRC 869EF68E
Copy CRC 869EF68E
Copy OK

Track 13
Filename C:\FLAC\Mr. Dead - Metabolics Volume II Dawn Of The Dead (2000) [FLAC] {Wordsound}\13 - Junk Mode.wav

Peak level 98.8 %
Track quality 100.0 %
Test CRC 77A53C56
Copy CRC 77A53C56
Copy OK

Track 14
Filename C:\FLAC\Mr. Dead - Metabolics Volume II Dawn Of The Dead (2000) [FLAC] {Wordsound}\14 - Chemically Imbalanced.wav

Peak level 98.8 %
Track quality 100.0 %
Test CRC F9E5AEE8
Copy CRC F9E5AEE8
Copy OK

Track 15
Filename C:\FLAC\Mr. Dead - Metabolics Volume II Dawn Of The Dead (2000) [FLAC] {Wordsound}\15 - Third Degree Burn.wav

Peak level 98.8 %
Track quality 100.0 %
Test CRC 505601ED
Copy CRC 505601ED
Copy OK

Track 16
Filename C:\FLAC\Mr. Dead - Metabolics Volume II Dawn Of The Dead (2000) [FLAC] {Wordsound}\16 - Gained Access.wav

Peak level 98.8 %
Track quality 100.0 %
Test CRC C17D2B62
Copy CRC C17D2B62
Copy OK

No errors occured


End of status report


Mr. Dead - Metabolics Volume II: Dawn Of The Dead (2000) {Wordsound} **[RE-UP]**